  0
SECTION
  2
HEADER
  9
$ACADVER
  1
AC1015
  9
$ACADMAINTVER
 70
    14
  9
$DWGCODEPAGE
  3
ANSI_932
  9
$INSBASE
 10
0.0
 20
0.0
 30
0.0
  9
$EXTMIN
 10
-0.0025370872383519
 20
-0.0061568175565299
 30
-0.0000000000000053
  9
$EXTMAX
 10
297.0304564124558
 20
210.0193536113636
 30
0.0000000000000099
  9
$LIMMIN
 10
0.0
 20
0.0
  9
$LIMMAX
 10
594.0
 20
420.0
  9
$ORTHOMODE
 70
     0
  9
$REGENMODE
 70
     1
  9
$FILLMODE
 70
     1
  9
$QTEXTMODE
 70
     0
  9
$MIRRTEXT
 70
     1
  9
$LTSCALE
 40
15.0
  9
$ATTMODE
 70
     1
  9
$TEXTSIZE
 40
3.0
  9
$TRACEWID
 40
0.05
  9
$TEXTSTYLE
  7
STANDARD
  9
$CLAYER
  8
dim
  9
$CELTYPE
  6
CONTINUOUS
  9
$CECOLOR
 62
     7
  9
$CELTSCALE
 40
1.0
  9
$DISPSILH
 70
     0
  9
$DIMSCALE
 40
1.0
  9
$DIMASZ
 40
3.0
  9
$DIMEXO
 40
0.5
  9
$DIMDLI
 40
4.0
  9
$DIMRND
 40
0.0
  9
$DIMDLE
 40
0.0
  9
$DIMEXE
 40
1.0
  9
$DIMTP
 40
0.0
  9
$DIMTM
 40
0.0
  9
$DIMTXT
 40
3.0
  9
$DIMCEN
 40
0.0
  9
$DIMTSZ
 40
0.0
  9
$DIMTOL
 70
     0
  9
$DIMLIM
 70
     0
  9
$DIMTIH
 70
     0
  9
$DIMTOH
 70
     0
  9
$DIMSE1
 70
     0
  9
$DIMSE2
 70
     0
  9
$DIMTAD
 70
     1
  9
$DIMZIN
 70
     9
  9
$DIMBLK
  1

  9
$DIMASO
 70
     1
  9
$DIMSHO
 70
     1
  9
$DIMPOST
  1

  9
$DIMAPOST
  1

  9
$DIMALT
 70
     0
  9
$DIMALTD
 70
     4
  9
$DIMALTF
 40
0.0394
  9
$DIMLFAC
 40
1.0
  9
$DIMTOFL
 70
     0
  9
$DIMTVP
 40
0.0
  9
$DIMTIX
 70
     0
  9
$DIMSOXD
 70
     0
  9
$DIMSAH
 70
     1
  9
$DIMBLK1
  1
OPEN
  9
$DIMBLK2
  1
OPEN
  9
$DIMSTYLE
  2
STD01
  9
$DIMCLRD
 70
     7
  9
$DIMCLRE
 70
     7
  9
$DIMCLRT
 70
     0
  9
$DIMTFAC
 40
1.0
  9
$DIMGAP
 40
0.5
  9
$DIMJUST
 70
     0
  9
$DIMSD1
 70
     0
  9
$DIMSD2
 70
     0
  9
$DIMTOLJ
 70
     1
  9
$DIMTZIN
 70
     9
  9
$DIMALTZ
 70
     0
  9
$DIMALTTZ
 70
     0
  9
$DIMUPT
 70
     0
  9
$DIMDEC
 70
     3
  9
$DIMTDEC
 70
     3
  9
$DIMALTU
 70
     8
  9
$DIMALTTD
 70
     4
  9
$DIMTXSTY
  7
STANDARD
  9
$DIMAUNIT
 70
     0
  9
$DIMADEC
 70
     3
  9
$DIMALTRND
 40
0.0
  9
$DIMAZIN
 70
     2
  9
$DIMDSEP
 70
    46
  9
$DIMATFIT
 70
     3
  9
$DIMFRAC
 70
     0
  9
$DIMLDRBLK
  1
OPEN
  9
$DIMLUNIT
 70
     2
  9
$DIMLWD
 70
    -2
  9
$DIMLWE
 70
    -2
  9
$DIMTMOVE
 70
     0
  9
$LUNITS
 70
     2
  9
$LUPREC
 70
     4
  9
$SKETCHINC
 40
0.1
  9
$FILLETRAD
 40
0.5
  9
$AUNITS
 70
     0
  9
$AUPREC
 70
     0
  9
$MENU
  1
acad
  9
$ELEVATION
 40
0.0
  9
$PELEVATION
 40
0.0
  9
$THICKNESS
 40
0.0
  9
$LIMCHECK
 70
     0
  9
$CHAMFERA
 40
0.0
  9
$CHAMFERB
 40
0.0
  9
$CHAMFERC
 40
0.0
  9
$CHAMFERD
 40
0.0
  9
$SKPOLY
 70
     0
  9
$TDCREATE
 40
2455131.361598460
  9
$TDUCREATE
 40
2455130.986598460
  9
$TDUPDATE
 40
2455734.639092697
  9
$TDUUPDATE
 40
2455734.264092697
  9
$TDINDWG
 40
0.4860815625
  9
$TDUSRTIMER
 40
0.4860815625
  9
$USRTIMER
 70
     1
  9
$ANGBASE
 50
0.0
  9
$ANGDIR
 70
     0
  9
$PDMODE
 70
     3
  9
$PDSIZE
 40
0.3125
  9
$PLINEWID
 40
0.0
  9
$SPLFRAME
 70
     0
  9
$SPLINETYPE
 70
     6
  9
$SPLINESEGS
 70
     8
  9
$HANDSEED
  5
B23A
  9
$SURFTAB1
 70
     6
  9
$SURFTAB2
 70
     6
  9
$SURFTYPE
 70
     6
  9
$SURFU
 70
     6
  9
$SURFV
 70
     6
  9
$UCSBASE
  2

  9
$UCSNAME
  2

  9
$UCSORG
 10
0.0
 20
0.0
 30
0.0
  9
$UCSXDIR
 10
1.0
 20
0.0
 30
0.0
  9
$UCSYDIR
 10
0.0
 20
1.0
 30
0.0
  9
$UCSORTHOREF
  2

  9
$UCSORTHOVIEW
 70
     0
  9
$UCSORGTOP
 10
0.0
 20
0.0
 30
0.0
  9
$UCSORGBOTTOM
 10
0.0
 20
0.0
 30
0.0
  9
$UCSORGLEFT
 10
0.0
 20
0.0
 30
0.0
  9
$UCSORGRIGHT
 10
0.0
 20
0.0
 30
0.0
  9
$UCSORGFRONT
 10
0.0
 20
0.0
 30
0.0
  9
$UCSORGBACK
 10
0.0
 20
0.0
 30
0.0
  9
$PUCSBASE
  2

  9
$PUCSNAME
  2

  9
$PUCSORG
 10
0.0
 20
0.0
 30
0.0
  9
$PUCSXDIR
 10
1.0
 20
0.0
 30
0.0
  9
$PUCSYDIR
 10
0.0
 20
1.0
 30
0.0
  9
$PUCSORTHOREF
  2

  9
$PUCSORTHOVIEW
 70
     0
  9
$PUCSORGTOP
 10
0.0
 20
0.0
 30
0.0
  9
$PUCSORGBOTTOM
 10
0.0
 20
0.0
 30
0.0
  9
$PUCSORGLEFT
 10
0.0
 20
0.0
 30
0.0
  9
$PUCSORGRIGHT
 10
0.0
 20
0.0
 30
0.0
  9
$PUCSORGFRONT
 10
0.0
 20
0.0
 30
0.0
  9
$PUCSORGBACK
 10
0.0
 20
0.0
 30
0.0
  9
$USERI1
 70
     0
  9
$USERI2
 70
     0
  9
$USERI3
 70
     0
  9
$USERI4
 70
     0
  9
$USERI5
 70
     0
  9
$USERR1
 40
0.0
  9
$USERR2
 40
0.0
  9
$USERR3
 40
0.0
  9
$USERR4
 40
0.0
  9
$USERR5
 40
0.0
  9
$WORLDVIEW
 70
     1
  9
$SHADEDGE
 70
     3
  9
$SHADEDIF
 70
    70
  9
$TILEMODE
 70
     1
  9
$MAXACTVP
 70
    16
  9
$PINSBASE
 10
0.0
 20
0.0
 30
0.0
  9
$PLIMCHECK
 70
     0
  9
$PEXTMIN
 10
1.000000000000000E+20
 20
1.000000000000000E+20
 30
1.000000000000000E+20
  9
$PEXTMAX
 10
-1.000000000000000E+20
 20
-1.000000000000000E+20
 30
-1.000000000000000E+20
  9
$PLIMMIN
 10
0.0
 20
0.0
  9
$PLIMMAX
 10
12.0
 20
9.0
  9
$UNITMODE
 70
     0
  9
$VISRETAIN
 70
     0
  9
$PLINEGEN
 70
     1
  9
$PSLTSCALE
 70
     0
  9
$TREEDEPTH
 70
  3020
  9
$CMLSTYLE
  2
Standard
  9
$CMLJUST
 70
     0
  9
$CMLSCALE
 40
1.0
  9
$PROXYGRAPHICS
 70
     0
  9
$MEASUREMENT
 70
     1
  9
$CELWEIGHT
370
    -1
  9
$ENDCAPS
280
     0
  9
$JOINSTYLE
280
     0
  9
$LWDISPLAY
290
     0
  9
$INSUNITS
 70
     4
  9
$HYPERLINKBASE
  1

  9
$STYLESHEET
  1
monochrome.ctb
  9
$XEDIT
290
     1
  9
$CEPSNTYPE
380
     0
  9
$PSTYLEMODE
290
     1
  9
$FINGERPRINTGUID
  2

  9
$VERSIONGUID
  2
{9FAA626B-B968-4E86-8DDB-8664D4DF6446}
  9
$EXTNAMES
290
     1
  9
$PSVPSCALE
 40
0.0
  9
$OLESTARTUP
290
     0
  0
ENDSEC
  0
SECTION
  2
CLASSES
  0
CLASS
  1
ACDBDICTIONARYWDFLT
  2
AcDbDictionaryWithDefault
  3
AutoCAD 2000
 90
        0
280
     0
281
     0
  0
CLASS
  1
ACDBPLACEHOLDER
  2
AcDbPlaceHolder
  3
AutoCAD 2000
 90
        0
280
     0
281
     0
  0
CLASS
  1
LAYOUT
  2
AcDbLayout
  3
AutoCAD 2000
 90
        0
280
     0
281
     0
  0
CLASS
  1
LWPOLYLINE
  2
AcDbPolyline
  3
AutoCAD 2000
 90
    32768
280
     0
281
     1
  0
CLASS
  1
IMAGE
  2
AcDbRasterImage
  3
ISM
 90
    32895
280
     0
281
     1
  0
CLASS
  1
OLE2FRAME
  2
AcDbOle2Frame
  3
AutoCAD 2000
 90
    32768
280
     0
281
     1
  0
CLASS
  1
HATCH
  2
AcDbHatch
  3
AutoCAD 2000
 90
    32768
280
     0
281
     1
  0
CLASS
  1
DICTIONARYVAR
  2
AcDbDictionaryVar
  3
AutoCAD 2000
 90
        0
280
     0
281
     0
  0
CLASS
  1
RASTERVARIABLES
  2
AcDbRasterVariables
  3
ISM
 90
    32768
280
     0
281
     0
  0
CLASS
  1
IMAGEDEF
  2
AcDbRasterImageDef
  3
ISM
 90
    32768
280
     0
281
     0
  0
CLASS
  1
IMAGEDEF_REACTOR
  2
AcDbRasterImageDefReactor
  3
ISM
 90
    32769
280
     0
281
     0
  0
CLASS
  1
IDBUFFER
  2
AcDbIdBuffer
  3
AutoCAD 2000
 90
    32768
280
     0
281
     0
  0
CLASS
  1
SPATIAL_FILTER
  2
AcDbSpatialFilter
  3
AutoCAD 2000
 90
    32768
280
     0
281
     0
  0
CLASS
  1
XRECORD
  2
AcDbXrecord
  3
AutoCAD 2000
 90
    32768
280
     0
281
     0
  0
CLASS
  1
SORTENTSTABLE
  2
AcDbSortentsTable
  3
AutoCAD 2000
 90
    32768
280
     0
281
     0
  0
CLASS
  1
LAYER_INDEX
  2
AcDbLayerIndex
  3
AutoCAD 2000
 90
    32768
280
     0
281
     0
  0
CLASS
  1
SPATIAL_INDEX
  2
AcDbSpatialIndex
  3
AutoCAD 2000
 90
    32768
280
     0
281
     0
  0
CLASS
  1
OBJECT_PTR
  2
CAseDLPNTableRecord
  3
"ASE-LPNTableRecord"
 90
    32769
280
     0
281
     0
  0
CLASS
  1
PLOTSETTINGS
  2
AcDbPlotSettings
  3
AutoCAD 2000
 90
    32768
280
     0
281
     0
  0
CLASS
  1
VBA_PROJECT
  2
AcDbVbaProject
  3
acadvba
 90
    32768
280
     0
281
     0
  0
CLASS
  1
WIPEOUT
  2
AcDbWipeout
  3
WipeOut|AutoCAD Express Tool|expresstools@autodesk.com
 90
    32895
280
     0
281
     1
  0
CLASS
  1
WIPEOUTVARIABLES
  2
AcDbWipeoutVariables
  3
WipeOut|AutoCAD Express Tool|expresstools@autodesk.com
 90
    32768
280
     0
281
     0
  0
CLASS
  1
RTEXT
  2
RText
  3
RText|AutoCAD Express Tool|expresstools@autodesk.com
 90
    32768
280
     0
281
     1
  0
CLASS
  1
ARCALIGNEDTEXT
  2
AcDbArcAlignedText
  3
ATEXT|AutoCAD Express Tool|expresstools@autodesk.com
 90
    32768
280
     0
281
     1
  0
CLASS
  1
DIMASSOC
  2
AcDbDimAssoc
  3
"AcDbDimAssoc|Product Desc:     AcDim ARX App For Dimension|Company:          Autodesk, Inc.|WEB Address:      www.autodesk.com"
 90
    32768
280
     0
281
     0
  0
ENDSEC
  0
SECTION
  2
TABLES
  0
TABLE
  2
VPORT
  5
8
330
0
100
AcDbSymbolTable
 70
     3
  0
VPORT
  5
B239
330
8
100
AcDbSymbolTableRecord
100
AcDbViewportTableRecord
  2
*Active
 70
     0
 10
0.0
 20
0.0
 11
1.0
 21
1.0
 12
148.504893621157
 22
105.0001879979742
 13
0.0
 23
0.0
 14
1.0
 24
1.0
 15
0.0
 25
0.0
 16
0.0
 26
0.0
 36
1.0
 17
0.0
 27
0.0
 37
0.0
 40
211.6777017093968
 41
1.527918781725888
 42
50.0
 43
0.0
 44
0.0
 50
0.0
 51
0.0
 71
     0
 72
   100
 73
     1
 74
     1
 75
     0
 76
     0
 77
     0
 78
     0
281
     0
 65
     0
110
0.0
120
0.0
130
0.0
111
1.0
121
0.0
131
0.0
112
0.0
122
1.0
132
0.0
 79
     0
146
0.0
  0
ENDTAB
  0
TABLE
  2
LTYPE
  5
5
330
0
100
AcDbSymbolTable
 70
     9
  0
LTYPE
  5
14
330
5
100
AcDbSymbolTableRecord
100
AcDbLinetypeTableRecord
  2
ByBlock
 70
     0
  3

 72
    65
 73
     0
 40
0.0
  0
LTYPE
  5
15
330
5
100
AcDbSymbolTableRecord
100
AcDbLinetypeTableRecord
  2
ByLayer
 70
     0
  3

 72
    65
 73
     0
 40
0.0
  0
LTYPE
  5
16
330
5
100
AcDbSymbolTableRecord
100
AcDbLinetypeTableRecord
  2
CONTINUOUS
 70
     0
  3
Solid line
 72
    65
 73
     0
 40
0.0
  0
LTYPE
  5
1F5
330
5
100
AcDbSymbolTableRecord
100
AcDbLinetypeTableRecord
  2
CENTER
 70
     0
  3
____ _ ____ _ ____ _ ____ _ ____ _ ____ _ ____
 72
    65
 73
     4
 40
0.6
 49
0.375
 74
     0
 49
-0.075
 74
     0
 49
0.075
 74
     0
 49
-0.075
 74
     0
  0
LTYPE
  5
1F6
330
5
100
AcDbSymbolTableRecord
100
AcDbLinetypeTableRecord
  2
HIDDEN
 70
     0
  3
- - - - - - - - - - - - - - - - - - - -
 72
    65
 73
     2
 40
0.2
 49
0.1
 74
     0
 49
-0.1
 74
     0
  0
LTYPE
  5
1F7
330
5
100
AcDbSymbolTableRecord
100
AcDbLinetypeTableRecord
  2
PHANTOM
 70
     0
  3
_____ _ _ _____ _ _ _____ _ _ _____
 72
    65
 73
     6
 40
0.8
 49
0.45
 74
     0
 49
-0.05
 74
     0
 49
0.1
 74
     0
 49
-0.05
 74
     0
 49
0.1
 74
     0
 49
-0.05
 74
     0
  0
LTYPE
  5
1F8
330
5
100
AcDbSymbolTableRecord
100
AcDbLinetypeTableRecord
  2
DOT
 70
     0
  3
. . . . . . . . . . . . . . . . . . . .
 72
    65
 73
     2
 40
0.2
 49
0.1
 74
     0
 49
-0.1
 74
     0
  0
LTYPE
  5
1F9
330
5
100
AcDbSymbolTableRecord
100
AcDbLinetypeTableRecord
  2
DASHED
 70
     0
  3
- - - - - - - - - - - - - - - - - - - -
 72
    65
 73
     2
 40
0.2
 49
0.1
 74
     0
 49
-0.1
 74
     0
  0
LTYPE
  5
12EE
330
5
100
AcDbSymbolTableRecord
100
AcDbLinetypeTableRecord
  2
BORDER
 70
     0
  3
Border __ __ _ __ __ _ __ __ _ __ __ _ __ __ _
 72
    65
 73
     6
 40
1.02
 49
0.36
 74
     0
 49
-0.08
 74
     0
 49
0.36
 74
     0
 49
-0.08
 74
     0
 49
0.06
 74
     0
 49
-0.08
 74
     0
  0
LTYPE
  5
12EF
330
5
100
AcDbSymbolTableRecord
100
AcDbLinetypeTableRecord
  2
DASHDOT
 70
     0
  3
Dash dot ____ _ ____ _ ____ _ ____ _ ____ _ ___
 72
    65
 73
     4
 40
0.5800000000000001
 49
0.36
 74
     0
 49
-0.08
 74
     0
 49
0.06
 74
     0
 49
-0.08
 74
     0
  0
LTYPE
  5
12F0
330
5
100
AcDbSymbolTableRecord
100
AcDbLinetypeTableRecord
  2
DIVIDE
 70
     0
  3
Divide ______  __  __  ______  __  __  ______
 72
    65
 73
     6
 40
0.72
 49
0.36
 74
     0
 49
-0.08
 74
     0
 49
0.06
 74
     0
 49
-0.08
 74
     0
 49
0.06
 74
     0
 49
-0.08
 74
     0
  0
ENDTAB
  0
TABLE
  2
LAYER
  5
2
330
0
100
AcDbSymbolTable
 70
    14
  0
LAYER
  5
10
330
2
100
AcDbSymbolTableRecord
100
AcDbLayerTableRecord
  2
0
 70
     0
 62
     7
  6
CONTINUOUS
370
    -3
390
F
  0
LAYER
  5
1FA
330
2
100
AcDbSymbolTableRecord
100
AcDbLayerTableRecord
  2
DEFAULT_1
 70
     0
 62
     7
  6
CENTER
370
    -3
390
F
  0
LAYER
  5
1FB
330
2
100
AcDbSymbolTableRecord
100
AcDbLayerTableRecord
  2
DEFAULT_2
 70
     0
 62
     8
  6
HIDDEN
370
    -3
390
F
  0
LAYER
  5
1FF
330
2
100
AcDbSymbolTableRecord
100
AcDbLayerTableRecord
  2
01_ASM_CSYS_DTM_PLN
 70
     0
 62
     7
  6
CONTINUOUS
370
    -3
390
F
  0
LAYER
  5
12F1
330
2
100
AcDbSymbolTableRecord
100
AcDbLayerTableRecord
  2
DEFPOINTS
 70
     0
 62
     7
  6
CONTINUOUS
290
     0
370
    -3
390
F
  0
LAYER
  5
12F2
330
2
100
AcDbSymbolTableRecord
100
AcDbLayerTableRecord
  2
dim
 70
     0
 62
     7
  6
CONTINUOUS
370
    -3
390
F
  0
LAYER
  5
12F3
330
2
100
AcDbSymbolTableRecord
100
AcDbLayerTableRecord
  2
pnt
 70
     0
 62
     1
  6
CONTINUOUS
290
     0
370
    -3
390
F
  0
LAYER
  5
12F4
330
2
100
AcDbSymbolTableRecord
100
AcDbLayerTableRecord
  2
cent
 70
     0
 62
     2
  6
CENTER
370
    -3
390
F
  0
LAYER
  5
13BD
330
2
100
AcDbSymbolTableRecord
100
AcDbLayerTableRecord
  2
lenz
 70
     0
 62
     7
  6
CONTINUOUS
370
    -3
390
F
  0
LAYER
  5
13BE
330
2
100
AcDbSymbolTableRecord
100
AcDbLayerTableRecord
  2
renz
 70
     0
 62
     7
  6
CONTINUOUS
370
    -3
390
F
  0
LAYER
  5
268E
330
2
100
AcDbSymbolTableRecord
100
AcDbLayerTableRecord
  2
3
 70
     0
 62
     7
  6
CONTINUOUS
370
    -3
390
F
  0
LAYER
  5
A638
330
2
100
AcDbSymbolTableRecord
100
AcDbLayerTableRecord
  2
vp
 70
     0
 62
     1
  6
CONTINUOUS
290
     0
370
    -3
390
F
  0
LAYER
  5
A639
330
2
100
AcDbSymbolTableRecord
100
AcDbLayerTableRecord
  2
waku
 70
     0
 62
     7
  6
CONTINUOUS
370
    -3
390
F
  0
LAYER
  5
A63A
330
2
100
AcDbSymbolTableRecord
100
AcDbLayerTableRecord
  2
waku1
 70
     0
 62
     7
  6
CONTINUOUS
290
     0
370
    -3
390
F
  0
ENDTAB
  0
TABLE
  2
STYLE
  5
3
330
0
100
AcDbSymbolTable
 70
     2
  0
STYLE
  5
11
330
3
100
AcDbSymbolTableRecord
100
AcDbTextStyleTableRecord
  2
STANDARD
 70
     0
 40
0.0
 41
0.8
 50
0.0
 71
     0
 42
3.0
  3
txt.shx
  4
bigfont.shx
  0
STYLE
  5
12F5
330
3
100
AcDbSymbolTableRecord
100
AcDbTextStyleTableRecord
  2

 70
     1
 40
0.0
 41
1.0
 50
0.0
 71
     0
 42
2.5
  3
ltypeshp.shx
  4

  0
ENDTAB
  0
TABLE
  2
VIEW
  5
6
330
0
100
AcDbSymbolTable
 70
     0
  0
ENDTAB
  0
TABLE
  2
UCS
  5
7
330
0
100
AcDbSymbolTable
 70
     0
  0
ENDTAB
  0
TABLE
  2
APPID
  5
9
330
0
100
AcDbSymbolTable
 70
     5
  0
APPID
  5
217
330
9
100
AcDbSymbolTableRecord
100
AcDbRegAppTableRecord
  2
ACAD
 70
     0
  0
APPID
  5
130E
330
9
100
AcDbSymbolTableRecord
100
AcDbRegAppTableRecord
  2
CONTENTTABDATA
 70
     0
  0
APPID
  5
130F
330
9
100
AcDbSymbolTableRecord
100
AcDbRegAppTableRecord
  2
CONTENTCURRENTTAB
 70
     0
  0
APPID
  5
1310
330
9
100
AcDbSymbolTableRecord
100
AcDbRegAppTableRecord
  2
CONTENTBLOCKICON
 70
     0
  0
APPID
  5
1311
330
9
100
AcDbSymbolTableRecord
100
AcDbRegAppTableRecord
  2
CONTENTBLOCKDESCRIPTION
 70
     0
  0
ENDTAB
  0
TABLE
  2
DIMSTYLE
  5
A
330
0
100
AcDbSymbolTable
 70
    25
100
AcDbDimStyleTable
 71
     2
340
12F6
340
218
  0
DIMSTYLE
105
218
330
A
100
AcDbSymbolTableRecord
100
AcDbDimStyleTableRecord
  2
STANDARD
 70
     0
 41
5.0
 47
0.001
 48
0.001
 71
     1
 73
     0
 74
     0
 77
     1
 78
     8
140
4.5
271
     3
272
     3
284
     8
340
11
  0
DIMSTYLE
105
12F6
330
A
100
AcDbSymbolTableRecord
100
AcDbDimStyleTableRecord
  2
STD01
 70
     0
 41
3.0
 42
0.5
 43
4.0
 44
1.0
 73
     0
 74
     0
 77
     1
 78
     9
 79
     2
140
3.0
141
0.0
143
0.0394
147
0.5
171
     4
173
     1
176
     7
177
     7
179
     3
271
     3
272
     3
273
     8
274
     4
284
     9
340
11
341
12E5
343
12E5
344
12E5
  0
DIMSTYLE
105
12F7
330
A
100
AcDbSymbolTableRecord
100
AcDbDimStyleTableRecord
  2
STD02
 70
     0
 40
0.5
 41
3.0
 42
0.5
 43
4.0
 44
1.0
 73
     0
 74
     0
 77
     1
 78
     9
 79
     2
140
3.0
141
0.0
143
0.0394
147
0.5
171
     4
173
     1
176
     2
177
     2
179
     3
271
     3
272
     3
273
     8
274
     4
284
     9
340
11
341
12E5
343
12E5
344
12E5
  0
DIMSTYLE
105
12F8
330
A
100
AcDbSymbolTableRecord
100
AcDbDimStyleTableRecord
  2
STD05
 70
     0
 40
0.2
 41
3.0
 42
0.5
 43
4.0
 44
1.0
 73
     0
 74
     0
 77
     1
 78
     9
 79
     2
140
3.0
141
0.0
143
0.0394
147
0.5
171
     4
173
     1
176
     2
177
     2
179
     3
271
     3
272
     3
273
     8
274
     4
284
     9
340
11
341
12E5
343
12E5
344
12E5
  0
DIMSTYLE
105
12F9
330
A
100
AcDbSymbolTableRecord
100
AcDbDimStyleTableRecord
  2
STD10
 70
     0
 40
0.1
 41
3.0
 42
0.5
 43
4.0
 44
1.0
 73
     0
 74
     0
 77
     1
 78
     9
 79
     2
140
3.0
141
0.0
143
0.0394
147
0.5
171
     4
173
     1
176
     2
177
     2
179
     3
271
     3
272
     3
273
     8
274
     4
284
     9
340
11
341
12E5
343
12E5
344
12E5
  0
DIMSTYLE
105
12FA
330
A
100
AcDbSymbolTableRecord
100
AcDbDimStyleTableRecord
  2
STD01$4
 70
     0
 41
3.0
 42
0.5
 43
4.0
 44
1.0
 73
     0
 77
     1
 78
     9
 79
     2
140
3.0
141
0.0
143
0.0394
147
0.5
171
     4
173
     1
176
     7
177
     7
179
     3
271
     3
272
     3
273
     8
274
     4
284
     9
340
11
341
12E5
343
12E5
344
12E5
  0
DIMSTYLE
105
12FB
102
{ACAD_REACTORS
330
A9C2
102
}
330
A
100
AcDbSymbolTableRecord
100
AcDbDimStyleTableRecord
  2
STD01$3
 70
     0
 41
3.0
 42
0.5
 43
4.0
 44
1.0
 73
     0
 77
     1
 78
     9
 79
     2
140
3.0
141
0.0
143
0.0394
147
0.5
171
     4
173
     1
176
     7
177
     7
179
     3
271
     3
272
     3
273
     8
274
     4
284
     9
340
11
341
12E5
343
12E5
344
12E5
  0
DIMSTYLE
105
12FC
330
A
100
AcDbSymbolTableRecord
100
AcDbDimStyleTableRecord
  2
STD01$6
 70
     0
 41
3.0
 42
0.5
 43
4.0
 44
1.0
 73
     0
 74
     0
 78
     9
 79
     2
140
3.0
141
0.0
143
0.0394
147
0.5
171
     4
173
     1
176
     7
177
     7
179
     3
271
     3
272
     3
273
     8
274
     4
284
     9
340
11
341
12E5
343
12E5
344
12E5
  0
DIMSTYLE
105
12FD
330
A
100
AcDbSymbolTableRecord
100
AcDbDimStyleTableRecord
  2
STD02$4
 70
     0
 40
0.5
 41
3.0
 42
0.5
 43
4.0
 44
1.0
 73
     0
 77
     1
 78
     9
 79
     2
140
3.0
141
0.0
143
0.0394
147
0.5
171
     4
173
     1
176
     2
177
     2
179
     3
271
     3
272
     3
273
     8
274
     4
284
     9
340
11
341
12E5
343
12E5
344
12E5
  0
DIMSTYLE
105
12FE
330
A
100
AcDbSymbolTableRecord
100
AcDbDimStyleTableRecord
  2
STD02$3
 70
     0
 40
0.5
 41
3.0
 42
0.5
 43
4.0
 44
1.0
 73
     0
 77
     1
 78
     9
 79
     2
140
3.0
141
0.0
143
0.0394
147
0.5
171
     4
173
     1
176
     2
177
     2
179
     3
271
     3
272
     3
273
     8
274
     4
284
     9
340
11
341
12E5
343
12E5
344
12E5
  0
DIMSTYLE
105
12FF
330
A
100
AcDbSymbolTableRecord
100
AcDbDimStyleTableRecord
  2
STD02$6
 70
     0
 40
0.5
 41
3.0
 42
0.5
 43
4.0
 44
1.0
 73
     0
 74
     0
 78
     9
 79
     2
140
3.0
141
0.0
143
0.0394
147
0.5
171
     4
173
     1
176
     2
177
     2
179
     3
271
     3
272
     3
273
     8
274
     4
284
     9
340
11
341
12E5
343
12E5
344
12E5
  0
DIMSTYLE
105
1300
330
A
100
AcDbSymbolTableRecord
100
AcDbDimStyleTableRecord
  2
STD05$4
 70
     0
 40
0.2
 41
3.0
 42
0.5
 43
4.0
 44
1.0
 73
     0
 77
     1
 78
     9
 79
     2
140
3.0
141
0.0
143
0.0394
147
0.5
171
     4
173
     1
176
     2
177
     2
179
     3
271
     3
272
     3
273
     8
274
     4
284
     9
340
11
341
12E5
343
12E5
344
12E5
  0
DIMSTYLE
105
1301
330
A
100
AcDbSymbolTableRecord
100
AcDbDimStyleTableRecord
  2
STD05$3
 70
     0
 40
0.2
 41
3.0
 42
0.5
 43
4.0
 44
1.0
 73
     0
 77
     1
 78
     9
 79
     2
140
3.0
141
0.0
143
0.0394
147
0.5
171
     4
173
     1
176
     2
177
     2
179
     3
271
     3
272
     3
273
     8
274
     4
284
     9
340
11
341
12E5
343
12E5
344
12E5
  0
DIMSTYLE
105
1302
330
A
100
AcDbSymbolTableRecord
100
AcDbDimStyleTableRecord
  2
STD05$6
 70
     0
 40
0.2
 41
3.0
 42
0.5
 43
4.0
 44
1.0
 73
     0
 74
     0
 78
     9
 79
     2
140
3.0
141
0.0
143
0.0394
147
0.5
171
     4
173
     1
176
     2
177
     2
179
     3
271
     3
272
     3
273
     8
274
     4
284
     9
340
11
341
12E5
343
12E5
344
12E5
  0
DIMSTYLE
105
1303
330
A
100
AcDbSymbolTableRecord
100
AcDbDimStyleTableRecord
  2
STD10$4
 70
     0
 40
0.1
 41
3.0
 42
0.5
 43
4.0
 44
1.0
 73
     0
 77
     1
 78
     9
 79
     2
140
3.0
141
0.0
143
0.0394
147
0.5
171
     4
173
     1
176
     2
177
     2
179
     3
271
     3
272
     3
273
     8
274
     4
284
     9
340
11
341
12E5
343
12E5
344
12E5
  0
DIMSTYLE
105
1304
330
A
100
AcDbSymbolTableRecord
100
AcDbDimStyleTableRecord
  2
STD10$3
 70
     0
 40
0.1
 41
3.0
 42
0.5
 43
4.0
 44
1.0
 73
     0
 77
     1
 78
     9
 79
     2
140
3.0
141
0.0
143
0.0394
147
0.5
171
     4
173
     1
176
     2
177
     2
179
     3
271
     3
272
     3
273
     8
274
     4
284
     9
340
11
341
12E5
343
12E5
344
12E5
  0
DIMSTYLE
105
1305
330
A
100
AcDbSymbolTableRecord
100
AcDbDimStyleTableRecord
  2
STD10$6
 70
     0
 40
0.1
 41
3.0
 42
0.5
 43
4.0
 44
1.0
 73
     0
 74
     0
 78
     9
 79
     2
140
3.0
141
0.0
143
0.0394
147
0.5
171
     4
173
     1
176
     2
177
     2
179
     3
271
     3
272
     3
273
     8
274
     4
284
     9
340
11
341
12E5
343
12E5
344
12E5
  0
DIMSTYLE
105
1306
102
{ACAD_REACTORS
330
A850
330
A85D
330
A86A
330
A877
330
A89F
330
A8C7
330
A8D4
330
A8E3
330
A8F2
330
A91C
330
A929
330
A938
330
A945
330
A9A2
102
}
330
A
100
AcDbSymbolTableRecord
100
AcDbDimStyleTableRecord
  2
STD01$0
 70
     0
 41
3.0
 42
0.5
 43
4.0
 44
1.0
 73
     0
 74
     0
 77
     1
 78
     9
 79
     2
140
3.0
141
0.0
143
0.0394
147
0.5
171
     4
172
     1
173
     1
176
     7
177
     7
179
     3
271
     3
272
     3
273
     8
274
     4
284
     9
340
11
341
12E5
343
12E5
344
12E5
  0
DIMSTYLE
105
1307
330
A
100
AcDbSymbolTableRecord
100
AcDbDimStyleTableRecord
  2
STD01$2
 70
     0
 41
3.0
 42
0.5
 43
4.0
 44
1.0
 73
     0
 74
     0
 77
     1
 78
     9
 79
     2
140
3.0
141
0.0
143
0.0394
147
0.5
171
     4
172
     1
173
     1
176
     7
177
     7
179
     3
271
     3
272
     3
273
     8
274
     4
284
     9
340
11
341
12E5
343
12E5
344
12E5
  0
DIMSTYLE
105
1308
330
A
100
AcDbSymbolTableRecord
100
AcDbDimStyleTableRecord
  2
STD02$0
 70
     0
 40
0.5
 41
3.0
 42
0.5
 43
4.0
 44
1.0
 73
     0
 74
     0
 77
     1
 78
     9
 79
     2
140
3.0
141
0.0
143
0.0394
147
0.5
171
     4
172
     1
173
     1
176
     2
177
     2
179
     3
271
     3
272
     3
273
     8
274
     4
284
     9
340
11
341
12E5
343
12E5
344
12E5
  0
DIMSTYLE
105
1309
330
A
100
AcDbSymbolTableRecord
100
AcDbDimStyleTableRecord
  2
STD02$2
 70
     0
 40
0.5
 41
3.0
 42
0.5
 43
4.0
 44
1.0
 73
     0
 74
     0
 77
     1
 78
     9
 79
     2
140
3.0
141
0.0
143
0.0394
147
0.5
171
     4
172
     1
173
     1
176
     2
177
     2
179
     3
271
     3
272
     3
273
     8
274
     4
284
     9
340
11
341
12E5
343
12E5
344
12E5
  0
DIMSTYLE
105
130A
330
A
100
AcDbSymbolTableRecord
100
AcDbDimStyleTableRecord
  2
STD05$0
 70
     0
 40
0.2
 41
3.0
 42
0.5
 43
4.0
 44
1.0
 73
     0
 74
     0
 77
     1
 78
     9
 79
     2
140
3.0
141
0.0
143
0.0394
147
0.5
171
     4
172
     1
173
     1
176
     2
177
     2
179
     3
271
     3
272
     3
273
     8
274
     4
284
     9
340
11
341
12E5
343
12E5
344
12E5
  0
DIMSTYLE
105
130B
330
A
100
AcDbSymbolTableRecord
100
AcDbDimStyleTableRecord
  2
STD05$2
 70
     0
 40
0.2
 41
3.0
 42
0.5
 43
4.0
 44
1.0
 73
     0
 74
     0
 77
     1
 78
     9
 79
     2
140
3.0
141
0.0
143
0.0394
147
0.5
171
     4
172
     1
173
     1
176
     2
177
     2
179
     3
271
     3
272
     3
273
     8
274
     4
284
     9
340
11
341
12E5
343
12E5
344
12E5
  0
DIMSTYLE
105
130C
330
A
100
AcDbSymbolTableRecord
100
AcDbDimStyleTableRecord
  2
STD10$2
 70
     0
 40
0.1
 41
3.0
 42
0.5
 43
4.0
 44
1.0
 73
     0
 74
     0
 77
     1
 78
     9
 79
     2
140
3.0
141
0.0
143
0.0394
147
0.5
171
     4
172
     1
173
     1
176
     2
177
     2
179
     3
271
     3
272
     3
273
     8
274
     4
284
     9
340
11
341
12E5
343
12E5
344
12E5
  0
DIMSTYLE
105
130D
330
A
100
AcDbSymbolTableRecord
100
AcDbDimStyleTableRecord
  2
STD10$0
 70
     0
 40
0.1
 41
3.0
 42
0.5
 43
4.0
 44
1.0
 73
     0
 74
     0
 77
     1
 78
     9
 79
     2
140
3.0
141
0.0
143
0.0394
147
0.5
171
     4
172
     1
173
     1
176
     2
177
     2
179
     3
271
     3
272
     3
273
     8
274
     4
284
     9
340
11
341
12E5
343
12E5
344
12E5
  0
ENDTAB
  0
TABLE
  2
BLOCK_RECORD
  5
1
330
0
100
AcDbSymbolTable
 70
    45
  0
BLOCK_RECORD
  5
1F
330
1
100
AcDbSymbolTableRecord
100
AcDbBlockTableRecord
  2
*MODEL_SPACE
340
22
  0
BLOCK_RECORD
  5
1B
330
1
100
AcDbSymbolTableRecord
100
AcDbBlockTableRecord
  2
*PAPER_SPACE
340
1E
  0
BLOCK_RECORD
  5
12E5
330
1
100
AcDbSymbolTableRecord
100
AcDbBlockTableRecord
  2
_OPEN
340
0
102
{BLKREFS
331
A8AF
331
A8B0
331
A8B8
331
A8B9
331
A8C1
331
A8C2
331
A8CC
331
A8CD
331
A8EA
331
A8EB
331
A8F7
331
A8F8
331
A904
331
A905
331
A916
331
A917
331
A921
331
A922
331
A930
331
A931
331
A93D
331
A93E
331
A94C
331
A94D
331
A9A7
331
A9A8
331
A9B2
331
A9B3
331
A9C7
331
AEA4
331
AEA5
331
AE98
331
AE99
331
AE0C
331
AE0D
331
AE00
331
AE01
331
AE8C
331
AE8D
331
AE7E
331
AE7F
331
AE72
331
AE73
331
AE64
331
AE65
331
AE18
331
AE19
331
AE24
331
AE25
331
AE3E
331
AE3F
331
AE4C
331
AE4D
331
AE30
331
AE31
331
AE58
331
AE59
331
B1AF
331
B1B0
331
B1B8
331
B1B9
331
B1C1
331
B1C2
331
B1CA
331
B1CB
331
B1D5
331
B1D6
331
B1DE
331
B1DF
331
B1E9
331
B1EA
331
B1F2
331
B1F3
331
B1FB
331
B1FC
331
B204
331
B205
331
B20F
331
B210
331
B21A
331
B21B
331
B223
331
B224
331
B22C
331
B22D
102
}
  0
BLOCK_RECORD
  5
12EB
330
1
100
AcDbSymbolTableRecord
100
AcDbBlockTableRecord
  2
aclt
340
0
102
{BLKREFS
331
1312
102
}
  0
BLOCK_RECORD
  5
A851
330
1
100
AcDbSymbolTableRecord
100
AcDbBlockTableRecord
  2
*D2
340
0
  0
BLOCK_RECORD
  5
A85E
330
1
100
AcDbSymbolTableRecord
100
AcDbBlockTableRecord
  2
*D3
340
0
  0
BLOCK_RECORD
  5
A86B
330
1
100
AcDbSymbolTableRecord
100
AcDbBlockTableRecord
  2
*D4
340
0
  0
BLOCK_RECORD
  5
A878
330
1
100
AcDbSymbolTableRecord
100
AcDbBlockTableRecord
  2
*D5
340
0
  0
BLOCK_RECORD
  5
A8A0
330
1
100
AcDbSymbolTableRecord
100
AcDbBlockTableRecord
  2
*D6
340
0
  0
BLOCK_RECORD
  5
A8C8
330
1
100
AcDbSymbolTableRecord
100
AcDbBlockTableRecord
  2
*D7
340
0
  0
BLOCK_RECORD
  5
A8D5
330
1
100
AcDbSymbolTableRecord
100
AcDbBlockTableRecord
  2
*D8
340
0
  0
BLOCK_RECORD
  5
A8E4
330
1
100
AcDbSymbolTableRecord
100
AcDbBlockTableRecord
  2
*D9
340
0
  0
BLOCK_RECORD
  5
A8F3
330
1
100
AcDbSymbolTableRecord
100
AcDbBlockTableRecord
  2
*D10
340
0
  0
BLOCK_RECORD
  5
A91D
330
1
100
AcDbSymbolTableRecord
100
AcDbBlockTableRecord
  2
*D11
340
0
  0
BLOCK_RECORD
  5
A92A
330
1
100
AcDbSymbolTableRecord
100
AcDbBlockTableRecord
  2
*D12
340
0
  0
BLOCK_RECORD
  5
A939
330
1
100
AcDbSymbolTableRecord
100
AcDbBlockTableRecord
  2
*D13
340
0
  0
BLOCK_RECORD
  5
A946
330
1
100
AcDbSymbolTableRecord
100
AcDbBlockTableRecord
  2
*D14
340
0
  0
BLOCK_RECORD
  5
A9A3
330
1
100
AcDbSymbolTableRecord
100
AcDbBlockTableRecord
  2
*D15
340
0
  0
BLOCK_RECORD
  5
A9C3
330
1
100
AcDbSymbolTableRecord
100
AcDbBlockTableRecord
  2
*D16
340
0
  0
ENDTAB
  0
ENDSEC
  0
SECTION
  2
BLOCKS
  0
BLOCK
  5
20
330
1F
100
AcDbEntity
  8
0
100
AcDbBlockBegin
  2
*MODEL_SPACE
 70
     0
 10
0.0
 20
0.0
 30
0.0
  3
*MODEL_SPACE
  1

  0
ENDBLK
  5
21
330
1F
100
AcDbEntity
  8
0
100
AcDbBlockEnd
  0
BLOCK
  5
1C
330
1B
100
AcDbEntity
 67
     1
  8
0
100
AcDbBlockBegin
  2
*PAPER_SPACE
 70
     0
 10
0.0
 20
0.0
 30
0.0
  3
*PAPER_SPACE
  1

  0
ENDBLK
  5
1D
330
1B
100
AcDbEntity
 67
     1
  8
0
100
AcDbBlockEnd
  0
BLOCK
  5
12E9
330
12E5
100
AcDbEntity
  8
0
100
AcDbBlockBegin
  2
_OPEN
 70
     0
 10
0.0
 20
0.0
 30
0.0
  3
_OPEN
  1

  0
LINE
  5
12E6
330
12E5
100
AcDbEntity
  8
0
  6
ByBlock
 62
     0
100
AcDbLine
 10
-1.0
 20
0.1666666666666666
 30
0.0
 11
0.0
 21
0.0
 31
0.0
  0
LINE
  5
12E7
330
12E5
100
AcDbEntity
  8
0
  6
ByBlock
 62
     0
100
AcDbLine
 10
0.0
 20
0.0
 30
0.0
 11
-1.0
 21
-0.1666666666666666
 31
0.0
  0
LINE
  5
12E8
330
12E5
100
AcDbEntity
  8
0
  6
ByBlock
 62
     0
100
AcDbLine
 10
0.0
 20
0.0
 30
0.0
 11
-1.0
 21
0.0
 31
0.0
  0
ENDBLK
  5
12EA
330
12E5
100
AcDbEntity
  8
0
100
AcDbBlockEnd
  0
BLOCK
  5
12EC
330
12EB
100
AcDbEntity
  8
0
100
AcDbBlockBegin
  2
aclt
 70
     0
 10
0.0
 20
0.0
 30
0.0
  3
aclt
  1

  0
ENDBLK
  5
12ED
330
12EB
100
AcDbEntity
  8
0
100
AcDbBlockEnd
  0
BLOCK
  5
A85B
330
A851
100
AcDbEntity
  8
0
 62
     7
100
AcDbBlockBegin
  2
*D2
 70
     1
 10
0.0
 20
0.0
 30
0.0
  3
*D2
  1

  0
LINE
  5
A9AF
330
A851
100
AcDbEntity
  8
dim
  6
Continuous
 62
     7
370
    -2
100
AcDbLine
 10
33.32542978584205
 20
161.2801412628304
 30
0.0
 11
33.32542978584205
 21
200.0120623397509
 31
0.0
  0
LINE
  5
A9B0
330
A851
100
AcDbEntity
  8
dim
  6
Continuous
 62
     7
370
    -2
100
AcDbLine
 10
133.3254297858424
 20
161.2801412628306
 30
0.0
 11
133.3254297858424
 21
200.0120623397509
 31
0.0
  0
LINE
  5
A9B1
330
A851
100
AcDbEntity
  8
dim
  6
Continuous
 62
     7
370
    -2
100
AcDbLine
 10
36.32542978584206
 20
199.0120623397509
 30
0.0
 11
130.3254297858424
 21
199.0120623397509
 31
0.0
  0
INSERT
  5
A9B2
330
A851
100
AcDbEntity
  8
dim
  6
Continuous
 62
     7
370
    -2
100
AcDbBlockReference
  2
_OPEN
 10
33.32542978584205
 20
199.0120623397509
 30
0.0
 41
3.0
 42
3.0
 43
3.0
 50
180.0
  0
INSERT
  5
A9B3
330
A851
100
AcDbEntity
  8
dim
  6
Continuous
 62
     7
370
    -2
100
AcDbBlockReference
  2
_OPEN
 10
133.3254297858424
 20
199.0120623397509
 30
0.0
 41
3.0
 42
3.0
 43
3.0
  0
MTEXT
  5
A9B4
330
A851
100
AcDbEntity
  8
dim
  6
Continuous
 62
     0
100
AcDbMText
 10
83.32542978584228
 20
201.0120623397509
 30
0.0
 40
3.0
 41
0.0
 71
     5
 72
     1
  1
\A1;100
 73
     1
 44
1.0
  0
POINT
  5
A9B5
330
A851
100
AcDbEntity
  8
DEFPOINTS
  6
Continuous
 62
     0
100
AcDbPoint
 10
33.32542978584205
 20
160.7801412628304
 30
0.0
  0
POINT
  5
A9B6
330
A851
100
AcDbEntity
  8
DEFPOINTS
  6
Continuous
 62
     0
100
AcDbPoint
 10
133.3254297858424
 20
160.7801412628306
 30
0.0
  0
POINT
  5
A9B7
330
A851
100
AcDbEntity
  8
DEFPOINTS
  6
Continuous
 62
     0
100
AcDbPoint
 10
133.3254297858424
 20
199.0120623397509
 30
0.0
  0
ENDBLK
  5
A85C
330
A851
100
AcDbEntity
  8
0
 62
     7
100
AcDbBlockEnd
  0
BLOCK
  5
A868
330
A85E
100
AcDbEntity
  8
0
 62
     7
100
AcDbBlockBegin
  2
*D3
 70
     1
 10
0.0
 20
0.0
 30
0.0
  3
*D3
  1

  0
LINE
  5
A8AC
330
A85E
100
AcDbEntity
  8
dim
  6
Continuous
 62
     7
370
    -2
100
AcDbLine
 10
82.82542978584231
 20
63.87598366459632
 30
0.0
 11
13.12038335215127
 21
63.87598366459635
 31
0.0
  0
LINE
  5
A8AD
330
A85E
100
AcDbEntity
  8
dim
  6
Continuous
 62
     7
370
    -2
100
AcDbLine
 10
82.82542978584208
 20
183.8759836645963
 30
0.0
 11
13.1203833521513
 21
183.8759836645963
 31
0.0
  0
LINE
  5
A8AE
330
A85E
100
AcDbEntity
  8
dim
  6
Continuous
 62
     7
370
    -2
100
AcDbLine
 10
14.12038335215127
 20
66.87598366459636
 30
0.0
 11
14.1203833521513
 21
180.8759836645963
 31
0.0
  0
INSERT
  5
A8AF
330
A85E
100
AcDbEntity
  8
dim
  6
Continuous
 62
     7
370
    -2
100
AcDbBlockReference
  2
_OPEN
 10
14.12038335215127
 20
63.87598366459635
 30
0.0
 41
3.0
 42
3.0
 43
3.0
 50
270.0
  0
INSERT
  5
A8B0
330
A85E
100
AcDbEntity
  8
dim
  6
Continuous
 62
     7
370
    -2
100
AcDbBlockReference
  2
_OPEN
 10
14.1203833521513
 20
183.8759836645963
 30
0.0
 41
3.0
 42
3.0
 43
3.0
 50
90.0
  0
MTEXT
  5
A8B1
330
A85E
100
AcDbEntity
  8
dim
  6
Continuous
 62
     0
100
AcDbMText
 10
12.12038335215126
 20
123.8759836645962
 30
0.0
 40
3.0
 41
0.0
 71
     5
 72
     1
  1
\A1;120
 11
0.0000000000000001
 21
1.0
 31
0.0
 73
     1
 44
1.0
  0
POINT
  5
A8B2
330
A85E
100
AcDbEntity
  8
DEFPOINTS
  6
Continuous
 62
     0
100
AcDbPoint
 10
83.32542978584232
 20
63.87598366459632
 30
0.0
  0
POINT
  5
A8B3
330
A85E
100
AcDbEntity
  8
DEFPOINTS
  6
Continuous
 62
     0
100
AcDbPoint
 10
83.32542978584209
 20
183.8759836645963
 30
0.0
  0
POINT
  5
A8B4
330
A85E
100
AcDbEntity
  8
DEFPOINTS
  6
Continuous
 62
     0
100
AcDbPoint
 10
14.1203833521513
 20
183.8759836645963
 30
0.0
  0
ENDBLK
  5
A869
330
A85E
100
AcDbEntity
  8
0
 62
     7
100
AcDbBlockEnd
  0
BLOCK
  5
A875
330
A86B
100
AcDbEntity
  8
0
 62
     7
100
AcDbBlockBegin
  2
*D4
 70
     1
 10
0.0
 20
0.0
 30
0.0
  3
*D4
  1

  0
LINE
  5
A913
330
A86B
100
AcDbEntity
  8
dim
  6
Continuous
 62
     7
370
    -2
100
AcDbLine
 10
53.12542978589954
 20
154.9765513869099
 30
0.0
 11
53.12542978589954
 21
190.1166856441204
 31
0.0
  0
LINE
  5
A914
330
A86B
100
AcDbEntity
  8
dim
  6
Continuous
 62
     7
370
    -2
100
AcDbLine
 10
113.525429785785
 20
154.9765335954974
 30
0.0
 11
113.525429785785
 21
190.1166856441204
 31
0.0
  0
LINE
  5
A915
330
A86B
100
AcDbEntity
  8
dim
  6
Continuous
 62
     7
370
    -2
100
AcDbLine
 10
56.12542978589954
 20
189.1166856441204
 30
0.0
 11
110.525429785785
 21
189.1166856441204
 31
0.0
  0
INSERT
  5
A916
330
A86B
100
AcDbEntity
  8
dim
  6
Continuous
 62
     7
370
    -2
100
AcDbBlockReference
  2
_OPEN
 10
53.12542978589954
 20
189.1166856441204
 30
0.0
 41
3.0
 42
3.0
 43
3.0
 50
180.0
  0
INSERT
  5
A917
330
A86B
100
AcDbEntity
  8
dim
  6
Continuous
 62
     7
370
    -2
100
AcDbBlockReference
  2
_OPEN
 10
113.525429785785
 20
189.1166856441204
 30
0.0
 41
3.0
 42
3.0
 43
3.0
  0
MTEXT
  5
A918
330
A86B
100
AcDbEntity
  8
dim
  6
Continuous
 62
     0
100
AcDbMText
 10
83.32542978584228
 20
191.1166856441203
 30
0.0
 40
3.0
 41
0.0
 71
     5
 72
     1
  1
\A1;60
 73
     1
 44
1.0
  0
POINT
  5
A919
330
A86B
100
AcDbEntity
  8
DEFPOINTS
  6
Continuous
 62
     0
100
AcDbPoint
 10
53.12542978589954
 20
154.4765513869099
 30
0.0
  0
POINT
  5
A91A
330
A86B
100
AcDbEntity
  8
DEFPOINTS
  6
Continuous
 62
     0
100
AcDbPoint
 10
113.525429785785
 20
154.4765335954975
 30
0.0
  0
POINT
  5
A91B
330
A86B
100
AcDbEntity
  8
DEFPOINTS
  6
Continuous
 62
     0
100
AcDbPoint
 10
113.525429785785
 20
189.1166856441204
 30
0.0
  0
ENDBLK
  5
A876
330
A86B
100
AcDbEntity
  8
0
 62
     7
100
AcDbBlockEnd
  0
BLOCK
  5
A882
330
A878
100
AcDbEntity
  8
0
 62
     7
100
AcDbBlockBegin
  2
*D5
 70
     1
 10
0.0
 20
0.0
 30
0.0
  3
*D5
  1

  0
LINE
  5
A8B5
330
A878
100
AcDbEntity
  8
dim
  6
Continuous
 62
     7
370
    -2
100
AcDbLine
 10
82.82543122489297
 20
88.87530430371965
 30
0.0
 11
17.32821896875158
 21
88.87530430371965
 31
0.0
  0
LINE
  5
A8B6
330
A878
100
AcDbEntity
  8
dim
  6
Continuous
 62
     7
370
    -2
100
AcDbLine
 10
82.82543122489302
 20
158.8766630254729
 30
0.0
 11
17.32821896875158
 21
158.8766630254729
 31
0.0
  0
LINE
  5
A8B7
330
A878
100
AcDbEntity
  8
dim
  6
Continuous
 62
     7
370
    -2
100
AcDbLine
 10
18.32821896875157
 20
91.87530430371966
 30
0.0
 11
18.32821896875159
 21
155.876663025473
 31
0.0
  0
INSERT
  5
A8B8
330
A878
100
AcDbEntity
  8
dim
  6
Continuous
 62
     7
370
    -2
100
AcDbBlockReference
  2
_OPEN
 10
18.32821896875157
 20
88.87530430371965
 30
0.0
 41
3.0
 42
3.0
 43
3.0
 50
270.0
  0
INSERT
  5
A8B9
330
A878
100
AcDbEntity
  8
dim
  6
Continuous
 62
     7
370
    -2
100
AcDbBlockReference
  2
_OPEN
 10
18.32821896875159
 20
158.8766630254729
 30
0.0
 41
3.0
 42
3.0
 43
3.0
 50
90.0
  0
MTEXT
  5
A8BA
330
A878
100
AcDbEntity
  8
dim
  6
Continuous
 62
     0
100
AcDbMText
 10
16.32821896875157
 20
123.8759836645962
 30
0.0
 40
3.0
 41
0.0
 71
     5
 72
     1
  1
\A1;70
 11
0.0000000000000001
 21
1.0
 31
0.0
 73
     1
 44
1.0
  0
POINT
  5
A8BB
330
A878
100
AcDbEntity
  8
DEFPOINTS
  6
Continuous
 62
     0
100
AcDbPoint
 10
83.32543122489296
 20
88.87530430371965
 30
0.0
  0
POINT
  5
A8BC
330
A878
100
AcDbEntity
  8
DEFPOINTS
  6
Continuous
 62
     0
100
AcDbPoint
 10
83.32543122489303
 20
158.8766630254729
 30
0.0
  0
POINT
  5
A8BD
330
A878
100
AcDbEntity
  8
DEFPOINTS
  6
Continuous
 62
     0
100
AcDbPoint
 10
18.32821896875159
 20
158.8766630254729
 30
0.0
  0
ENDBLK
  5
A883
330
A878
100
AcDbEntity
  8
0
 62
     7
100
AcDbBlockEnd
  0
BLOCK
  5
A8AA
330
A8A0
100
AcDbEntity
  8
0
 62
     7
100
AcDbBlockBegin
  2
*D6
 70
     1
 10
0.0
 20
0.0
 30
0.0
  3
*D6
  1

  0
LINE
  5
A8BE
330
A8A0
100
AcDbEntity
  8
dim
  6
Continuous
 62
     7
370
    -2
100
AcDbLine
 10
35.09720499587501
 20
116.8759836645155
 30
0.0
 11
21.63727557821404
 21
116.8759836645155
 31
0.0
  0
LINE
  5
A8BF
330
A8A0
100
AcDbEntity
  8
dim
  6
Continuous
 62
     7
370
    -2
100
AcDbLine
 10
35.09720499587501
 20
130.8759836646769
 30
0.0
 11
21.63727557821404
 21
130.8759836646769
 31
0.0
  0
LINE
  5
A8C0
330
A8A0
100
AcDbEntity
  8
dim
  6
Continuous
 62
     7
370
    -2
100
AcDbLine
 10
22.63727557821404
 20
119.8759836645155
 30
0.0
 11
22.63727557821404
 21
127.875983664677
 31
0.0
  0
INSERT
  5
A8C1
330
A8A0
100
AcDbEntity
  8
dim
  6
Continuous
 62
     7
370
    -2
100
AcDbBlockReference
  2
_OPEN
 10
22.63727557821404
 20
116.8759836645155
 30
0.0
 41
3.0
 42
3.0
 43
3.0
 50
270.0
  0
INSERT
  5
A8C2
330
A8A0
100
AcDbEntity
  8
dim
  6
Continuous
 62
     7
370
    -2
100
AcDbBlockReference
  2
_OPEN
 10
22.63727557821404
 20
130.8759836646769
 30
0.0
 41
3.0
 42
3.0
 43
3.0
 50
90.0
  0
MTEXT
  5
A8C3
330
A8A0
100
AcDbEntity
  8
dim
  6
Continuous
 62
     0
100
AcDbMText
 10
20.63727557821402
 20
123.8759836645962
 30
0.0
 40
3.0
 41
0.0
 71
     5
 72
     1
  1
\A1;14
 11
0.0000000000000001
 21
1.0
 31
0.0
 73
     1
 44
1.0
  0
POINT
  5
A8C4
330
A8A0
100
AcDbEntity
  8
DEFPOINTS
  6
Continuous
 62
     0
100
AcDbPoint
 10
35.59720499587502
 20
116.8759836645155
 30
0.0
  0
POINT
  5
A8C5
330
A8A0
100
AcDbEntity
  8
DEFPOINTS
  6
Continuous
 62
     0
100
AcDbPoint
 10
35.59720499587502
 20
130.8759836646769
 30
0.0
  0
POINT
  5
A8C6
330
A8A0
100
AcDbEntity
  8
DEFPOINTS
  6
Continuous
 62
     0
100
AcDbPoint
 10
22.63727557821404
 20
130.8759836646769
 30
0.0
  0
ENDBLK
  5
A8AB
330
A8A0
100
AcDbEntity
  8
0
 62
     7
100
AcDbBlockEnd
  0
BLOCK
  5
A8D2
330
A8C8
100
AcDbEntity
  8
0
 62
     7
100
AcDbBlockBegin
  2
*D7
 70
     1
 10
0.0
 20
0.0
 30
0.0
  3
*D7
  1

  0
LINE
  5
A8C9
330
A8C8
100
AcDbEntity
  8
dim
  6
Continuous
 62
     7
370
    -2
100
AcDbLine
 10
200.483482174578
 20
184.3756633181959
 30
0.0
 11
200.483482174578
 21
194.0929104531601
 31
0.0
  0
LINE
  5
A8CA
330
A8C8
100
AcDbEntity
  8
dim
  6
Continuous
 62
     7
370
    -2
100
AcDbLine
 10
175.483482174578
 20
124.3759836645963
 30
0.0
 11
175.483482174578
 21
194.0929104531601
 31
0.0
  0
LINE
  5
A8CB
330
A8C8
100
AcDbEntity
  8
dim
  6
Continuous
 62
     7
370
    -2
100
AcDbLine
 10
197.483482174578
 20
193.0929104531601
 30
0.0
 11
178.483482174578
 21
193.0929104531601
 31
0.0
  0
INSERT
  5
A8CC
330
A8C8
100
AcDbEntity
  8
dim
  6
Continuous
 62
     7
370
    -2
100
AcDbBlockReference
  2
_OPEN
 10
200.483482174578
 20
193.0929104531601
 30
0.0
 41
3.0
 42
3.0
 43
3.0
  0
INSERT
  5
A8CD
330
A8C8
100
AcDbEntity
  8
dim
  6
Continuous
 62
     7
370
    -2
100
AcDbBlockReference
  2
_OPEN
 10
175.483482174578
 20
193.0929104531601
 30
0.0
 41
3.0
 42
3.0
 43
3.0
 50
180.0
  0
MTEXT
  5
A8CE
330
A8C8
100
AcDbEntity
  8
dim
  6
Continuous
 62
     0
100
AcDbMText
 10
187.9834821745781
 20
195.0929104531601
 30
0.0
 40
3.0
 41
0.0
 71
     5
 72
     1
  1
\A1;25
 73
     1
 44
1.0
  0
POINT
  5
A8CF
330
A8C8
100
AcDbEntity
  8
DEFPOINTS
  6
Continuous
 62
     0
100
AcDbPoint
 10
200.483482174578
 20
183.875663318196
 30
0.0
  0
POINT
  5
A8D0
330
A8C8
100
AcDbEntity
  8
DEFPOINTS
  6
Continuous
 62
     0
100
AcDbPoint
 10
175.483482174578
 20
123.8759836645962
 30
0.0
  0
POINT
  5
A8D1
330
A8C8
100
AcDbEntity
  8
DEFPOINTS
  6
Continuous
 62
     0
100
AcDbPoint
 10
175.483482174578
 20
193.0929104531601
 30
0.0
  0
ENDBLK
  5
A8D3
330
A8C8
100
AcDbEntity
  8
0
 62
     7
100
AcDbBlockEnd
  0
BLOCK
  5
A8E1
330
A8D5
100
AcDbEntity
  8
0
 62
     7
100
AcDbBlockBegin
  2
*D8
 70
     1
 10
0.0
 20
0.0
 30
0.0
  3
*D8
  1

  0
LINE
  5
A8FF
330
A8D5
100
AcDbEntity
  8
dim
  6
Continuous
 62
     7
370
    -2
100
AcDbLine
 10
200.483482174578
 20
184.3756633181959
 30
0.0
 11
200.483482174578
 21
189.878457498787
 31
0.0
  0
LINE
  5
A900
330
A8D5
100
AcDbEntity
  8
dim
  6
Continuous
 62
     7
370
    -2
100
AcDbLine
 10
196.4839143979389
 20
184.0502551937879
 30
0.0
 11
196.4839143979389
 21
189.878457498787
 31
0.0
  0
LINE
  5
A901
330
A8D5
100
AcDbEntity
  8
dim
  6
Continuous
 62
     7
370
    -2
100
AcDbLine
 10
203.483482174578
 20
188.878457498787
 30
0.0
 11
206.483482174578
 21
188.878457498787
 31
0.0
  0
LINE
  5
A902
330
A8D5
100
AcDbEntity
  8
dim
  6
Continuous
 62
     7
370
    -2
100
AcDbLine
 10
193.483914397939
 20
188.878457498787
 30
0.0
 11
190.4839143979391
 21
188.878457498787
 31
0.0
  0
LINE
  5
A903
330
A8D5
100
AcDbEntity
  8
dim
  6
Continuous
 62
     7
370
    -2
100
AcDbLine
 10
200.483482174578
 20
188.878457498787
 30
0.0
 11
196.4839143979389
 21
188.878457498787
 31
0.0
  0
INSERT
  5
A904
330
A8D5
100
AcDbEntity
  8
dim
  6
Continuous
 62
     7
370
    -2
100
AcDbBlockReference
  2
_OPEN
 10
200.483482174578
 20
188.878457498787
 30
0.0
 41
3.0
 42
3.0
 43
3.0
 50
180.0
  0
INSERT
  5
A905
330
A8D5
100
AcDbEntity
  8
dim
  6
Continuous
 62
     7
370
    -2
100
AcDbBlockReference
  2
_OPEN
 10
196.4839143979389
 20
188.878457498787
 30
0.0
 41
3.0
 42
3.0
 43
3.0
  0
MTEXT
  5
A906
330
A8D5
100
AcDbEntity
  8
dim
  6
Continuous
 62
     0
100
AcDbMText
 10
198.4836982862585
 20
190.878457498787
 30
0.0
 40
3.0
 41
0.0
 71
     5
 72
     1
  1
\A1;4
 73
     1
 44
1.0
  0
POINT
  5
A907
330
A8D5
100
AcDbEntity
  8
DEFPOINTS
  6
Continuous
 62
     0
100
AcDbPoint
 10
200.483482174578
 20
183.875663318196
 30
0.0
  0
POINT
  5
A908
330
A8D5
100
AcDbEntity
  8
DEFPOINTS
  6
Continuous
 62
     0
100
AcDbPoint
 10
196.4839143979389
 20
183.5502551937879
 30
0.0
  0
POINT
  5
A909
330
A8D5
100
AcDbEntity
  8
DEFPOINTS
  6
Continuous
 62
     0
100
AcDbPoint
 10
196.4839143979389
 20
188.878457498787
 30
0.0
  0
ENDBLK
  5
A8E2
330
A8D5
100
AcDbEntity
  8
0
 62
     7
100
AcDbBlockEnd
  0
BLOCK
  5
A8F0
330
A8E4
100
AcDbEntity
  8
0
 62
     7
100
AcDbBlockBegin
  2
*D9
 70
     1
 10
0.0
 20
0.0
 30
0.0
  3
*D9
  1

  0
LINE
  5
A8E5
330
A8E4
100
AcDbEntity
  8
dim
  6
Continuous
 62
     7
370
    -2
100
AcDbLine
 10
177.483482174578
 20
159.03751160054
 30
0.0
 11
177.483482174578
 21
189.878457498787
 31
0.0
  0
LINE
  5
A8E6
330
A8E4
100
AcDbEntity
  8
dim
  6
Continuous
 62
     7
370
    -2
100
AcDbLine
 10
175.483482174578
 20
124.3759836645963
 30
0.0
 11
175.483482174578
 21
189.878457498787
 31
0.0
  0
LINE
  5
A8E7
330
A8E4
100
AcDbEntity
  8
dim
  6
Continuous
 62
     7
370
    -2
100
AcDbLine
 10
180.483482174578
 20
188.878457498787
 30
0.0
 11
183.483482174578
 21
188.878457498787
 31
0.0
  0
LINE
  5
A8E8
330
A8E4
100
AcDbEntity
  8
dim
  6
Continuous
 62
     7
370
    -2
100
AcDbLine
 10
172.483482174578
 20
188.878457498787
 30
0.0
 11
166.883482174578
 21
188.878457498787
 31
0.0
  0
LINE
  5
A8E9
330
A8E4
100
AcDbEntity
  8
dim
  6
Continuous
 62
     7
370
    -2
100
AcDbLine
 10
177.483482174578
 20
188.878457498787
 30
0.0
 11
175.483482174578
 21
188.878457498787
 31
0.0
  0
INSERT
  5
A8EA
330
A8E4
100
AcDbEntity
  8
dim
  6
Continuous
 62
     7
370
    -2
100
AcDbBlockReference
  2
_OPEN
 10
177.483482174578
 20
188.878457498787
 30
0.0
 41
3.0
 42
3.0
 43
3.0
 50
180.0
  0
INSERT
  5
A8EB
330
A8E4
100
AcDbEntity
  8
dim
  6
Continuous
 62
     7
370
    -2
100
AcDbBlockReference
  2
_OPEN
 10
175.483482174578
 20
188.878457498787
 30
0.0
 41
3.0
 42
3.0
 43
3.0
  0
MTEXT
  5
A8EC
330
A8E4
100
AcDbEntity
  8
dim
  6
Continuous
 62
     0
100
AcDbMText
 10
168.1834821745781
 20
190.878457498787
 30
0.0
 40
3.0
 41
0.0
 71
     5
 72
     1
  1
\A1;2
 73
     1
 44
1.0
  0
POINT
  5
A8ED
330
A8E4
100
AcDbEntity
  8
DEFPOINTS
  6
Continuous
 62
     0
100
AcDbPoint
 10
177.483482174578
 20
158.5375116005399
 30
0.0
  0
POINT
  5
A8EE
330
A8E4
100
AcDbEntity
  8
DEFPOINTS
  6
Continuous
 62
     0
100
AcDbPoint
 10
175.483482174578
 20
123.8759836645962
 30
0.0
  0
POINT
  5
A8EF
330
A8E4
100
AcDbEntity
  8
DEFPOINTS
  6
Continuous
 62
     0
100
AcDbPoint
 10
175.483482174578
 20
188.878457498787
 30
0.0
  0
ENDBLK
  5
A8F1
330
A8E4
100
AcDbEntity
  8
0
 62
     7
100
AcDbBlockEnd
  0
BLOCK
  5
A8FD
330
A8F3
100
AcDbEntity
  8
0
 62
     7
100
AcDbBlockBegin
  2
*D10
 70
     1
 10
0.0
 20
0.0
 30
0.0
  3
*D10
  1

  0
LINE
  5
A8F4
330
A8F3
100
AcDbEntity
  8
dim
  6
Continuous
 62
     7
370
    -2
100
AcDbLine
 10
196.4839143979389
 20
184.0502551937879
 30
0.0
 11
196.4839143979389
 21
189.878457498787
 31
0.0
  0
LINE
  5
A8F5
330
A8F3
100
AcDbEntity
  8
dim
  6
Continuous
 62
     7
370
    -2
100
AcDbLine
 10
177.483482174578
 20
159.03751160054
 30
0.0
 11
177.483482174578
 21
189.878457498787
 31
0.0
  0
LINE
  5
A8F6
330
A8F3
100
AcDbEntity
  8
dim
  6
Continuous
 62
     7
370
    -2
100
AcDbLine
 10
193.483914397939
 20
188.878457498787
 30
0.0
 11
180.483482174578
 21
188.878457498787
 31
0.0
  0
INSERT
  5
A8F7
330
A8F3
100
AcDbEntity
  8
dim
  6
Continuous
 62
     7
370
    -2
100
AcDbBlockReference
  2
_OPEN
 10
196.4839143979389
 20
188.878457498787
 30
0.0
 41
3.0
 42
3.0
 43
3.0
  0
INSERT
  5
A8F8
330
A8F3
100
AcDbEntity
  8
dim
  6
Continuous
 62
     7
370
    -2
100
AcDbBlockReference
  2
_OPEN
 10
177.483482174578
 20
188.878457498787
 30
0.0
 41
3.0
 42
3.0
 43
3.0
 50
180.0
  0
MTEXT
  5
A8F9
330
A8F3
100
AcDbEntity
  8
dim
  6
Continuous
 62
     0
100
AcDbMText
 10
186.9836982862585
 20
190.878457498787
 30
0.0
 40
3.0
 41
0.0
 71
     5
 72
     1
  1
\A1;19
 73
     1
 44
1.0
  0
POINT
  5
A8FA
330
A8F3
100
AcDbEntity
  8
DEFPOINTS
  6
Continuous
 62
     0
100
AcDbPoint
 10
196.4839143979389
 20
183.5502551937879
 30
0.0
  0
POINT
  5
A8FB
330
A8F3
100
AcDbEntity
  8
DEFPOINTS
  6
Continuous
 62
     0
100
AcDbPoint
 10
177.483482174578
 20
158.5375116005399
 30
0.0
  0
POINT
  5
A8FC
330
A8F3
100
AcDbEntity
  8
DEFPOINTS
  6
Continuous
 62
     0
100
AcDbPoint
 10
177.483482174578
 20
188.878457498787
 30
0.0
  0
ENDBLK
  5
A8FE
330
A8F3
100
AcDbEntity
  8
0
 62
     7
100
AcDbBlockEnd
  0
BLOCK
  5
A927
330
A91D
100
AcDbEntity
  8
0
 62
     7
100
AcDbBlockBegin
  2
*D11
 70
     1
 10
0.0
 20
0.0
 30
0.0
  3
*D11
  1

  0
LINE
  5
A91E
330
A91D
100
AcDbEntity
  8
dim
  6
Continuous
 62
     7
370
    -2
100
AcDbLine
 10
32.82542978584251
 20
23.89568156200675
 30
0.0
 11
14.56729413056653
 21
23.89568156200676
 31
0.0
  0
LINE
  5
A91F
330
A91D
100
AcDbEntity
  8
dim
  6
Continuous
 62
     7
370
    -2
100
AcDbLine
 10
56.66691703934521
 20
48.89568156200664
 30
0.0
 11
14.56729413056655
 21
48.89568156200666
 31
0.0
  0
LINE
  5
A920
330
A91D
100
AcDbEntity
  8
dim
  6
Continuous
 62
     7
370
    -2
100
AcDbLine
 10
15.56729413056654
 20
26.89568156200676
 30
0.0
 11
15.56729413056655
 21
45.89568156200664
 31
0.0
  0
INSERT
  5
A921
330
A91D
100
AcDbEntity
  8
dim
  6
Continuous
 62
     7
370
    -2
100
AcDbBlockReference
  2
_OPEN
 10
15.56729413056654
 20
23.89568156200676
 30
0.0
 41
3.0
 42
3.0
 43
3.0
 50
270.0
  0
INSERT
  5
A922
330
A91D
100
AcDbEntity
  8
dim
  6
Continuous
 62
     7
370
    -2
100
AcDbBlockReference
  2
_OPEN
 10
15.56729413056655
 20
48.89568156200666
 30
0.0
 41
3.0
 42
3.0
 43
3.0
 50
90.0
  0
MTEXT
  5
A923
330
A91D
100
AcDbEntity
  8
dim
  6
Continuous
 62
     0
100
AcDbMText
 10
13.56729413056654
 20
36.39568156200671
 30
0.0
 40
3.0
 41
0.0
 71
     5
 72
     1
  1
\A1;25
 11
0.0000000000000001
 21
1.0
 31
0.0
 73
     1
 44
1.0
  0
POINT
  5
A924
330
A91D
100
AcDbEntity
  8
DEFPOINTS
  6
Continuous
 62
     0
100
AcDbPoint
 10
33.32542978584251
 20
23.89568156200675
 30
0.0
  0
POINT
  5
A925
330
A91D
100
AcDbEntity
  8
DEFPOINTS
  6
Continuous
 62
     0
100
AcDbPoint
 10
57.16691703934521
 20
48.89568156200664
 30
0.0
  0
POINT
  5
A926
330
A91D
100
AcDbEntity
  8
DEFPOINTS
  6
Continuous
 62
     0
100
AcDbPoint
 10
15.56729413056655
 20
48.89568156200666
 30
0.0
  0
ENDBLK
  5
A928
330
A91D
100
AcDbEntity
  8
0
 62
     7
100
AcDbBlockEnd
  0
BLOCK
  5
A936
330
A92A
100
AcDbEntity
  8
0
 62
     7
100
AcDbBlockBegin
  2
*D12
 70
     1
 10
0.0
 20
0.0
 30
0.0
  3
*D12
  1

  0
LINE
  5
A92B
330
A92A
100
AcDbEntity
  8
dim
  6
Continuous
 62
     7
370
    -2
100
AcDbLine
 10
32.82542978584251
 20
23.89568156200675
 30
0.0
 11
20.88379037875438
 21
23.89568156200676
 31
0.0
  0
LINE
  5
A92C
330
A92A
100
AcDbEntity
  8
dim
  6
Continuous
 62
     7
370
    -2
100
AcDbLine
 10
33.03506090302198
 20
27.89568156207951
 30
0.0
 11
20.88379037875438
 21
27.89568156207952
 31
0.0
  0
LINE
  5
A92D
330
A92A
100
AcDbEntity
  8
dim
  6
Continuous
 62
     7
370
    -2
100
AcDbLine
 10
21.88379037875437
 20
20.89568156200676
 30
0.0
 11
21.88379037875437
 21
17.89568156200676
 31
0.0
  0
LINE
  5
A92E
330
A92A
100
AcDbEntity
  8
dim
  6
Continuous
 62
     7
370
    -2
100
AcDbLine
 10
21.88379037875437
 20
30.89568156207952
 30
0.0
 11
21.88379037875437
 21
33.89568156207952
 31
0.0
  0
LINE
  5
A92F
330
A92A
100
AcDbEntity
  8
dim
  6
Continuous
 62
     7
370
    -2
100
AcDbLine
 10
21.88379037875437
 20
23.89568156200676
 30
0.0
 11
21.88379037875437
 21
27.89568156207952
 31
0.0
  0
INSERT
  5
A930
330
A92A
100
AcDbEntity
  8
dim
  6
Continuous
 62
     7
370
    -2
100
AcDbBlockReference
  2
_OPEN
 10
21.88379037875437
 20
23.89568156200676
 30
0.0
 41
3.0
 42
3.0
 43
3.0
 50
90.0
  0
INSERT
  5
A931
330
A92A
100
AcDbEntity
  8
dim
  6
Continuous
 62
     7
370
    -2
100
AcDbBlockReference
  2
_OPEN
 10
21.88379037875437
 20
27.89568156207952
 30
0.0
 41
3.0
 42
3.0
 43
3.0
 50
270.0
  0
MTEXT
  5
A932
330
A92A
100
AcDbEntity
  8
dim
  6
Continuous
 62
     0
100
AcDbMText
 10
19.88379037875437
 20
25.89568156204314
 30
0.0
 40
3.0
 41
0.0
 71
     5
 72
     1
  1
\A1;4
 11
0.0000000000000001
 21
1.0
 31
0.0
 73
     1
 44
1.0
  0
POINT
  5
A933
330
A92A
100
AcDbEntity
  8
DEFPOINTS
  6
Continuous
 62
     0
100
AcDbPoint
 10
33.32542978584251
 20
23.89568156200675
 30
0.0
  0
POINT
  5
A934
330
A92A
100
AcDbEntity
  8
DEFPOINTS
  6
Continuous
 62
     0
100
AcDbPoint
 10
33.53506090302198
 20
27.89568156207951
 30
0.0
  0
POINT
  5
A935
330
A92A
100
AcDbEntity
  8
DEFPOINTS
  6
Continuous
 62
     0
100
AcDbPoint
 10
21.88379037875437
 20
27.89568156207952
 30
0.0
  0
ENDBLK
  5
A937
330
A92A
100
AcDbEntity
  8
0
 62
     7
100
AcDbBlockEnd
  0
BLOCK
  5
A943
330
A939
100
AcDbEntity
  8
0
 62
     7
100
AcDbBlockBegin
  2
*D13
 70
     1
 10
0.0
 20
0.0
 30
0.0
  3
*D13
  1

  0
LINE
  5
A93A
330
A939
100
AcDbEntity
  8
dim
  6
Continuous
 62
     7
370
    -2
100
AcDbLine
 10
33.03506090302198
 20
27.89568156207951
 30
0.0
 11
20.88379037875438
 21
27.89568156207952
 31
0.0
  0
LINE
  5
A93B
330
A939
100
AcDbEntity
  8
dim
  6
Continuous
 62
     7
370
    -2
100
AcDbLine
 10
52.82807019729034
 20
46.89568156200675
 30
0.0
 11
20.88379037875438
 21
46.89568156200675
 31
0.0
  0
LINE
  5
A93C
330
A939
100
AcDbEntity
  8
dim
  6
Continuous
 62
     7
370
    -2
100
AcDbLine
 10
21.88379037875437
 20
30.89568156207952
 30
0.0
 11
21.88379037875437
 21
43.89568156200676
 31
0.0
  0
INSERT
  5
A93D
330
A939
100
AcDbEntity
  8
dim
  6
Continuous
 62
     7
370
    -2
100
AcDbBlockReference
  2
_OPEN
 10
21.88379037875437
 20
27.89568156207952
 30
0.0
 41
3.0
 42
3.0
 43
3.0
 50
270.0
  0
INSERT
  5
A93E
330
A939
100
AcDbEntity
  8
dim
  6
Continuous
 62
     7
370
    -2
100
AcDbBlockReference
  2
_OPEN
 10
21.88379037875437
 20
46.89568156200675
 30
0.0
 41
3.0
 42
3.0
 43
3.0
 50
90.0
  0
MTEXT
  5
A93F
330
A939
100
AcDbEntity
  8
dim
  6
Continuous
 62
     0
100
AcDbMText
 10
19.88379037875438
 20
37.39568156204314
 30
0.0
 40
3.0
 41
0.0
 71
     5
 72
     1
  1
\A1;19
 11
0.0000000000000001
 21
1.0
 31
0.0
 73
     1
 44
1.0
  0
POINT
  5
A940
330
A939
100
AcDbEntity
  8
DEFPOINTS
  6
Continuous
 62
     0
100
AcDbPoint
 10
33.53506090302198
 20
27.89568156207951
 30
0.0
  0
POINT
  5
A941
330
A939
100
AcDbEntity
  8
DEFPOINTS
  6
Continuous
 62
     0
100
AcDbPoint
 10
53.32807019729035
 20
46.89568156200675
 30
0.0
  0
POINT
  5
A942
330
A939
100
AcDbEntity
  8
DEFPOINTS
  6
Continuous
 62
     0
100
AcDbPoint
 10
21.88379037875437
 20
46.89568156200675
 30
0.0
  0
ENDBLK
  5
A944
330
A939
100
AcDbEntity
  8
0
 62
     7
100
AcDbBlockEnd
  0
BLOCK
  5
A952
330
A946
100
AcDbEntity
  8
0
 62
     7
100
AcDbBlockBegin
  2
*D14
 70
     1
 10
0.0
 20
0.0
 30
0.0
  3
*D14
  1

  0
LINE
  5
A947
330
A946
100
AcDbEntity
  8
dim
  6
Continuous
 62
     7
370
    -2
100
AcDbLine
 10
52.82807019729034
 20
46.89568156200675
 30
0.0
 11
20.88379037875438
 21
46.89568156200675
 31
0.0
  0
LINE
  5
A948
330
A946
100
AcDbEntity
  8
dim
  6
Continuous
 62
     7
370
    -2
100
AcDbLine
 10
56.66691703934521
 20
48.89568156200664
 30
0.0
 11
20.88379037875438
 21
48.89568156200664
 31
0.0
  0
LINE
  5
A949
330
A946
100
AcDbEntity
  8
dim
  6
Continuous
 62
     7
370
    -2
100
AcDbLine
 10
21.88379037875437
 20
43.89568156200676
 30
0.0
 11
21.88379037875437
 21
40.89568156200676
 31
0.0
  0
LINE
  5
A94A
330
A946
100
AcDbEntity
  8
dim
  6
Continuous
 62
     7
370
    -2
100
AcDbLine
 10
21.88379037875437
 20
51.89568156200664
 30
0.0
 11
21.88379037875439
 21
57.49568156200664
 31
0.0
  0
LINE
  5
A94B
330
A946
100
AcDbEntity
  8
dim
  6
Continuous
 62
     7
370
    -2
100
AcDbLine
 10
21.88379037875437
 20
46.89568156200675
 30
0.0
 11
21.88379037875437
 21
48.89568156200664
 31
0.0
  0
INSERT
  5
A94C
330
A946
100
AcDbEntity
  8
dim
  6
Continuous
 62
     7
370
    -2
100
AcDbBlockReference
  2
_OPEN
 10
21.88379037875437
 20
46.89568156200675
 30
0.0
 41
3.0
 42
3.0
 43
3.0
 50
90.0
  0
INSERT
  5
A94D
330
A946
100
AcDbEntity
  8
dim
  6
Continuous
 62
     7
370
    -2
100
AcDbBlockReference
  2
_OPEN
 10
21.88379037875437
 20
48.89568156200664
 30
0.0
 41
3.0
 42
3.0
 43
3.0
 50
270.0
  0
MTEXT
  5
A94E
330
A946
100
AcDbEntity
  8
dim
  6
Continuous
 62
     0
100
AcDbMText
 10
19.88379037875438
 20
56.19568156200664
 30
0.0
 40
3.0
 41
0.0
 71
     5
 72
     1
  1
\A1;2
 11
0.0000000000000001
 21
1.0
 31
0.0
 73
     1
 44
1.0
  0
POINT
  5
A94F
330
A946
100
AcDbEntity
  8
DEFPOINTS
  6
Continuous
 62
     0
100
AcDbPoint
 10
53.32807019729035
 20
46.89568156200675
 30
0.0
  0
POINT
  5
A950
330
A946
100
AcDbEntity
  8
DEFPOINTS
  6
Continuous
 62
     0
100
AcDbPoint
 10
57.16691703934521
 20
48.89568156200664
 30
0.0
  0
POINT
  5
A951
330
A946
100
AcDbEntity
  8
DEFPOINTS
  6
Continuous
 62
     0
100
AcDbPoint
 10
21.88379037875437
 20
48.89568156200664
 30
0.0
  0
ENDBLK
  5
A953
330
A946
100
AcDbEntity
  8
0
 62
     7
100
AcDbBlockEnd
  0
BLOCK
  5
A9AD
330
A9A3
100
AcDbEntity
  8
0
 62
     7
100
AcDbBlockBegin
  2
*D15
 70
     1
 10
0.0
 20
0.0
 30
0.0
  3
*D15
  1

  0
LINE
  5
A9A4
330
A9A3
100
AcDbEntity
  8
dim
  6
Continuous
 62
     7
370
    -2
100
AcDbLine
 10
42.32542978584251
 20
130.1259836645962
 30
0.0
 11
42.32542978584252
 21
194.981683836893
 31
0.0
  0
LINE
  5
A9A5
330
A9A3
100
AcDbEntity
  8
dim
  6
Continuous
 62
     7
370
    -2
100
AcDbLine
 10
124.3254297858425
 20
130.1259836645962
 30
0.0
 11
124.3254297858425
 21
194.981683836893
 31
0.0
  0
LINE
  5
A9A6
330
A9A3
100
AcDbEntity
  8
dim
  6
Continuous
 62
     7
370
    -2
100
AcDbLine
 10
45.32542978584252
 20
193.981683836893
 30
0.0
 11
121.3254297858425
 21
193.981683836893
 31
0.0
  0
INSERT
  5
A9A7
330
A9A3
100
AcDbEntity
  8
dim
  6
Continuous
 62
     7
370
    -2
100
AcDbBlockReference
  2
_OPEN
 10
42.32542978584252
 20
193.981683836893
 30
0.0
 41
3.0
 42
3.0
 43
3.0
 50
180.0
  0
INSERT
  5
A9A8
330
A9A3
100
AcDbEntity
  8
dim
  6
Continuous
 62
     7
370
    -2
100
AcDbBlockReference
  2
_OPEN
 10
124.3254297858425
 20
193.981683836893
 30
0.0
 41
3.0
 42
3.0
 43
3.0
  0
MTEXT
  5
A9A9
330
A9A3
100
AcDbEntity
  8
dim
  6
Continuous
 62
     0
100
AcDbMText
 10
83.32542978584251
 20
195.981683836893
 30
0.0
 40
3.0
 41
0.0
 71
     5
 72
     1
  1
\A1;82
 73
     1
 44
1.0
  0
POINT
  5
A9AA
330
A9A3
100
AcDbEntity
  8
DEFPOINTS
  6
Continuous
 62
     0
100
AcDbPoint
 10
42.32542978584251
 20
129.6259836645962
 30
0.0
  0
POINT
  5
A9AB
330
A9A3
100
AcDbEntity
  8
DEFPOINTS
  6
Continuous
 62
     0
100
AcDbPoint
 10
124.3254297858425
 20
129.6259836645961
 30
0.0
  0
POINT
  5
A9AC
330
A9A3
100
AcDbEntity
  8
DEFPOINTS
  6
Continuous
 62
     0
100
AcDbPoint
 10
124.3254297858425
 20
193.981683836893
 30
0.0
  0
ENDBLK
  5
A9AE
330
A9A3
100
AcDbEntity
  8
0
 62
     7
100
AcDbBlockEnd
  0
BLOCK
  5
A9CA
330
A9C3
100
AcDbEntity
  8
0
 62
     7
100
AcDbBlockBegin
  2
*D16
 70
     1
 10
0.0
 20
0.0
 30
0.0
  3
*D16
  1

  0
LINE
  5
A9C4
330
A9C3
100
AcDbEntity
  8
dim
  6
Continuous
 62
     7
370
    -2
100
AcDbLine
 10
144.9860257647422
 20
132.8256821232528
 30
0.0
 11
137.2860257647422
 21
132.8256821232528
 31
0.0
  0
LINE
  5
A9C5
330
A9C3
100
AcDbEntity
  8
dim
  6
Continuous
 62
     7
370
    -2
100
AcDbLine
 10
137.2860257647422
 20
132.8256821232528
 30
0.0
 11
130.2912783151617
 21
127.9955893890823
 31
0.0
  0
MTEXT
  5
A9C6
330
A9C3
100
AcDbEntity
  8
dim
  6
Continuous
 62
     0
100
AcDbMText
 10
141.3860257647422
 20
134.8256821232528
 30
0.0
 40
3.0
 41
0.0
 71
     5
 72
     1
  1
\A1;\U+22058.5
 73
     1
 44
1.0
  0
INSERT
  5
A9C7
330
A9C3
100
AcDbEntity
  8
dim
  6
Continuous
 62
     7
370
    -2
100
AcDbBlockReference
  2
_OPEN
 10
127.8226513375123
 20
126.2909249513639
 30
0.0
 41
3.0
 42
3.0
 43
3.0
 50
214.6262969819321
  0
POINT
  5
A9C8
330
A9C3
100
AcDbEntity
  8
DEFPOINTS
  6
Continuous
 62
     0
100
AcDbPoint
 10
127.8226513375123
 20
126.2909249513639
 30
0.0
  0
POINT
  5
A9C9
330
A9C3
100
AcDbEntity
  8
DEFPOINTS
  6
Continuous
 62
     0
100
AcDbPoint
 10
120.8282082341725
 20
121.4610423778284
 30
0.0
  0
ENDBLK
  5
A9CB
330
A9C3
100
AcDbEntity
  8
0
 62
     7
100
AcDbBlockEnd
  0
ENDSEC
  0
SECTION
  2
ENTITIES
  0
INSERT
  5
1312
330
1F
100
AcDbEntity
  8
0
  6
Continuous
100
AcDbBlockReference
  2
aclt
 10
0.0
 20
0.0
 30
0.0
  0
LINE
  5
9F46
330
1F
100
AcDbEntity
  8
01_ASM_CSYS_DTM_PLN
  6
CENTER
 62
     7
100
AcDbLine
 10
83.32542978584251
 20
51.89568156200675
 30
0.0
 11
83.32542978584276
 21
20.89568156200664
 31
0.0
  0
LINE
  5
A0E8
330
1F
100
AcDbEntity
  8
0
  6
Continuous
 62
     7
100
AcDbLine
 10
133.3254297858424
 20
23.89568156200675
 30
0.0
 11
133.1260739349511
 21
27.69961780157859
 31
0.0
  0
LINE
  5
A0F5
330
1F
100
AcDbEntity
  8
0
  6
Continuous
 62
     7
100
AcDbLine
 10
110.0102012937427
 20
46.89568156200675
 30
0.0
 11
109.9838663799042
 21
48.40440776522644
 31
0.0
  0
LINE
  5
A102
330
1F
100
AcDbEntity
  8
0
  6
Continuous
 62
     7
100
AcDbLine
 10
132.9748630428146
 20
28.03236999848035
 30
0.0
 11
113.6708932496341
 21
46.7546017370355
 31
0.0
  0
LINE
  5
A10C
330
1F
100
AcDbEntity
  8
0
  6
Continuous
 62
     7
100
AcDbLine
 10
56.66699319176678
 20
48.40440776522143
 30
0.0
 11
56.64065827794228
 21
46.89568156200675
 31
0.0
  0
LINE
  5
A11A
330
1F
100
AcDbEntity
  8
0
  6
Continuous
 62
     7
100
AcDbLine
 10
33.32542978584251
 20
23.89568156200675
 30
0.0
 11
33.52478563673412
 21
27.69961780157894
 31
0.0
  0
LINE
  5
A11B
330
1F
100
AcDbEntity
  8
0
  6
Continuous
 62
     7
100
AcDbLine
 10
52.97996632205013
 20
46.75460173703537
 30
0.0
 11
33.67599652887111
 21
28.0323699984807
 31
0.0
  0
LINE
  5
A11E
330
1F
100
AcDbEntity
  8
0
  6
Continuous
 62
     7
100
AcDbLine
 10
109.483942532326
 20
48.89568156200699
 30
0.0
 11
57.16691703934521
 21
48.89568156200664
 31
0.0
  0
LINE
  5
A121
330
1F
100
AcDbEntity
  8
0
  6
Continuous
 62
     7
100
AcDbLine
 10
53.32807019729035
 20
46.89568156200675
 30
0.0
 11
113.3227893743937
 21
46.89568156200686
 31
0.0
  0
LINE
  5
A122
330
1F
100
AcDbEntity
  8
0
  6
Continuous
 62
     7
100
AcDbLine
 10
33.32542978584251
 20
23.89568156200675
 30
0.0
 11
133.3254297858424
 21
23.89568156200675
 31
0.0
  0
LINE
  5
A3D2
330
1F
100
AcDbEntity
  8
0
  6
Continuous
 62
     7
100
AcDbLine
 10
200.483482174578
 20
183.875663318196
 30
0.0
 11
200.483482174578
 21
63.87630401099568
 31
0.0
  0
LINE
  5
A3DC
330
1F
100
AcDbEntity
  8
0
  6
Continuous
 62
     7
100
AcDbLine
 10
177.483482174578
 20
158.5375116005399
 30
0.0
 11
177.483482174579
 21
89.21445572872903
 31
0.0
  0
ARC
  5
A3DD
330
1F
100
AcDbEntity
  8
0
  6
Continuous
 62
     7
100
AcDbCircle
 10
510.6955613204782
 20
123.8759836645962
 30
0.0
 40
335.2120791459
100
AcDbArc
 50
174.9124537200449
 51
185.0875462799378
  0
LINE
  5
A444
330
1F
100
AcDbEntity
  8
0
  6
Continuous
 62
     7
100
AcDbLine
 10
177.6897983096944
 20
159.1458420392191
 30
0.0
 11
196.2032698853526
 21
183.3002205452256
 31
0.0
  0
LINE
  5
A445
330
1F
100
AcDbEntity
  8
0
  6
Continuous
 62
     7
100
AcDbLine
 10
200.483482174578
 20
183.8759836645963
 30
0.0
 11
196.9446177940143
 21
183.6905196413026
 31
0.0
  0
LINE
  5
A449
330
1F
100
AcDbEntity
  8
01_ASM_CSYS_DTM_PLN
  6
CENTER
 62
     7
100
AcDbLine
 10
172.483482174578
 20
123.8759836645962
 30
0.0
 11
203.483482174578
 21
123.8759836645962
 31
0.0
  0
LINE
  5
A45C
330
1F
100
AcDbEntity
  8
0
  6
Continuous
 62
     7
100
AcDbLine
 10
177.483482174578
 20
154.0607551725956
 30
0.0
 11
177.2933997930915
 21
154.0574372722963
 31
0.0
  0
LINE
  5
A464
330
1F
100
AcDbEntity
  8
0
  6
Continuous
 62
     7
100
AcDbLine
 10
194.4834821745785
 20
117.3504659479742
 30
0.0
 11
194.4834821745778
 21
130.4015013813174
 31
0.0
  0
LINE
  5
A466
330
1F
100
AcDbEntity
  8
0
  6
Continuous
 62
     7
100
AcDbLine
 10
194.0096501526969
 20
130.9008161486949
 30
0.0
 11
188.1805201352713
 21
131.2063079080336
 31
0.0
  0
LINE
  5
A46F
330
1F
100
AcDbEntity
  8
0
  6
Continuous
 62
     7
100
AcDbLine
 10
188.1805201352705
 20
116.5456594212586
 30
0.0
 11
194.0096501526974
 21
116.8511511805967
 31
0.0
  0
LINE
  5
A4E0
330
1F
100
AcDbEntity
  8
0
  6
Continuous
 62
     7
100
AcDbLine
 10
196.2032698853108
 20
64.45174678404931
 30
0.0
 11
177.689798309695
 21
88.60612529005072
 31
0.0
  0
LINE
  5
A4EF
330
1F
100
AcDbEntity
  8
0
  6
Continuous
 62
     7
100
AcDbLine
 10
177.2933997930813
 20
93.69453005699607
 30
0.0
 11
177.483482174578
 21
93.69121215669613
 31
0.0
  0
LINE
  5
A4FE
330
1F
100
AcDbEntity
  8
0
  6
Continuous
 62
     7
100
AcDbLine
 10
200.483482174578
 20
63.87598366459588
 30
0.0
 11
196.9446177939504
 21
64.06144768797297
 31
0.0
  0
ARC
  5
A50F
330
1F
100
AcDbEntity
  8
0
  6
Continuous
 62
     7
100
AcDbCircle
 10
83.32542978584251
 20
133.8759836645962
 30
0.0
 40
70.0
100
AcDbArc
 50
226.1869385395966
 51
313.8130614604028
  0
LINE
  5
A515
102
{ACAD_REACTORS
330
A84D
102
}
330
1F
100
AcDbEntity
  8
01_ASM_CSYS_DTM_PLN
  6
CENTER
 62
     7
100
AcDbLine
 10
136.3254297858425
 20
123.8759836645962
 30
0.0
 11
30.32542978584251
 21
123.8759836645962
 31
0.0
  0
ARC
  5
A516
330
1F
100
AcDbEntity
  8
0
  6
Continuous
 62
     7
100
AcDbCircle
 10
83.32542978584251
 20
113.8759836645963
 30
0.0
 40
70.0
100
AcDbArc
 50
46.18693853959704
 51
133.8130614604035
  0
LINE
  5
A51B
330
1F
100
AcDbEntity
  8
0
  6
Continuous
 62
     7
100
AcDbLine
 10
33.32542978584251
 20
160.7801412628304
 30
0.0
 11
33.32542978584251
 21
86.97182606636216
 31
0.0
  0
LINE
  5
A520
330
1F
100
AcDbEntity
  8
0
  6
Continuous
 62
     7
100
AcDbLine
 10
56.64065827794228
 20
96.69453005699594
 30
0.0
 11
56.64065827794228
 21
151.057437272296
 31
0.0
  0
LINE
  5
A521
102
{ACAD_REACTORS
330
A84D
102
}
330
1F
100
AcDbEntity
  8
01_ASM_CSYS_DTM_PLN
  6
CENTER
 62
     7
100
AcDbLine
 10
83.32542978584251
 20
186.8759836645963
 30
0.0
 11
83.32542978584251
 21
60.87598366459634
 31
0.0
  0
LINE
  5
A523
330
1F
100
AcDbEntity
  8
0
  6
Continuous
 62
     7
100
AcDbLine
 10
110.0102012937427
 20
96.69453005699608
 30
0.0
 11
110.0102012937427
 21
151.061212087096
 31
0.0
  0
CIRCLE
  5
A52A
330
1F
100
AcDbEntity
  8
0
  6
Continuous
 62
     7
100
AcDbCircle
 10
42.32542978584251
 20
123.8759836645962
 30
0.0
 40
4.25
  0
LINE
  5
A55C
330
1F
100
AcDbEntity
  8
0
  6
Continuous
 62
     7
100
AcDbLine
 10
59.64065827794229
 20
154.057437272296
 30
0.0
 11
107.0073403080427
 21
154.0574372722961
 31
0.0
  0
SPLINE
  5
A576
330
1F
100
AcDbEntity
  8
0
  6
Continuous
 62
     7
100
AcDbSpline
210
0.0
220
0.0
230
1.0
 70
     8
 71
     3
 72
     8
 73
     4
 74
     2
 42
0.0000000001
 43
0.0000000001
 44
0.0000000001
 12
0.6599389874920539
 22
-0.7513191950083287
 32
0.0
 13
0.5720146147475445
 23
-0.8202434275964778
 33
0.0
 40
0.0
 40
0.0
 40
0.0
 40
0.0
 40
0.3359510355610464
 40
0.3359510355610464
 40
0.3359510355610464
 40
0.3359510355610464
 10
109.2639408123426
 20
153.0411850520958
 30
0.0
 10
109.337843207761
 20
152.9570495648958
 30
0.0
 10
109.4071408730155
 20
152.8686379092003
 30
0.0
 10
109.4711971737424
 20
152.776784032896
 30
0.0
 11
109.2639408123426
 21
153.0411850520958
 31
0.0
 11
109.4711971737424
 21
152.776784032896
 31
0.0
  0
SPLINE
  5
A579
330
1F
100
AcDbEntity
  8
0
  6
Continuous
 62
     7
100
AcDbSpline
210
0.0
220
0.0
230
1.0
 70
     8
 71
     3
 72
     9
 73
     5
 74
     3
 42
0.0000000001
 43
0.0000000001
 44
0.0000000001
 12
0.8872653988363403
 22
-0.4612592676876968
 32
0.0
 13
0.8236062076586664
 23
-0.56716207093397
 33
0.0
 40
0.0
 40
0.0
 40
0.0
 40
0.0
 40
0.1323891746296887
 40
0.3702554143413347
 40
0.3702554143413347
 40
0.3702554143413347
 40
0.3702554143413347
 10
108.3944544098425
 20
153.7225486405959
 30
0.0
 10
108.4336091877857
 20
153.702193396016
 30
0.0
 10
108.5418598756649
 20
153.6428453068673
 30
0.0
 10
108.6463377490694
 20
153.5768311892025
 30
0.0
 10
108.7116404529424
 20
153.5318616194958
 30
0.0
 11
108.3944544098425
 21
153.7225486405959
 31
0.0
 11
108.5105394431425
 21
153.658899928096
 31
0.0
 11
108.7116404529424
 21
153.5318616194958
 31
0.0
  0
SPLINE
  5
A57A
330
1F
100
AcDbEntity
  8
0
  6
Continuous
 62
     7
100
AcDbSpline
210
0.0
220
0.0
230
1.0
 70
     8
 71
     3
 72
     8
 73
     4
 74
     2
 42
0.0000000001
 43
0.0000000001
 44
0.0000000001
 12
0.823606207688811
 22
-0.5671620708901955
 32
0.0
 13
0.7512235849091269
 23
-0.6600478205980837
 33
0.0
 40
0.0
 40
0.0
 40
0.0
 40
0.0
 40
0.3541063712631971
 40
0.3541063712631971
 40
0.3541063712631971
 40
0.3541063712631971
 10
108.7116404529424
 20
153.5318616194958
 30
0.0
 10
108.8088551881272
 20
153.4649163852154
 30
0.0
 10
108.9022867112225
 20
153.3921168565
 30
0.0
 10
108.9909577304424
 20
153.314207810296
 30
0.0
 11
108.7116404529424
 21
153.5318616194958
 31
0.0
 11
108.9909577304424
 21
153.314207810296
 31
0.0
  0
SPLINE
  5
A57B
330
1F
100
AcDbEntity
  8
0
  6
Continuous
 62
     7
100
AcDbSpline
210
0.0
220
0.0
230
1.0
 70
     8
 71
     3
 72
     9
 73
     5
 74
     3
 42
0.0000000001
 43
0.0000000001
 44
0.0000000001
 12
0.7512235849025089
 22
-0.660047820605616
 32
0.0
 13
0.6599389876210445
 23
-0.7513191948950268
 33
0.0
 40
0.0
 40
0.0
 40
0.0
 40
0.0
 40
0.1929255399013736
 40
0.3862863241835134
 40
0.3862863241835134
 40
0.3862863241835134
 40
0.3862863241835134
 10
108.9909577304424
 20
153.314207810296
 30
0.0
 10
109.0392678023437
 20
153.2717611162456
 30
0.0
 10
109.1332898278739
 20
153.1836391478096
 30
0.0
 10
109.2214053722677
 20
153.0896102750195
 30
0.0
 10
109.2639408123426
 20
153.0411850520958
 30
0.0
 11
108.9909577304424
 21
153.314207810296
 31
0.0
 11
109.1317105948423
 21
153.1822650381959
 31
0.0
 11
109.2639408123426
 21
153.0411850520958
 31
0.0
  0
SPLINE
  5
A57D
330
1F
100
AcDbEntity
  8
0
  6
Continuous
 62
     7
100
AcDbSpline
210
0.0
220
0.0
230
1.0
 70
     8
 71
     3
 72
     8
 73
     4
 74
     2
 42
0.0000000001
 43
0.0000000001
 44
0.0000000001
 12
1.0
 22
-0.0000000000000002
 32
0.0
 13
0.9978712651870594
 23
-0.065214554464302
 33
0.0
 40
0.0
 40
0.0
 40
0.0
 40
0.0
 40
0.1948550917715356
 40
0.1948550917715356
 40
0.1948550917715356
 40
0.1948550917715356
 10
107.0106582083425
 20
154.0607551725956
 30
0.0
 10
107.0756099055997
 20
154.0607551725956
 30
0.0
 10
107.1405957205244
 20
154.0586210073943
 30
0.0
 10
107.2054091528425
 20
154.054385211396
 30
0.0
 11
107.0106582083425
 21
154.0607551725956
 31
0.0
 11
107.2054091528425
 21
154.054385211396
 31
0.0
  0
SPLINE
  5
A57E
330
1F
100
AcDbEntity
  8
0
  6
Continuous
 62
     7
100
AcDbSpline
210
0.0
220
0.0
230
1.0
 70
     8
 71
     3
 72
     8
 73
     4
 74
     2
 42
0.0000000001
 43
0.0000000001
 44
0.0000000001
 12
0.997871265184378
 22
-0.0652145545053309
 32
0.0
 13
0.972037599336072
 23
-0.2348252658402968
 33
0.0
 40
0.0
 40
0.0
 40
0.0
 40
0.0
 40
0.5165251701963055
 40
0.5165251701963055
 40
0.5165251701963055
 40
0.5165251701963055
 10
107.2054091528425
 20
154.054385211396
 30
0.0
 10
107.3772176945369
 20
154.0431568917743
 30
0.0
 10
107.548688369331
 20
154.0170653816639
 30
0.0
 10
107.7160489981424
 20
153.9766343281958
 30
0.0
 11
107.2054091528425
 21
154.054385211396
 31
0.0
 11
107.7160489981424
 21
153.9766343281958
 31
0.0
  0
SPLINE
  5
A57F
330
1F
100
AcDbEntity
  8
0
  6
Continuous
 62
     7
100
AcDbSpline
210
0.0
220
0.0
230
1.0
 70
     8
 71
     3
 72
     9
 73
     5
 74
     3
 42
0.0000000001
 43
0.0000000001
 44
0.0000000001
 12
0.9720375993846907
 22
-0.2348252656390442
 32
0.0
 13
0.9390293916879951
 23
-0.3438368821782705
 33
0.0
 40
0.0
 40
0.0
 40
0.0
 40
0.0
 40
0.0733255939891087
 40
0.3406580185355175
 40
0.3406580185355175
 40
0.3406580185355175
 40
0.3406580185355175
 10
107.7160489981424
 20
153.9766343281958
 30
0.0
 10
107.7398074095939
 20
153.9708947608336
 30
0.0
 10
107.849851829346
 20
153.9428801463728
 30
0.0
 10
107.9583155590423
 20
153.9085597803496
 30
0.0
 10
108.0419932270424
 20
153.8779201978959
 30
0.0
 11
107.7160489981424
 21
153.9766343281958
 31
0.0
 11
107.7871076221426
 21
153.9585424877959
 31
0.0
 11
108.0419932270424
 21
153.8779201978959
 31
0.0
  0
SPLINE
  5
A580
330
1F
100
AcDbEntity
  8
0
  6
Continuous
 62
     7
100
AcDbSpline
210
0.0
220
0.0
230
1.0
 70
     8
 71
     3
 72
     8
 73
     4
 74
     2
 42
0.0000000001
 43
0.0000000001
 44
0.0000000001
 12
0.9390293917060773
 22
-0.3438368821288875
 32
0.0
 13
0.887265398865113
 23
-0.4612592676323504
 33
0.0
 40
0.0
 40
0.0
 40
0.0
 40
0.0
 40
0.3851872352489453
 40
0.3851872352489453
 40
0.3851872352489453
 40
0.3851872352489453
 10
108.0419932270424
 20
153.8779201978959
 30
0.0
 10
108.1625606054453
 20
153.8337730052279
 30
0.0
 10
108.2805333078689
 20
153.7817723679399
 30
0.0
 10
108.3944544098425
 20
153.7225486405959
 30
0.0
 11
108.0419932270424
 21
153.8779201978959
 31
0.0
 11
108.3944544098425
 21
153.7225486405959
 31
0.0
  0
SPLINE
  5
A584
330
1F
100
AcDbEntity
  8
0
  6
Continuous
 62
     7
100
AcDbSpline
210
0.0
220
0.0
230
1.0
 70
     8
 71
     3
 72
     9
 73
     5
 74
     3
 42
0.0000000001
 43
0.0000000001
 44
0.0000000001
 12
0.5720146147408422
 22
-0.8202434276011519
 32
0.0
 13
0.4580783030934696
 23
-0.8889118450302074
 33
0.0
 40
0.0
 40
0.0
 40
0.0
 40
0.0
 40
0.255601216094242
 40
0.3987211449445906
 40
0.3987211449445906
 40
0.3987211449445906
 40
0.3987211449445906
 10
109.4711971737424
 20
152.776784032896
 30
0.0
 10
109.5199330507928
 20
152.7068989603666
 30
0.0
 10
109.5913709560961
 20
152.5945769161015
 30
0.0
 10
109.6550750044935
 20
152.4778834401008
 30
0.0
 10
109.6769283825423
 20
152.4354764400959
 30
0.0
 11
109.4711971737424
 21
152.776784032896
 31
0.0
 11
109.6083457407425
 21
152.5610938563959
 31
0.0
 11
109.6769283825423
 21
152.4354764400959
 31
0.0
  0
SPLINE
  5
A585
330
1F
100
AcDbEntity
  8
0
  6
Continuous
 62
     7
100
AcDbSpline
210
0.0
220
0.0
230
1.0
 70
     8
 71
     3
 72
     8
 73
     4
 74
     2
 42
0.0000000001
 43
0.0000000001
 44
0.0000000001
 12
0.4580783030213964
 22
-0.8889118450673485
 32
0.0
 13
0.3606018374014876
 23
-0.9327198480051077
 33
0.0
 40
0.0
 40
0.0
 40
0.0
 40
0.0
 40
0.3208053148278068
 40
0.3208053148278068
 40
0.3208053148278068
 40
0.3208053148278068
 10
109.6769283825423
 20
152.4354764400959
 30
0.0
 10
109.7259130339479
 20
152.3404205586589
 30
0.0
 10
109.7698691759173
 20
152.2426022914246
 30
0.0
 10
109.8084301712423
 20
152.1428617965961
 30
0.0
 11
109.6769283825423
 21
152.4354764400959
 31
0.0
 11
109.8084301712423
 21
152.1428617965961
 31
0.0
  0
SPLINE
  5
A586
330
1F
100
AcDbEntity
  8
0
  6
Continuous
 62
     7
100
AcDbSpline
210
0.0
220
0.0
230
1.0
 70
     8
 71
     3
 72
     9
 73
     5
 74
     3
 42
0.0000000001
 43
0.0000000001
 44
0.0000000001
 12
0.3606018372511958
 22
-0.9327198480632123
 32
0.0
 13
0.2296579960359531
 23
-0.9732713932181249
 33
0.0
 40
0.0
 40
0.0
 40
0.0
 40
0.0
 40
0.3210279667139982
 40
0.4102580688959123
 40
0.4102580688959123
 40
0.4102580688959123
 40
0.4102580688959123
 10
109.8084301712423
 20
152.1428617965961
 30
0.0
 10
109.8470179294444
 20
152.043052077817
 30
0.0
 10
109.8895596298663
 20
151.912699187988
 30
0.0
 10
109.9229436278913
 20
151.7800804060185
 30
0.0
 10
109.9297744300423
 20
151.7511320373959
 30
0.0
 11
109.8084301712423
 21
152.1428617965961
 31
0.0
 11
109.9079885494425
 21
151.8376617232955
 31
0.0
 11
109.9297744300423
 21
151.7511320373959
 31
0.0
  0
SPLINE
  5
A587
330
1F
100
AcDbEntity
  8
0
  6
Continuous
 62
     7
100
AcDbSpline
210
0.0
220
0.0
230
1.0
 70
     8
 71
     3
 72
     8
 73
     4
 74
     2
 42
0.0000000001
 43
0.0000000001
 44
0.0000000001
 12
0.2296579960215108
 22
-0.9732713932215329
 32
0.0
 13
0.1311735743450319
 23
-0.9913594168582594
 33
0.0
 40
0.0
 40
0.0
 40
0.0
 40
0.0
 40
0.3014594031936468
 40
0.3014594031936468
 40
0.3014594031936468
 40
0.3014594031936468
 10
109.9297744300423
 20
151.7511320373959
 30
0.0
 10
109.9528519508488
 20
151.6533314329473
 30
0.0
 10
109.9710313969968
 20
151.5542468520479
 30
0.0
 10
109.9842125661425
 20
151.4546286459957
 30
0.0
 11
109.9297744300423
 21
151.7511320373959
 31
0.0
 11
109.9842125661425
 21
151.4546286459957
 31
0.0
  0
SPLINE
  5
A588
330
1F
100
AcDbEntity
  8
0
  6
Continuous
 62
     7
100
AcDbSpline
210
0.0
220
0.0
230
1.0
 70
     8
 71
     3
 72
     8
 73
     4
 74
     2
 42
0.0000000001
 43
0.0000000001
 44
0.0000000001
 12
0.1311735741336368
 22
-0.9913594168862307
 32
0.0
 13
-0.0000000000000002
 23
-1.0
 33
0.0
 40
0.0
 40
0.0
 40
0.0
 40
0.0
 40
0.394274019913596
 40
0.394274019913596
 40
0.394274019913596
 40
0.394274019913596
 10
109.9842125661425
 20
151.4546286459957
 30
0.0
 10
110.0014520102692
 20
151.3243395585041
 30
0.0
 10
110.0102012937427
 20
151.1926367604005
 30
0.0
 10
110.0102012937427
 20
151.061212087096
 30
0.0
 11
109.9842125661425
 21
151.4546286459957
 31
0.0
 11
110.0102012937427
 21
151.061212087096
 31
0.0
  0
LINE
  5
A5A2
330
1F
100
AcDbEntity
  8
0
  6
Continuous
 62
     7
100
AcDbLine
 10
107.0102012937427
 20
93.69453005699607
 30
0.0
 11
59.64065827794229
 21
93.69453005699595
 31
0.0
  0
LINE
  5
A5E1
330
1F
100
AcDbEntity
  8
0
  6
Continuous
 62
     7
100
AcDbLine
 10
133.3254297858427
 20
86.97182606636195
 30
0.0
 11
133.3254297858424
 21
160.7801412628306
 31
0.0
  0
CIRCLE
  5
A5FB
330
1F
100
AcDbEntity
  8
0
  6
Continuous
 62
     7
100
AcDbCircle
 10
124.3254297858425
 20
123.8759836645962
 30
0.0
 40
4.25
  0
LWPOLYLINE
  5
A68E
330
1F
100
AcDbEntity
  8
waku1
 62
     7
100
AcDbPolyline
 90
        3
 70
     0
 43
0.0
 10
0.0
 20
205.0
 10
0.0
 20
210.0
 10
5.000000000000009
 20
210.0
  0
LINE
  5
A6EE
330
1F
100
AcDbEntity
  8
3
100
AcDbLine
 10
187.0
 20
48.00000000000011
 30
0.0
 11
287.0
 21
48.00000000000011
 31
0.0
  0
LINE
  5
A6EF
330
1F
100
AcDbEntity
  8
3
100
AcDbLine
 10
187.0
 20
32.0000000000001
 30
0.0
 11
287.0
 21
32.0000000000001
 31
0.0
  0
LINE
  5
A6F0
330
1F
100
AcDbEntity
  8
3
100
AcDbLine
 10
187.0
 20
16.0
 30
0.0
 11
287.0
 21
16.0
 31
0.0
  0
LINE
  5
A6F1
330
1F
100
AcDbEntity
  8
3
100
AcDbLine
 10
237.0
 20
48.00000000000011
 30
0.0
 11
237.0
 21
16.0
 31
0.0
  0
LINE
  5
A6F2
330
1F
100
AcDbEntity
  8
3
100
AcDbLine
 10
242.0
 20
48.00000000000011
 30
0.0
 11
242.0
 21
16.0
 31
0.0
  0
MTEXT
  5
A6F3
330
1F
100
AcDbEntity
  8
3
100
AcDbMText
 10
237.5253330097243
 20
46.05735945525577
 30
0.0
 40
2.799999999999998
 41
4.0944
 71
     1
 72
     5
  1
図　　番
 73
     1
 44
1.0
  0
LINE
  5
A6F4
330
1F
100
AcDbEntity
  8
3
100
AcDbLine
 10
192.0
 20
48.00000000000011
 30
0.0
 11
192.0
 21
16.0
 31
0.0
  0
LINE
  5
A6F5
330
1F
100
AcDbEntity
  8
3
100
AcDbLine
 10
187.0
 20
48.00000000000011
 30
0.0
 11
187.0
 21
16.0
 31
0.0
  0
MTEXT
  5
A6F6
330
1F
100
AcDbEntity
  8
3
100
AcDbMText
 10
187.7906388348139
 20
46.34802974282138
 30
0.0
 40
2.799999999999998
 41
4.0944
 71
     1
 72
     5
  1
部品図
 73
     1
 44
1.0
  0
LINE
  5
A6F7
330
1F
100
AcDbEntity
  8
3
100
AcDbLine
 10
187.0
 20
24.00000000000011
 30
0.0
 11
227.0
 21
24.00000000000011
 31
0.0
  0
MTEXT
  5
A6F8
330
1F
100
AcDbEntity
  8
3
100
AcDbMText
 10
215.7287624982167
 20
21.66242486205987
 30
0.0
 40
3.0
 41
8.030599999999997
 71
     1
 72
     5
  1
m/m
 73
     1
 44
1.0
  0
MTEXT
  5
A6F9
330
1F
100
AcDbEntity
  8
3
100
AcDbMText
 10
207.7404932191579
 20
32.02474689022392
 30
0.0
 40
2.799999999999998
 41
3.9807
 71
     1
 72
     5
  1
個数
 73
     1
 44
1.0
  0
MTEXT
  5
A6FA
330
1F
100
AcDbEntity
  8
3
100
AcDbMText
 10
187.9128332703054
 20
32.02474689022392
 30
0.0
 40
2.799999999999998
 41
3.9807
 71
     1
 72
     5
  1
材料
 73
     1
 44
1.0
  0
MTEXT
  5
A6FB
330
1F
100
AcDbEntity
  8
3
100
AcDbMText
 10
207.7404932191579
 20
23.61377376308166
 30
0.0
 40
2.799999999999998
 41
3.9807
 71
     1
 72
     5
  1
単位
 73
     1
 44
1.0
  0
MTEXT
  5
A6FC
330
1F
100
AcDbEntity
  8
3
100
AcDbMText
 10
187.9128332703054
 20
23.61377376308166
 30
0.0
 40
2.799999999999998
 41
3.9807
 71
     1
 72
     5
  1
尺度
 73
     1
 44
1.0
  0
MTEXT
  5
A6FD
330
1F
100
AcDbEntity
  8
3
100
AcDbMText
 10
196.2605835266781
 20
21.66242486205987
 30
0.0
 40
3.0
 41
8.030624239295669
 71
     1
 72
     5
  1
1/1
 73
     1
 44
1.0
  0
LINE
  5
A6FE
330
1F
100
AcDbEntity
  8
3
100
AcDbLine
 10
212.0
 20
32.0000000000001
 30
0.0
 11
212.0
 21
16.0
 31
0.0
  0
LINE
  5
A6FF
330
1F
100
AcDbEntity
  8
3
100
AcDbLine
 10
207.0
 20
32.0000000000001
 30
0.0
 11
207.0
 21
16.0
 31
0.0
  0
MTEXT
  5
A702
330
1F
100
AcDbEntity
  8
3
100
AcDbMText
 10
237.670755660345
 20
30.07048307787056
 30
0.0
 40
2.799999999999998
 41
4.0944
 71
     1
 72
     5
  1
品　　名
 73
     1
 44
1.0
  0
MTEXT
  5
A703
330
1F
100
AcDbEntity
  8
3
100
AcDbMText
 10
230.6949249363366
 20
23.48646348515308
 30
0.0
 40
3.0
 41
6.3272
 71
     1
 72
     5
  1
/
 73
     1
 44
1.0
  0
LINE
  5
A704
330
1F
100
AcDbEntity
  8
3
100
AcDbLine
 10
227.0
 20
32.0000000000001
 30
0.0
 11
227.0
 21
16.0
 31
0.0
  0
MTEXT
  5
A705
330
1F
100
AcDbEntity
  8
3
100
AcDbMText
 10
228.1606796235165
 20
31.3585558748108
 30
0.0
 40
2.799999999999998
 41
9.237
 71
     1
 72
     5
  1
部番
 73
     1
 44
1.0
  0
LINE
  5
A706
330
1F
100
AcDbEntity
  8
3
100
AcDbLine
 10
227.0
 20
28.00000000000011
 30
0.0
 11
237.0
 21
28.00000000000011
 31
0.0
  0
LINE
  5
A708
330
1F
100
AcDbEntity
  8
3
100
AcDbLine
 10
287.0
 20
48.00000000000011
 30
0.0
 11
287.0
 21
16.0
 31
0.0
  0
ARC
  5
A72B
330
1F
100
AcDbEntity
  8
0
  6
Continuous
 62
     7
100
AcDbCircle
 10
83.32534360680346
 20
356.7811889583284
 30
0.0
 40
267.9058846546232
100
AcDbArc
 50
264.1066175184424
 51
275.8934199585002
  0
ARC
  5
A731
330
1F
100
AcDbEntity
  8
0
  6
Continuous
 62
     7
100
AcDbCircle
 10
38.32542978584206
 20
160.7801412628304
 30
0.0
 40
5.0
100
AcDbArc
 50
133.813061460405
 51
180.0
  0
ARC
  5
A732
330
1F
100
AcDbEntity
  8
0
  6
Continuous
 62
     7
100
AcDbCircle
 10
128.3254297858422
 20
160.7801412628306
 30
0.0
 40
5.0
100
AcDbArc
 50
0.0
 51
46.18693853959682
  0
LINE
  5
A733
330
1F
100
AcDbEntity
  8
0
  6
Continuous
 62
     7
100
AcDbLine
 10
53.12542978589954
 20
93.27541594228272
 30
0.0
 11
53.12542978589954
 21
154.4765513869099
 31
0.0
  0
ARC
  5
A736
330
1F
100
AcDbEntity
  8
0
  6
Continuous
 62
     7
100
AcDbCircle
 10
83.32534360680346
 20
-109.0292216291359
 30
0.0
 40
267.9058846546232
100
AcDbArc
 50
84.10658004149979
 51
95.89338248155753
  0
ARC
  5
A738
330
1F
100
AcDbEntity
  8
0
  6
Continuous
 62
     7
100
AcDbCircle
 10
128.3254297858422
 20
86.97182606636195
 30
0.0
 40
5.0
100
AcDbArc
 50
313.8130614604032
 51
0.0
  0
ARC
  5
A739
330
1F
100
AcDbEntity
  8
0
  6
Continuous
 62
     7
100
AcDbCircle
 10
38.32542978584251
 20
86.97182606636216
 30
0.0
 40
5.0
100
AcDbArc
 50
180.0
 51
226.1869385395966
  0
ARC
  5
A73A
330
1F
100
AcDbEntity
  8
0
  6
Continuous
 62
     7
100
AcDbCircle
 10
56.12542978589954
 20
93.27541594228272
 30
0.0
 40
3.0
100
AcDbArc
 50
180.0
 51
264.1066175184448
  0
LINE
  5
A73B
330
1F
100
AcDbEntity
  8
0
  6
Continuous
 62
     7
100
AcDbLine
 10
113.525429785785
 20
93.27543373369508
 30
0.0
 11
113.525429785785
 21
154.4765335954975
 31
0.0
  0
ARC
  5
A73C
330
1F
100
AcDbEntity
  8
0
  6
Continuous
 62
     7
100
AcDbCircle
 10
56.12542978589954
 20
154.4765513869099
 30
0.0
 40
3.0
100
AcDbArc
 50
95.89338248155513
 51
180.0
  0
ARC
  5
A73D
330
1F
100
AcDbEntity
  8
0
  6
Continuous
 62
     7
100
AcDbCircle
 10
110.525429785785
 20
154.4765335954975
 30
0.0
 40
3.0
100
AcDbArc
 50
0.0
 51
84.10658004150064
  0
ARC
  5
A73E
330
1F
100
AcDbEntity
  8
0
  6
Continuous
 62
     7
100
AcDbCircle
 10
110.525429785785
 20
93.27543373369508
 30
0.0
 40
3.0
100
AcDbArc
 50
275.8934199584992
 51
0.0
  0
ARC
  5
A73F
330
1F
100
AcDbEntity
  8
0
  6
Continuous
 62
     7
100
AcDbCircle
 10
59.64065827794229
 20
96.69453005699594
 30
0.0
 40
3.0
100
AcDbArc
 50
180.0
 51
270.0
  0
ARC
  5
A740
330
1F
100
AcDbEntity
  8
0
  6
Continuous
 62
     7
100
AcDbCircle
 10
107.0102012937427
 20
96.69453005699608
 30
0.0
 40
3.0
100
AcDbArc
 50
270.0
 51
0.0
  0
ARC
  5
A741
330
1F
100
AcDbEntity
  8
0
  6
Continuous
 62
     7
100
AcDbCircle
 10
59.64065827794229
 20
151.057437272296
 30
0.0
 40
3.0
100
AcDbArc
 50
90.0
 51
180.0
  0
LINE
  5
A742
330
1F
100
AcDbEntity
  8
0
  6
Continuous
 62
     7
100
AcDbLine
 10
55.81739683461545
 20
157.4606954351964
 30
0.0
 11
34.86389132430348
 21
164.3881533857711
 31
0.0
  0
LINE
  5
A743
330
1F
100
AcDbEntity
  8
0
  6
Continuous
 62
     7
100
AcDbLine
 10
53.12542978589954
 20
154.4765513869099
 30
0.0
 11
33.32542978584205
 21
160.7801412628304
 31
0.0
  0
LINE
  5
A744
330
1F
100
AcDbEntity
  8
0
  6
Continuous
 62
     7
100
AcDbLine
 10
110.8334646889858
 20
157.4606774423003
 30
0.0
 11
131.7869682473808
 21
164.3881533857719
 31
0.0
  0
LINE
  5
A745
330
1F
100
AcDbEntity
  8
0
  6
Continuous
 62
     7
100
AcDbLine
 10
113.525429785785
 20
154.4765335954975
 30
0.0
 11
133.3254297858422
 21
160.7801412628306
 31
0.0
  0
LINE
  5
A746
330
1F
100
AcDbEntity
  8
0
  6
Continuous
 62
     7
100
AcDbLine
 10
53.12542978589954
 20
93.27541594228272
 30
0.0
 11
33.32542978584251
 21
86.97182606636216
 31
0.0
  0
LINE
  5
A747
330
1F
100
AcDbEntity
  8
0
  6
Continuous
 62
     7
100
AcDbLine
 10
55.81739683461545
 20
90.29127189399616
 30
0.0
 11
34.86389132430395
 21
83.36381394342096
 31
0.0
  0
LINE
  5
A748
330
1F
100
AcDbEntity
  8
0
  6
Continuous
 62
     7
100
AcDbLine
 10
110.8334646889858
 20
90.29128988689228
 30
0.0
 11
131.7869682473808
 21
83.36381394342081
 31
0.0
  0
LINE
  5
A749
330
1F
100
AcDbEntity
  8
0
  6
Continuous
 62
     7
100
AcDbLine
 10
133.3254297858427
 20
86.97182606636195
 30
0.0
 11
113.525429785785
 21
93.27543373369508
 31
0.0
  0
LINE
  5
A750
330
1F
100
AcDbEntity
  8
0
  6
Continuous
 62
     7
100
AcDbLine
 10
35.59720499587502
 20
116.8759836645155
 30
0.0
 11
35.59720499587502
 21
130.8759836646769
 31
0.0
  0
LINE
  5
A752
330
1F
100
AcDbEntity
  8
0
  6
Continuous
 62
     7
100
AcDbLine
 10
42.32542978574156
 20
130.8759836646769
 30
0.0
 11
35.59720499587502
 21
130.8759836646769
 31
0.0
  0
LINE
  5
A753
330
1F
100
AcDbEntity
  8
0
  6
Continuous
 62
     7
100
AcDbLine
 10
42.32542978574156
 20
116.8759836645155
 30
0.0
 11
35.59720499587502
 21
116.8759836645155
 31
0.0
  0
ARC
  5
A755
330
1F
100
AcDbEntity
  8
0
  6
Continuous
 62
     7
100
AcDbCircle
 10
42.32542978574156
 20
123.8759836645962
 30
0.0
 40
7.000000000080945
100
AcDbArc
 50
270.0
 51
90.0
  0
ARC
  5
A757
330
1F
100
AcDbEntity
  8
0
  6
Continuous
 62
     7
100
AcDbCircle
 10
42.32542978574156
 20
123.8759836645962
 30
0.0
 40
7.735150754911501
100
AcDbArc
 50
263.3198319914311
 51
96.68016800856868
  0
LINE
  5
A758
330
1F
100
AcDbEntity
  8
0
  6
Continuous
 62
     7
100
AcDbLine
 10
35.59720499587502
 20
130.8759836646769
 30
0.0
 11
41.42562320990282
 21
131.5586202775882
 31
0.0
  0
LINE
  5
A759
330
1F
100
AcDbEntity
  8
0
  6
Continuous
 62
     7
100
AcDbLine
 10
35.59720499587502
 20
116.8759836645155
 30
0.0
 11
41.42562320990282
 21
116.1933470516042
 31
0.0
  0
ARC
  5
A75A
330
1F
100
AcDbEntity
  8
0
  6
Continuous
 62
     7
100
AcDbCircle
 10
124.3254297859434
 20
123.8759836645962
 30
0.0
 40
7.735150754911501
100
AcDbArc
 50
83.31983199143135
 51
276.6801680085688
  0
LINE
  5
A75B
330
1F
100
AcDbEntity
  8
0
  6
Continuous
 62
     7
100
AcDbLine
 10
131.05365457581
 20
116.8759836645155
 30
0.0
 11
125.2252363617822
 21
116.1933470516042
 31
0.0
  0
LINE
  5
A75C
330
1F
100
AcDbEntity
  8
0
  6
Continuous
 62
     7
100
AcDbLine
 10
131.05365457581
 20
116.8759836645155
 30
0.0
 11
131.05365457581
 21
130.8759836646769
 31
0.0
  0
LINE
  5
A75D
330
1F
100
AcDbEntity
  8
0
  6
Continuous
 62
     7
100
AcDbLine
 10
124.3254297859434
 20
116.8759836645155
 30
0.0
 11
131.05365457581
 21
116.8759836645155
 31
0.0
  0
ARC
  5
A75E
330
1F
100
AcDbEntity
  8
0
  6
Continuous
 62
     7
100
AcDbCircle
 10
124.3254297859434
 20
123.8759836645962
 30
0.0
 40
7.000000000080945
100
AcDbArc
 50
90.0
 51
270.0
  0
LINE
  5
A75F
330
1F
100
AcDbEntity
  8
0
  6
Continuous
 62
     7
100
AcDbLine
 10
131.05365457581
 20
130.8759836646769
 30
0.0
 11
125.2252363617822
 21
131.5586202775882
 31
0.0
  0
LINE
  5
A760
330
1F
100
AcDbEntity
  8
0
  6
Continuous
 62
     7
100
AcDbLine
 10
124.3254297859434
 20
130.8759836646769
 30
0.0
 11
131.05365457581
 21
130.8759836646769
 31
0.0
  0
ARC
  5
A763
330
1F
100
AcDbEntity
  8
0
  6
Continuous
 62
     7
100
AcDbCircle
 10
196.996953750236
 20
182.6918901065466
 30
0.0
 40
1.0
100
AcDbArc
 50
92.99999999877844
 51
142.5311195304134
  0
ARC
  5
A764
330
1F
100
AcDbEntity
  8
0
  6
Continuous
 62
     7
100
AcDbCircle
 10
196.9969537501946
 20
65.0600772227275
 30
0.0
 40
1.0
100
AcDbArc
 50
217.4688804695291
 51
266.999999999929
  0
LINE
  5
A765
330
1F
100
AcDbEntity
  8
0
  6
Continuous
 62
     7
100
AcDbLine
 10
196.4839143979389
 20
183.5502551937879
 30
0.0
 11
196.4839143978887
 21
64.20171213549156
 31
0.0
  0
ARC
  5
A767
330
1F
100
AcDbEntity
  8
0
  6
Continuous
 62
     7
100
AcDbCircle
 10
178.483482174579
 20
89.21445572872903
 30
0.0
 40
1.0
100
AcDbArc
 50
180.0000000000004
 51
217.4688804695244
  0
ARC
  5
A768
330
1F
100
AcDbEntity
  8
0
  6
Continuous
 62
     7
100
AcDbCircle
 10
178.483482174578
 20
158.5375116005399
 30
0.0
 40
1.0
100
AcDbArc
 50
142.5311195304178
 51
180.0000000000009
  0
ARC
  5
A76D
330
1F
100
AcDbEntity
  8
0
  6
Continuous
 62
     7
100
AcDbCircle
 10
193.9834821745778
 20
130.4015013813174
 30
0.0
 40
0.5
100
AcDbArc
 50
0.0000000000010687
 51
87.00000000026127
  0
ARC
  5
A76E
330
1F
100
AcDbEntity
  8
0
  6
Continuous
 62
     7
100
AcDbCircle
 10
193.9834821745785
 20
117.3504659479742
 30
0.0
 40
0.5
100
AcDbArc
 50
272.9999999997309
 51
0.0000000000020737
  0
ARC
  5
A770
330
1F
100
AcDbEntity
  8
0
  6
Continuous
 62
     7
100
AcDbCircle
 10
187.7963541202843
 20
123.8759836646462
 30
0.0
 40
7.340383984524706
100
AcDbArc
 50
87.0000000002622
 51
272.9999999997323
  0
ARC
  5
A771
330
1F
100
AcDbEntity
  8
0
  6
Continuous
 62
     7
100
AcDbCircle
 10
177.302125996271
 20
94.19445390457465
 30
0.0
 40
0.5
100
AcDbArc
 50
185.0875462799319
 51
269.0000000033074
  0
ARC
  5
A772
330
1F
100
AcDbEntity
  8
0
  6
Continuous
 62
     7
100
AcDbCircle
 10
177.3021259962801
 20
153.5575134247176
 30
0.0
 40
0.5
100
AcDbArc
 50
90.9999999965621
 51
174.9124537200315
  0
ARC
  5
A773
330
1F
100
AcDbEntity
  8
0
  6
Continuous
 62
     7
100
AcDbCircle
 10
53.32807019729035
 20
46.39568156200676
 30
0.0
 40
0.5
100
AcDbArc
 50
90.0
 51
134.1235376117537
  0
ARC
  5
A774
330
1F
100
AcDbEntity
  8
0
  6
Continuous
 62
     7
100
AcDbCircle
 10
57.16691703934521
 20
48.39568156200664
 30
0.0
 40
0.5
100
AcDbArc
 50
90.0
 51
179.0000000004424
  0
ARC
  5
A775
330
1F
100
AcDbEntity
  8
0
  6
Continuous
 62
     7
100
AcDbCircle
 10
109.483942532326
 20
48.39568156200698
 30
0.0
 40
0.5
100
AcDbArc
 50
1.000000000087504
 51
90.0000000000001
  0
ARC
  5
A776
330
1F
100
AcDbEntity
  8
0
  6
Continuous
 62
     7
100
AcDbCircle
 10
113.3227893743937
 20
46.39568156200686
 30
0.0
 40
0.5
100
AcDbArc
 50
45.87646238824623
 51
90.0
  0
ARC
  5
A777
330
1F
100
AcDbEntity
  8
0
  6
Continuous
 62
     7
100
AcDbCircle
 10
34.02410040411131
 20
27.67344982345207
 30
0.0
 40
0.5
100
AcDbArc
 50
134.1235376117541
 51
176.9999999993773
  0
ARC
  5
A778
330
1F
100
AcDbEntity
  8
0
  6
Continuous
 62
     7
100
AcDbCircle
 10
132.6267591675741
 20
27.67344982345173
 30
0.0
 40
0.5
100
AcDbArc
 50
3.000000000622641
 51
45.87646238824668
  0
LINE
  5
A779
330
1F
100
AcDbEntity
  8
0
  6
Continuous
 62
     7
100
AcDbLine
 10
33.53506090302198
 20
27.89568156207951
 30
0.0
 11
133.0746576542275
 21
27.89568156207939
 31
0.0
  0
LINE
  5
A77A
330
1F
100
AcDbEntity
  8
DEFAULT_2
  6
DASHED
 62
     7
100
AcDbLine
 10
64.30752046484258
 20
91.49394325759613
 30
0.0
 11
64.3249728713422
 21
92.49379095279621
 31
0.0
  0
LINE
  5
A77B
330
1F
100
AcDbEntity
  8
DEFAULT_2
  6
DASHED
 62
     7
100
AcDbLine
 10
63.71160838184231
 20
86.00350713749618
 30
0.0
 11
63.80759661734237
 21
91.50266946089621
 31
0.0
  0
LINE
  5
A77C
330
1F
100
AcDbEntity
  8
DEFAULT_2
  6
DASHED
 62
     7
100
AcDbLine
 10
58.30843429394235
 20
91.5986576962962
 30
0.0
 11
58.32588670034238
 21
92.5985053913962
 31
0.0
  0
LINE
  5
A77D
330
1F
100
AcDbEntity
  8
DEFAULT_2
  6
DASHED
 62
     7
100
AcDbLine
 10
58.7123699061426
 20
86.09076916969616
 30
0.0
 11
58.8083581415426
 21
91.58993149299611
 31
0.0
  0
LINE
  5
A77E
330
1F
100
AcDbEntity
  8
DEFAULT_2
  6
DASHED
 62
     7
100
AcDbLine
 10
64.30752046484258
 20
91.49394325759613
 30
0.0
 11
58.30843429394235
 21
91.5986576962962
 31
0.0
  0
LINE
  5
A77F
330
1F
100
AcDbEntity
  8
DEFAULT_2
  6
DASHED
 62
     7
100
AcDbLine
 10
63.71160838184231
 20
86.00350713749618
 30
0.0
 11
58.7123699061426
 21
86.09076916969616
 31
0.0
  0
ARC
  5
A780
330
1F
100
AcDbEntity
  8
DEFAULT_2
  6
DASHED
 62
     7
100
AcDbCircle
 10
61.21198914404249
 20
86.04713815359628
 30
0.0
 40
2.5
100
AcDbArc
 50
179.0
 51
358.9999999999998
  0
LINE
  5
A781
330
1F
100
AcDbEntity
  8
DEFAULT_2
  6
DASHED
 62
     7
100
AcDbLine
 10
85.82542978584228
 20
86.1159836645961
 30
0.0
 11
85.82542978584228
 21
91.61598366459612
 31
0.0
  0
LINE
  5
A782
330
1F
100
AcDbEntity
  8
DEFAULT_2
  6
DASHED
 62
     7
100
AcDbLine
 10
80.82542978584251
 20
86.1159836645961
 30
0.0
 11
80.82542978584251
 21
91.61598366459612
 31
0.0
  0
LINE
  5
A783
330
1F
100
AcDbEntity
  8
DEFAULT_2
  6
DASHED
 62
     7
100
AcDbLine
 10
85.82542978584228
 20
86.1159836645961
 30
0.0
 11
80.82542978584251
 21
86.1159836645961
 31
0.0
  0
ARC
  5
A784
330
1F
100
AcDbEntity
  8
DEFAULT_2
  6
DASHED
 62
     7
100
AcDbCircle
 10
83.32542978584228
 20
86.1159836645961
 30
0.0
 40
2.5
100
AcDbArc
 50
180.0
 51
0.0
  0
LINE
  5
A785
330
1F
100
AcDbEntity
  8
DEFAULT_2
  6
DASHED
 62
     7
100
AcDbLine
 10
86.32542978584231
 20
91.61598366459612
 30
0.0
 11
86.32542978584231
 21
92.61598366459612
 31
0.0
  0
LINE
  5
A786
330
1F
100
AcDbEntity
  8
DEFAULT_2
  6
DASHED
 62
     7
100
AcDbLine
 10
86.32542978584231
 20
91.61598366459612
 30
0.0
 11
80.32542978584251
 21
91.61598366459612
 31
0.0
  0
LINE
  5
A787
330
1F
100
AcDbEntity
  8
DEFAULT_2
  6
DASHED
 62
     7
100
AcDbLine
 10
80.32542978584251
 20
91.61598366459612
 30
0.0
 11
80.32542978584251
 21
92.61598366459612
 31
0.0
  0
LINE
  5
A788
330
1F
100
AcDbEntity
  8
DEFAULT_2
  6
DASHED
 62
     7
100
AcDbLine
 10
86.32542978584231
 20
92.61598366459612
 30
0.0
 11
80.32542978584251
 21
92.61598366459612
 31
0.0
  0
LINE
  5
A789
330
1F
100
AcDbEntity
  8
DEFAULT_2
  6
DASHED
 62
     7
100
AcDbLine
 10
64.3249728713422
 20
92.49379095279621
 30
0.0
 11
58.32588670034238
 21
92.5985053913962
 31
0.0
  0
LINE
  5
A78A
330
1F
100
AcDbEntity
  8
DEFAULT_2
  6
DASHED
 62
     7
100
AcDbLine
 10
108.3424252777424
 20
91.5986576962962
 30
0.0
 11
102.3433391068424
 21
91.49394325759613
 31
0.0
  0
LINE
  5
A78B
330
1F
100
AcDbEntity
  8
DEFAULT_2
  6
DASHED
 62
     7
100
AcDbLine
 10
102.3433391068424
 20
91.49394325759613
 30
0.0
 11
102.3258867003423
 21
92.49379095279621
 31
0.0
  0
LINE
  5
A78C
330
1F
100
AcDbEntity
  8
DEFAULT_2
  6
DASHED
 62
     7
100
AcDbLine
 10
102.9392511897424
 20
86.00350713749618
 30
0.0
 11
102.8432629543424
 21
91.50266946089621
 31
0.0
  0
LINE
  5
A78D
330
1F
100
AcDbEntity
  8
DEFAULT_2
  6
DASHED
 62
     7
100
AcDbLine
 10
108.3249728713424
 20
92.5985053913962
 30
0.0
 11
102.3258867003423
 21
92.49379095279621
 31
0.0
  0
LINE
  5
A78E
330
1F
100
AcDbEntity
  8
DEFAULT_2
  6
DASHED
 62
     7
100
AcDbLine
 10
108.3424252777424
 20
91.5986576962962
 30
0.0
 11
108.3249728713424
 21
92.5985053913962
 31
0.0
  0
LINE
  5
A78F
330
1F
100
AcDbEntity
  8
DEFAULT_2
  6
DASHED
 62
     7
100
AcDbLine
 10
107.9384896655424
 20
86.09076916969616
 30
0.0
 11
107.8425014301424
 21
91.58993149299611
 31
0.0
  0
LINE
  5
A790
330
1F
100
AcDbEntity
  8
DEFAULT_2
  6
DASHED
 62
     7
100
AcDbLine
 10
107.9384896655424
 20
86.09076916969616
 30
0.0
 11
102.9392511897424
 21
86.00350713749618
 31
0.0
  0
ARC
  5
A791
330
1F
100
AcDbEntity
  8
DEFAULT_2
  6
DASHED
 62
     7
100
AcDbCircle
 10
105.4388704276425
 20
86.04713815359628
 30
0.0
 40
2.5
100
AcDbArc
 50
181.0
 51
0.9999999999999884
  0
LINE
  5
A792
330
1F
100
AcDbEntity
  8
DEFAULT_2
  6
DASHED
 62
     7
100
AcDbLine
 10
64.3249728713422
 20
155.2581763763964
 30
0.0
 11
58.32588670034238
 21
155.1534619377964
 31
0.0
  0
LINE
  5
A793
330
1F
100
AcDbEntity
  8
DEFAULT_2
  6
DASHED
 62
     7
100
AcDbLine
 10
86.32542978584231
 20
155.1359836645964
 30
0.0
 11
80.32542978584251
 21
155.1359836645964
 31
0.0
  0
LINE
  5
A794
330
1F
100
AcDbEntity
  8
DEFAULT_2
  6
DASHED
 62
     7
100
AcDbLine
 10
80.32542978584251
 20
156.1359836645964
 30
0.0
 11
80.32542978584251
 21
155.1359836645964
 31
0.0
  0
LINE
  5
A795
330
1F
100
AcDbEntity
  8
DEFAULT_2
  6
DASHED
 62
     7
100
AcDbLine
 10
86.32542978584231
 20
156.1359836645964
 30
0.0
 11
80.32542978584251
 21
156.1359836645964
 31
0.0
  0
LINE
  5
A796
330
1F
100
AcDbEntity
  8
DEFAULT_2
  6
DASHED
 62
     7
100
AcDbLine
 10
86.32542978584231
 20
156.1359836645964
 30
0.0
 11
86.32542978584231
 21
155.1359836645964
 31
0.0
  0
ARC
  5
A797
330
1F
100
AcDbEntity
  8
DEFAULT_2
  6
DASHED
 62
     7
100
AcDbCircle
 10
83.32542978584228
 20
161.6359836645965
 30
0.0
 40
2.5
100
AcDbArc
 50
0.0
 51
180.0
  0
LINE
  5
A798
330
1F
100
AcDbEntity
  8
DEFAULT_2
  6
DASHED
 62
     7
100
AcDbLine
 10
85.82542978584228
 20
161.6359836645965
 30
0.0
 11
80.82542978584251
 21
161.6359836645965
 31
0.0
  0
LINE
  5
A799
330
1F
100
AcDbEntity
  8
DEFAULT_2
  6
DASHED
 62
     7
100
AcDbLine
 10
80.82542978584251
 20
161.6359836645965
 30
0.0
 11
80.82542978584251
 21
156.1359836645964
 31
0.0
  0
LINE
  5
A79A
330
1F
100
AcDbEntity
  8
DEFAULT_2
  6
DASHED
 62
     7
100
AcDbLine
 10
85.82542978584228
 20
161.6359836645965
 30
0.0
 11
85.82542978584228
 21
156.1359836645964
 31
0.0
  0
ARC
  5
A79B
330
1F
100
AcDbEntity
  8
DEFAULT_2
  6
DASHED
 62
     7
100
AcDbCircle
 10
61.21198914404249
 20
161.7048291755962
 30
0.0
 40
2.5
100
AcDbArc
 50
1.000000000000053
 51
181.0
  0
LINE
  5
A79C
330
1F
100
AcDbEntity
  8
DEFAULT_2
  6
DASHED
 62
     7
100
AcDbLine
 10
63.71160838184231
 20
161.7484601916965
 30
0.0
 11
58.7123699061426
 21
161.6611981594965
 31
0.0
  0
LINE
  5
A79D
330
1F
100
AcDbEntity
  8
DEFAULT_2
  6
DASHED
 62
     7
100
AcDbLine
 10
64.30752046484258
 20
156.2580240715965
 30
0.0
 11
58.30843429394235
 21
156.1533096328964
 31
0.0
  0
LINE
  5
A79E
330
1F
100
AcDbEntity
  8
DEFAULT_2
  6
DASHED
 62
     7
100
AcDbLine
 10
58.7123699061426
 20
161.6611981594965
 30
0.0
 11
58.8083581415426
 21
156.1620358361965
 31
0.0
  0
LINE
  5
A79F
330
1F
100
AcDbEntity
  8
DEFAULT_2
  6
DASHED
 62
     7
100
AcDbLine
 10
58.30843429394235
 20
156.1533096328964
 30
0.0
 11
58.32588670034238
 21
155.1534619377964
 31
0.0
  0
LINE
  5
A7A0
330
1F
100
AcDbEntity
  8
DEFAULT_2
  6
DASHED
 62
     7
100
AcDbLine
 10
63.71160838184231
 20
161.7484601916965
 30
0.0
 11
63.80759661734237
 21
156.2492978682964
 31
0.0
  0
LINE
  5
A7A1
330
1F
100
AcDbEntity
  8
DEFAULT_2
  6
DASHED
 62
     7
100
AcDbLine
 10
64.30752046484258
 20
156.2580240715965
 30
0.0
 11
64.3249728713422
 21
155.2581763763964
 31
0.0
  0
ARC
  5
A7A2
330
1F
100
AcDbEntity
  8
DEFAULT_2
  6
DASHED
 62
     7
100
AcDbCircle
 10
105.4388704276425
 20
161.7048291755962
 30
0.0
 40
2.5
100
AcDbArc
 50
359.0
 51
179.0
  0
LINE
  5
A7A3
330
1F
100
AcDbEntity
  8
DEFAULT_2
  6
DASHED
 62
     7
100
AcDbLine
 10
107.9384896655424
 20
161.6611981594965
 30
0.0
 11
102.9392511897424
 21
161.7484601916965
 31
0.0
  0
LINE
  5
A7A4
330
1F
100
AcDbEntity
  8
DEFAULT_2
  6
DASHED
 62
     7
100
AcDbLine
 10
107.9384896655424
 20
161.6611981594965
 30
0.0
 11
107.8425014301424
 21
156.1620358361965
 31
0.0
  0
LINE
  5
A7A5
330
1F
100
AcDbEntity
  8
DEFAULT_2
  6
DASHED
 62
     7
100
AcDbLine
 10
108.3424252777424
 20
156.1533096328964
 30
0.0
 11
108.3249728713424
 21
155.1534619377964
 31
0.0
  0
LINE
  5
A7A6
330
1F
100
AcDbEntity
  8
DEFAULT_2
  6
DASHED
 62
     7
100
AcDbLine
 10
108.3249728713424
 20
155.1534619377964
 30
0.0
 11
102.3258867003423
 21
155.2581763763964
 31
0.0
  0
LINE
  5
A7A7
330
1F
100
AcDbEntity
  8
DEFAULT_2
  6
DASHED
 62
     7
100
AcDbLine
 10
102.9392511897424
 20
161.7484601916965
 30
0.0
 11
102.8432629543424
 21
156.2492978682964
 31
0.0
  0
LINE
  5
A7A8
330
1F
100
AcDbEntity
  8
DEFAULT_2
  6
DASHED
 62
     7
100
AcDbLine
 10
102.3433391068424
 20
156.2580240715965
 30
0.0
 11
102.3258867003423
 21
155.2581763763964
 31
0.0
  0
LINE
  5
A7A9
330
1F
100
AcDbEntity
  8
DEFAULT_2
  6
DASHED
 62
     7
100
AcDbLine
 10
108.3424252777424
 20
156.1533096328964
 30
0.0
 11
102.3433391068424
 21
156.2580240715965
 31
0.0
  0
LINE
  5
A7AA
330
1F
100
AcDbEntity
  8
DEFAULT_2
  6
DASHED
 62
     7
100
AcDbLine
 10
33.32542978584251
 20
92.97598366459622
 30
0.0
 11
133.3254297858424
 21
92.97598366459636
 31
0.0
  0
LINE
  5
A7AB
330
1F
100
AcDbEntity
  8
DEFAULT_2
  6
DASHED
 62
     7
100
AcDbLine
 10
64.3249728713422
 20
155.2581763763964
 30
0.0
 11
58.32588670034238
 21
155.1534619377964
 31
0.0
  0
ARC
  5
A7AC
330
1F
100
AcDbEntity
  8
DEFAULT_2
  6
DASHED
 62
     7
100
AcDbCircle
 10
61.21198914404249
 20
161.7048291755962
 30
0.0
 40
2.5
100
AcDbArc
 50
1.000000000000053
 51
181.0
  0
LINE
  5
A7AD
330
1F
100
AcDbEntity
  8
DEFAULT_2
  6
DASHED
 62
     7
100
AcDbLine
 10
63.71160838184231
 20
161.7484601916965
 30
0.0
 11
58.7123699061426
 21
161.6611981594965
 31
0.0
  0
LINE
  5
A7AE
330
1F
100
AcDbEntity
  8
DEFAULT_2
  6
DASHED
 62
     7
100
AcDbLine
 10
64.30752046484258
 20
156.2580240715965
 30
0.0
 11
58.30843429394235
 21
156.1533096328964
 31
0.0
  0
LINE
  5
A7AF
330
1F
100
AcDbEntity
  8
DEFAULT_2
  6
DASHED
 62
     7
100
AcDbLine
 10
58.7123699061426
 20
161.6611981594965
 30
0.0
 11
58.8083581415426
 21
156.1620358361965
 31
0.0
  0
LINE
  5
A7B0
330
1F
100
AcDbEntity
  8
DEFAULT_2
  6
DASHED
 62
     7
100
AcDbLine
 10
58.30843429394235
 20
156.1533096328964
 30
0.0
 11
58.32588670034238
 21
155.1534619377964
 31
0.0
  0
LINE
  5
A7B1
330
1F
100
AcDbEntity
  8
DEFAULT_2
  6
DASHED
 62
     7
100
AcDbLine
 10
63.71160838184231
 20
161.7484601916965
 30
0.0
 11
63.80759661734237
 21
156.2492978682964
 31
0.0
  0
LINE
  5
A7B2
330
1F
100
AcDbEntity
  8
DEFAULT_2
  6
DASHED
 62
     7
100
AcDbLine
 10
64.30752046484258
 20
156.2580240715965
 30
0.0
 11
64.3249728713422
 21
155.2581763763964
 31
0.0
  0
LINE
  5
A7B3
330
1F
100
AcDbEntity
  8
DEFAULT_2
  6
DASHED
 62
     7
100
AcDbLine
 10
86.32542978584231
 20
155.1359836645964
 30
0.0
 11
80.32542978584251
 21
155.1359836645964
 31
0.0
  0
LINE
  5
A7B4
330
1F
100
AcDbEntity
  8
DEFAULT_2
  6
DASHED
 62
     7
100
AcDbLine
 10
80.32542978584251
 20
156.1359836645964
 30
0.0
 11
80.32542978584251
 21
155.1359836645964
 31
0.0
  0
LINE
  5
A7B5
330
1F
100
AcDbEntity
  8
DEFAULT_2
  6
DASHED
 62
     7
100
AcDbLine
 10
86.32542978584231
 20
156.1359836645964
 30
0.0
 11
80.32542978584251
 21
156.1359836645964
 31
0.0
  0
LINE
  5
A7B6
330
1F
100
AcDbEntity
  8
DEFAULT_2
  6
DASHED
 62
     7
100
AcDbLine
 10
86.32542978584231
 20
156.1359836645964
 30
0.0
 11
86.32542978584231
 21
155.1359836645964
 31
0.0
  0
ARC
  5
A7B7
330
1F
100
AcDbEntity
  8
DEFAULT_2
  6
DASHED
 62
     7
100
AcDbCircle
 10
83.32542978584228
 20
161.6359836645965
 30
0.0
 40
2.5
100
AcDbArc
 50
0.0
 51
180.0
  0
LINE
  5
A7B8
330
1F
100
AcDbEntity
  8
DEFAULT_2
  6
DASHED
 62
     7
100
AcDbLine
 10
85.82542978584228
 20
161.6359836645965
 30
0.0
 11
80.82542978584251
 21
161.6359836645965
 31
0.0
  0
LINE
  5
A7B9
330
1F
100
AcDbEntity
  8
DEFAULT_2
  6
DASHED
 62
     7
100
AcDbLine
 10
80.82542978584251
 20
161.6359836645965
 30
0.0
 11
80.82542978584251
 21
156.1359836645964
 31
0.0
  0
LINE
  5
A7BA
330
1F
100
AcDbEntity
  8
DEFAULT_2
  6
DASHED
 62
     7
100
AcDbLine
 10
85.82542978584228
 20
161.6359836645965
 30
0.0
 11
85.82542978584228
 21
156.1359836645964
 31
0.0
  0
ARC
  5
A7BB
330
1F
100
AcDbEntity
  8
DEFAULT_2
  6
DASHED
 62
     7
100
AcDbCircle
 10
105.4388704276425
 20
161.7048291755962
 30
0.0
 40
2.5
100
AcDbArc
 50
359.0
 51
179.0
  0
LINE
  5
A7BC
330
1F
100
AcDbEntity
  8
DEFAULT_2
  6
DASHED
 62
     7
100
AcDbLine
 10
107.9384896655424
 20
161.6611981594965
 30
0.0
 11
102.9392511897424
 21
161.7484601916965
 31
0.0
  0
LINE
  5
A7BD
330
1F
100
AcDbEntity
  8
DEFAULT_2
  6
DASHED
 62
     7
100
AcDbLine
 10
107.9384896655424
 20
161.6611981594965
 30
0.0
 11
107.8425014301424
 21
156.1620358361965
 31
0.0
  0
LINE
  5
A7BE
330
1F
100
AcDbEntity
  8
DEFAULT_2
  6
DASHED
 62
     7
100
AcDbLine
 10
108.3424252777424
 20
156.1533096328964
 30
0.0
 11
108.3249728713424
 21
155.1534619377964
 31
0.0
  0
LINE
  5
A7BF
330
1F
100
AcDbEntity
  8
DEFAULT_2
  6
DASHED
 62
     7
100
AcDbLine
 10
108.3249728713424
 20
155.1534619377964
 30
0.0
 11
102.3258867003423
 21
155.2581763763964
 31
0.0
  0
LINE
  5
A7C0
330
1F
100
AcDbEntity
  8
DEFAULT_2
  6
DASHED
 62
     7
100
AcDbLine
 10
102.9392511897424
 20
161.7484601916965
 30
0.0
 11
102.8432629543424
 21
156.2492978682964
 31
0.0
  0
LINE
  5
A7C1
330
1F
100
AcDbEntity
  8
DEFAULT_2
  6
DASHED
 62
     7
100
AcDbLine
 10
102.3433391068424
 20
156.2580240715965
 30
0.0
 11
102.3258867003423
 21
155.2581763763964
 31
0.0
  0
LINE
  5
A7C2
330
1F
100
AcDbEntity
  8
DEFAULT_2
  6
DASHED
 62
     7
100
AcDbLine
 10
108.3424252777424
 20
156.1533096328964
 30
0.0
 11
102.3433391068424
 21
156.2580240715965
 31
0.0
  0
LINE
  5
A7C3
330
1F
100
AcDbEntity
  8
DEFAULT_2
  6
DASHED
 62
     7
100
AcDbLine
 10
33.32542978584251
 20
154.7759836645963
 30
0.0
 11
133.3254297858424
 21
154.7759836645963
 31
0.0
  0
LINE
  5
A7C4
330
1F
100
AcDbEntity
  8
0
  6
DASHED
 62
     7
100
AcDbLine
 10
177.4834821745785
 20
92.97598366459636
 30
0.0
 11
200.483482174578
 21
92.97598366459636
 31
0.0
  0
LINE
  5
A7C5
330
1F
100
AcDbEntity
  8
0
  6
DASHED
 62
     7
100
AcDbLine
 10
185.483482174578
 20
91.61598366459612
 30
0.0
 11
185.483482174578
 21
92.61598366459612
 31
0.0
  0
LINE
  5
A7C6
330
1F
100
AcDbEntity
  8
0
  6
DASHED
 62
     7
100
AcDbLine
 10
191.483482174578
 20
91.61598366459612
 30
0.0
 11
191.483482174578
 21
92.61598366459612
 31
0.0
  0
LINE
  5
A7C7
330
1F
100
AcDbEntity
  8
0
  6
DASHED
 62
     7
100
AcDbLine
 10
191.483482174578
 20
92.61598366459612
 30
0.0
 11
185.483482174578
 21
92.61598366459612
 31
0.0
  0
LINE
  5
A7C8
330
1F
100
AcDbEntity
  8
0
  6
DASHED
 62
     7
100
AcDbLine
 10
191.483482174578
 20
91.61598366459612
 30
0.0
 11
185.483482174578
 21
91.61598366459612
 31
0.0
  0
LINE
  5
A7CA
330
1F
100
AcDbEntity
  8
DEFAULT_2
  6
DASHED
 62
     7
100
AcDbLine
 10
185.983482174578
 20
86.1159836645961
 30
0.0
 11
185.983482174578
 21
91.61598366459612
 31
0.0
  0
LINE
  5
A7CB
330
1F
100
AcDbEntity
  8
DEFAULT_2
  6
DASHED
 62
     7
100
AcDbLine
 10
190.9834821745778
 20
86.1159836645961
 30
0.0
 11
190.9834821745778
 21
91.61598366459612
 31
0.0
  0
ARC
  5
A7CC
330
1F
100
AcDbEntity
  8
DEFAULT_2
  6
DASHED
 62
     7
100
AcDbCircle
 10
188.4834821745778
 20
86.1159836645961
 30
0.0
 40
2.5
100
AcDbArc
 50
180.0
 51
0.0
  0
LINE
  5
A7CD
330
1F
100
AcDbEntity
  8
DEFAULT_2
  6
DASHED
 62
     7
100
AcDbLine
 10
190.9834821745778
 20
86.1159836645961
 30
0.0
 11
185.983482174578
 21
86.1159836645961
 31
0.0
  0
LINE
  5
A7CE
330
1F
100
AcDbEntity
  8
0
  6
DASHED
 62
     7
100
AcDbLine
 10
177.4834821745785
 20
154.7759836645963
 30
0.0
 11
200.483482174578
 21
154.7759836645963
 31
0.0
  0
LINE
  5
A7CF
330
1F
100
AcDbEntity
  8
DEFAULT_2
  6
DASHED
 62
     7
100
AcDbLine
 10
190.9834821745778
 20
161.6359836645965
 30
0.0
 11
185.983482174578
 21
161.6359836645965
 31
0.0
  0
ARC
  5
A7D0
330
1F
100
AcDbEntity
  8
DEFAULT_2
  6
DASHED
 62
     7
100
AcDbCircle
 10
188.4834821745778
 20
161.6359836645965
 30
0.0
 40
2.5
100
AcDbArc
 50
0.0
 51
180.0
  0
LINE
  5
A7D1
330
1F
100
AcDbEntity
  8
DEFAULT_2
  6
DASHED
 62
     7
100
AcDbLine
 10
190.9834821745778
 20
161.6359836645965
 30
0.0
 11
190.9834821745778
 21
156.1359836645964
 31
0.0
  0
LINE
  5
A7D2
330
1F
100
AcDbEntity
  8
DEFAULT_2
  6
DASHED
 62
     7
100
AcDbLine
 10
185.983482174578
 20
161.6359836645965
 30
0.0
 11
185.983482174578
 21
156.1359836645964
 31
0.0
  0
LINE
  5
A7D3
330
1F
100
AcDbEntity
  8
0
  6
DASHED
 62
     7
100
AcDbLine
 10
191.483482174578
 20
156.1359836645964
 30
0.0
 11
185.483482174578
 21
156.1359836645964
 31
0.0
  0
LINE
  5
A7D4
330
1F
100
AcDbEntity
  8
0
  6
DASHED
 62
     7
100
AcDbLine
 10
191.483482174578
 20
155.1359836645964
 30
0.0
 11
185.483482174578
 21
155.1359836645964
 31
0.0
  0
LINE
  5
A7D5
330
1F
100
AcDbEntity
  8
0
  6
DASHED
 62
     7
100
AcDbLine
 10
191.483482174578
 20
156.1359836645964
 30
0.0
 11
191.483482174578
 21
155.1359836645964
 31
0.0
  0
LINE
  5
A7D6
330
1F
100
AcDbEntity
  8
0
  6
DASHED
 62
     7
100
AcDbLine
 10
185.483482174578
 20
156.1359836645964
 30
0.0
 11
185.483482174578
 21
155.1359836645964
 31
0.0
  0
LINE
  5
A7D7
330
1F
100
AcDbEntity
  8
0
  6
DASHED
 62
     7
100
AcDbLine
 10
194.483482174578
 20
128.1259836645961
 30
0.0
 11
200.483482174578
 21
128.1259836645961
 31
0.0
  0
LINE
  5
A7D8
330
1F
100
AcDbEntity
  8
0
  6
DASHED
 62
     7
100
AcDbLine
 10
194.4834821745785
 20
119.6259836645962
 30
0.0
 11
200.483482174578
 21
119.6259836645962
 31
0.0
  0
LINE
  5
A7D9
330
1F
100
AcDbEntity
  8
01_ASM_CSYS_DTM_PLN
  6
CENTER
 62
     7
100
AcDbLine
 10
111.3428821922924
 20
35.89568156200721
 30
0.0
 11
99.34288219229257
 21
35.89568156200721
 31
0.0
  0
LINE
  5
A7DC
330
1F
100
AcDbEntity
  8
01_ASM_CSYS_DTM_PLN
  6
CENTER
 62
     7
100
AcDbLine
 10
61.30797737939246
 20
41.89568156200721
 30
0.0
 11
61.30797737939246
 21
29.89568156200721
 31
0.0
  0
LINE
  5
A7DD
330
1F
100
AcDbEntity
  8
01_ASM_CSYS_DTM_PLN
  6
CENTER
 62
     7
100
AcDbLine
 10
105.3428821922924
 20
41.89568156200721
 30
0.0
 11
105.3428821922924
 21
29.89568156200721
 31
0.0
  0
CIRCLE
  5
A7DE
330
1F
100
AcDbEntity
  8
0
  6
DASHED
 62
     7
100
AcDbCircle
 10
83.32542978584251
 20
35.89568156200721
 30
0.0
 40
2.5
  0
CIRCLE
  5
A7DF
330
1F
100
AcDbEntity
  8
0
  6
DASHED
 62
     7
100
AcDbCircle
 10
83.32542978584251
 20
35.89568156200721
 30
0.0
 40
3.0
  0
CIRCLE
  5
A7E0
330
1F
100
AcDbEntity
  8
0
  6
DASHED
 62
     7
100
AcDbCircle
 10
105.3428821922924
 20
35.89568156200721
 30
0.0
 40
3.0
  0
CIRCLE
  5
A7E1
330
1F
100
AcDbEntity
  8
0
  6
DASHED
 62
     7
100
AcDbCircle
 10
105.3428821922924
 20
35.89568156200721
 30
0.0
 40
2.5
  0
CIRCLE
  5
A7E2
330
1F
100
AcDbEntity
  8
0
  6
DASHED
 62
     7
100
AcDbCircle
 10
61.30797737939246
 20
35.89568156200721
 30
0.0
 40
2.5
  0
CIRCLE
  5
A7E3
330
1F
100
AcDbEntity
  8
0
  6
DASHED
 62
     7
100
AcDbCircle
 10
61.30797737939246
 20
35.89568156200721
 30
0.0
 40
3.0
  0
LINE
  5
A7E4
330
1F
100
AcDbEntity
  8
01_ASM_CSYS_DTM_PLN
  6
CENTER
 62
     7
100
AcDbLine
 10
89.32542978584251
 20
35.89568156200721
 30
0.0
 11
77.32542978584252
 21
35.89568156200721
 31
0.0
  0
LINE
  5
A7E5
330
1F
100
AcDbEntity
  8
01_ASM_CSYS_DTM_PLN
  6
CENTER
 62
     7
100
AcDbLine
 10
67.30797737939247
 20
35.89568156200721
 30
0.0
 11
55.30797737939247
 21
35.89568156200721
 31
0.0
  0
LINE
  5
A7E6
330
1F
100
AcDbEntity
  8
0
  6
Continuous
 62
     7
100
AcDbLine
 10
200.483482174578
 20
162.8657785202598
 30
0.0
 11
196.4839143979301
 21
162.6561700549936
 31
0.0
  0
LINE
  5
A7E8
330
1F
100
AcDbEntity
  8
0
  6
Continuous
 62
     7
100
AcDbLine
 10
177.5474342644354
 20
158.8893841767912
 30
0.0
 11
196.4839143979301
 21
162.6561700549936
 31
0.0
  0
LINE
  5
A7E9
330
1F
100
AcDbEntity
  8
0
  6
Continuous
 62
     7
100
AcDbLine
 10
200.483482174578
 20
84.88618880893284
 30
0.0
 11
196.4839143979301
 21
85.09579727419895
 31
0.0
  0
LINE
  5
A7EA
330
1F
100
AcDbEntity
  8
0
  6
Continuous
 62
     7
100
AcDbLine
 10
177.5474342644354
 20
88.86258315240125
 30
0.0
 11
196.4839143979301
 21
85.09579727419895
 31
0.0
  0
LINE
  5
A7EB
330
1F
100
AcDbEntity
  8
0
  6
DASHED
 62
     7
100
AcDbLine
 10
58.3254297858425
 20
95.37598366459631
 30
0.0
 11
58.3254297858425
 21
152.3759836645963
 31
0.0
  0
LINE
  5
A7EC
102
{ACAD_REACTORS
330
A84D
102
}
330
1F
100
AcDbEntity
  8
0
  6
DASHED
 62
     7
100
AcDbLine
 10
58.3254297858425
 20
152.3759836645964
 30
0.0
 11
108.3254297858426
 21
152.3759836645963
 31
0.0
  0
LINE
  5
A7ED
330
1F
100
AcDbEntity
  8
0
  6
DASHED
 62
     7
100
AcDbLine
 10
108.3254297858424
 20
152.3759836645963
 30
0.0
 11
108.3254297858424
 21
95.37598366459631
 31
0.0
  0
LINE
  5
A7EE
102
{ACAD_REACTORS
330
A84D
102
}
330
1F
100
AcDbEntity
  8
0
  6
DASHED
 62
     7
100
AcDbLine
 10
108.3254297858426
 20
95.37598366459622
 30
0.0
 11
58.3254297858425
 21
95.37598366459645
 31
0.0
  0
LINE
  5
A7EF
102
{ACAD_REACTORS
330
A84D
102
}
330
1F
100
AcDbEntity
  8
0
  6
DASHED
 62
     7
100
AcDbLine
 10
86.32542978584273
 20
152.3759836645965
 30
0.0
 11
86.32542978584252
 21
95.37598366459631
 31
0.0
  0
LINE
  5
A7F0
102
{ACAD_REACTORS
330
A84D
102
}
330
1F
100
AcDbEntity
  8
0
  6
DASHED
 62
     7
100
AcDbLine
 10
80.32542978584251
 20
152.3759836645965
 30
0.0
 11
80.32542978584251
 21
95.37598366459631
 31
0.0
  0
LINE
  5
A7F1
102
{ACAD_REACTORS
330
A84D
102
}
330
1F
100
AcDbEntity
  8
0
  6
DASHED
 62
     7
100
AcDbLine
 10
87.32542978584275
 20
152.3759836645965
 30
0.0
 11
87.32542978584252
 21
95.37598366459631
 31
0.0
  0
LINE
  5
A7F2
102
{ACAD_REACTORS
330
A84D
102
}
330
1F
100
AcDbEntity
  8
0
  6
DASHED
 62
     7
100
AcDbLine
 10
79.32542978584251
 20
152.3759836645965
 30
0.0
 11
79.32542978584251
 21
95.37598366459631
 31
0.0
  0
LINE
  5
A7F3
102
{ACAD_REACTORS
330
A84D
102
}
330
1F
100
AcDbEntity
  8
0
  6
DASHED
 62
     7
100
AcDbLine
 10
94.32542978584296
 20
152.3759836645965
 30
0.0
 11
94.32542978584274
 21
95.37598366459645
 31
0.0
  0
LINE
  5
A7F4
102
{ACAD_REACTORS
330
A84D
102
}
330
1F
100
AcDbEntity
  8
0
  6
DASHED
 62
     7
100
AcDbLine
 10
93.32542978584298
 20
152.3759836645965
 30
0.0
 11
93.32542978584276
 21
95.37598366459645
 31
0.0
  0
LINE
  5
A7F5
102
{ACAD_REACTORS
330
A84D
102
}
330
1F
100
AcDbEntity
  8
0
  6
DASHED
 62
     7
100
AcDbLine
 10
100.3254297858432
 20
152.3759836645965
 30
0.0
 11
100.3254297858429
 21
95.37598366459645
 31
0.0
  0
LINE
  5
A7F6
102
{ACAD_REACTORS
330
A84D
102
}
330
1F
100
AcDbEntity
  8
0
  6
DASHED
 62
     7
100
AcDbLine
 10
101.3254297858432
 20
152.3759836645965
 30
0.0
 11
101.3254297858429
 21
95.37598366459645
 31
0.0
  0
LINE
  5
A7F8
102
{ACAD_REACTORS
330
A84D
102
}
330
1F
100
AcDbEntity
  8
0
  6
DASHED
 62
     7
100
AcDbLine
 10
107.3254297858434
 20
152.3759836645965
 30
0.0
 11
107.3254297858432
 21
95.37598366459645
 31
0.0
  0
LINE
  5
A7F9
102
{ACAD_REACTORS
330
A84D
102
}
330
1F
100
AcDbEntity
  8
0
  6
DASHED
 62
     7
100
AcDbLine
 10
59.32542978584161
 20
152.3759836645965
 30
0.0
 11
59.32542978584161
 21
95.37598366459645
 31
0.0
  0
LINE
  5
A7FA
102
{ACAD_REACTORS
330
A84D
102
}
330
1F
100
AcDbEntity
  8
0
  6
DASHED
 62
     7
100
AcDbLine
 10
65.32542978584159
 20
152.3759836645965
 30
0.0
 11
65.32542978584206
 21
95.37598366459645
 31
0.0
  0
LINE
  5
A7FB
102
{ACAD_REACTORS
330
A84D
102
}
330
1F
100
AcDbEntity
  8
0
  6
DASHED
 62
     7
100
AcDbLine
 10
66.32542978584161
 20
152.3759836645965
 30
0.0
 11
66.32542978584206
 21
95.37598366459645
 31
0.0
  0
LINE
  5
A7FC
102
{ACAD_REACTORS
330
A84D
102
}
330
1F
100
AcDbEntity
  8
0
  6
DASHED
 62
     7
100
AcDbLine
 10
73.32542978584206
 20
152.3759836645965
 30
0.0
 11
73.32542978584251
 21
95.37598366459645
 31
0.0
  0
LINE
  5
A7FD
102
{ACAD_REACTORS
330
A84D
102
}
330
1F
100
AcDbEntity
  8
0
  6
DASHED
 62
     7
100
AcDbLine
 10
72.32542978584206
 20
152.3759836645965
 30
0.0
 11
72.32542978584252
 21
95.37598366459645
 31
0.0
  0
HATCH
  5
A84D
330
1F
100
AcDbEntity
  8
0
  6
DASHED
 62
     7
100
AcDbHatch
 10
0.0
 20
0.0
 30
0.0
210
0.0
220
0.0
230
1.0
  2
ANSI31
 70
     0
 71
     1
 91
       16
 92
        7
 72
     0
 73
     1
 93
        4
 10
65.32542978584159
 20
152.3759836645964
 10
59.32542978584161
 20
152.3759836645964
 10
59.32542978584161
 20
123.8759836645962
 10
65.32542978584183
 20
123.8759836645962
 97
        4
330
A7EC
330
A7F9
330
A515
330
A7FA
 92
        7
 72
     0
 73
     1
 93
        4
 10
65.32542978584183
 20
123.8759836645962
 10
59.32542978584161
 20
123.8759836645962
 10
59.32542978584161
 20
95.37598366459645
 10
65.32542978584206
 20
95.3759836645964
 97
        4
330
A515
330
A7F9
330
A7EE
330
A7FA
 92
        7
 72
     0
 73
     1
 93
        4
 10
66.32542978584206
 20
95.3759836645964
 10
72.3254297858425
 20
95.37598366459636
 10
72.32542978584226
 20
123.8759836645962
 10
66.32542978584182
 20
123.8759836645962
 97
        4
330
A515
330
A7FB
330
A7EE
330
A7FD
 92
        7
 72
     0
 73
     1
 93
        4
 10
72.32542978584206
 20
152.3759836645964
 10
66.32542978584161
 20
152.3759836645964
 10
66.32542978584183
 20
123.8759836645962
 10
72.32542978584226
 20
123.8759836645962
 97
        4
330
A7EC
330
A7FB
330
A515
330
A7FD
 92
        7
 72
     0
 73
     1
 93
        4
 10
79.32542978584251
 20
152.3759836645963
 10
73.32542978584204
 20
152.3759836645964
 10
73.32542978584228
 20
123.8759836645962
 10
79.3254297858425
 20
123.8759836645962
 97
        4
330
A7EC
330
A7FC
330
A515
330
A7F2
 92
        7
 72
     0
 73
     1
 93
        4
 10
79.32542978584251
 20
123.8759836645962
 10
73.32542978584228
 20
123.8759836645962
 10
73.3254297858425
 20
95.37598366459636
 10
79.32542978584251
 20
95.37598366459636
 97
        4
330
A515
330
A7FC
330
A7EE
330
A7F2
 92
        7
 72
     0
 73
     1
 93
        4
 10
83.32542978584251
 20
123.8759836645962
 10
80.32542978584253
 20
123.8759836645962
 10
80.32542978584251
 20
95.37598366459636
 10
83.32542978584251
 20
95.37598366459636
 97
        4
330
A515
330
A7F0
330
A7EE
330
A521
 92
        7
 72
     0
 73
     1
 93
        4
 10
83.32542978584251
 20
152.3759836645963
 10
80.32542978584253
 20
152.3759836645963
 10
80.32542978584251
 20
123.8759836645962
 10
83.32542978584253
 20
123.8759836645962
 97
        4
330
A7EC
330
A7F0
330
A515
330
A521
 92
        7
 72
     0
 73
     1
 93
        4
 10
86.32542978584273
 20
152.3759836645963
 10
83.32542978584253
 20
152.3759836645963
 10
83.32542978584253
 20
123.8759836645962
 10
86.32542978584263
 20
123.8759836645962
 97
        4
330
A7EC
330
A521
330
A515
330
A7EF
 92
        7
 72
     0
 73
     1
 93
        4
 10
86.32542978584265
 20
123.8759836645962
 10
83.32542978584251
 20
123.8759836645962
 10
83.32542978584251
 20
95.37598366459631
 10
86.32542978584252
 20
95.37598366459629
 97
        4
330
A515
330
A521
330
A7EE
330
A7EF
 92
        7
 72
     0
 73
     1
 93
        4
 10
87.32542978584255
 20
95.37598366459631
 10
93.32542978584276
 20
95.37598366459631
 10
93.32542978584287
 20
123.8759836645962
 10
87.32542978584262
 20
123.8759836645962
 97
        4
330
A515
330
A7F1
330
A7EE
330
A7F4
 92
        7
 72
     0
 73
     1
 93
        4
 10
93.32542978584298
 20
152.3759836645963
 10
87.32542978584275
 20
152.3759836645963
 10
87.32542978584262
 20
123.8759836645962
 10
93.32542978584283
 20
123.8759836645962
 97
        4
330
A7EC
330
A7F1
330
A515
330
A7F4
 92
        7
 72
     0
 73
     1
 93
        4
 10
94.32542978584285
 20
123.8759836645962
 10
100.3254297858429
 20
123.8759836645962
 10
100.3254297858432
 20
152.3759836645963
 10
94.32542978584296
 20
152.3759836645963
 97
        4
330
A7EC
330
A7F3
330
A515
330
A7F5
 92
        7
 72
     0
 73
     1
 93
        4
 10
94.32542978584274
 20
95.37598366459631
 10
100.3254297858429
 20
95.37598366459627
 10
100.3254297858429
 20
123.8759836645962
 10
94.32542978584287
 20
123.8759836645962
 97
        4
330
A515
330
A7F3
330
A7EE
330
A7F5
 92
        7
 72
     0
 73
     1
 93
        4
 10
101.3254297858429
 20
95.37598366459627
 10
107.3254297858432
 20
95.37598366459622
 10
107.3254297858432
 20
123.8759836645962
 10
101.3254297858429
 20
123.8759836645962
 97
        4
330
A515
330
A7F6
330
A7EE
330
A7F8
 92
        7
 72
     0
 73
     1
 93
        4
 10
107.3254297858434
 20
152.3759836645963
 10
101.3254297858432
 20
152.3759836645963
 10
101.3254297858429
 20
123.8759836645962
 10
107.3254297858432
 20
123.8759836645962
 97
        4
330
A7EC
330
A7F6
330
A515
330
A7F8
 75
     0
 76
     1
 52
0.0
 41
0.5
 77
     0
 78
     1
 53
45.0
 43
2130.315477775654
 44
-847.074918045288
 45
-1.122532015133643
 46
1.122532015133643
 79
     0
 47
0.1147883824171064
 98
       16
 10
62.44819569291803
 20
141.6490674201962
 10
62.90754235231225
 20
113.5259172777409
 10
68.64948487809169
 20
111.5745080779547
 10
69.91270832256896
 20
135.9096476409217
 10
76.34367658919336
 20
137.0575376198762
 10
77.60690003367243
 20
117.3139278572292
 10
82.54495427085613
 20
117.8878766111433
 10
82.54495427085613
 20
129.9406573947311
 10
85.07141266332338
 20
128.6779821823188
 10
85.30109174477411
 20
116.0512601736904
 10
90.00947840401794
 20
115.3625261863185
 10
90.35398552268681
 20
129.5962866366085
 10
97.12947241148912
 20
130.2850206239804
 10
97.24431195221633
 20
119.3801222904717
 10
104.0197988410185
 20
116.7399866321888
 10
104.59398504114
 20
130.0554426281892
  0
DIMENSION
  5
A850
330
1F
100
AcDbEntity
  8
dim
  6
Continuous
 62
     7
100
AcDbDimension
  2
*D2
 10
133.3254297858424
 20
199.0120623397509
 30
0.0
 11
83.32542978584228
 21
199.0120623397509
 31
0.0
 70
   160
 71
     5
 42
100.0000000000003
  3
STD01$0
100
AcDbAlignedDimension
 13
33.32542978584205
 23
160.7801412628304
 33
0.0
 14
133.3254297858424
 24
160.7801412628306
 34
0.0
100
AcDbRotatedDimension
  0
DIMENSION
  5
A85D
330
1F
100
AcDbEntity
  8
dim
  6
Continuous
 62
     7
100
AcDbDimension
  2
*D3
 10
14.1203833521513
 20
183.8759836645963
 30
0.0
 11
14.12038335215125
 21
123.8759836645962
 31
0.0
 70
   160
 71
     5
 42
120.0
  3
STD01$0
100
AcDbAlignedDimension
 13
83.32542978584232
 23
63.87598366459632
 33
0.0
 14
83.32542978584209
 24
183.8759836645963
 34
0.0
 50
90.0
100
AcDbRotatedDimension
  0
DIMENSION
  5
A86A
330
1F
100
AcDbEntity
  8
dim
  6
Continuous
 62
     7
100
AcDbDimension
  2
*D4
 10
113.525429785785
 20
189.1166856441204
 30
0.0
 11
83.32542978584228
 21
191.1166856441203
 31
0.0
 70
    32
 71
     5
 42
60.39999999988549
  3
STD01$0
100
AcDbAlignedDimension
 13
53.12542978589954
 23
154.4765513869099
 33
0.0
 14
113.525429785785
 24
154.4765335954975
 34
0.0
100
AcDbRotatedDimension
1001
ACAD
1000
DSTYLE
1002
{
1070
   271
1070
     0
1002
}
  0
DIMENSION
  5
A877
330
1F
100
AcDbEntity
  8
dim
  6
Continuous
 62
     7
100
AcDbDimension
  2
*D5
 10
18.32821896875159
 20
158.8766630254729
 30
0.0
 11
18.32821896875157
 21
123.8759836645962
 31
0.0
 70
   160
 71
     5
 42
70.00135872175339
  3
STD01$0
100
AcDbAlignedDimension
 13
83.32543122489296
 23
88.87530430371965
 33
0.0
 14
83.32543122489303
 24
158.8766630254729
 34
0.0
 50
90.0
100
AcDbRotatedDimension
1001
ACAD
1000
DSTYLE
1002
{
1070
     3
1000
<>
1070
   271
1070
     2
1002
}
  0
DIMENSION
  5
A89F
330
1F
100
AcDbEntity
  8
dim
  6
Continuous
 62
     7
100
AcDbDimension
  2
*D6
 10
22.63727557821404
 20
130.8759836646769
 30
0.0
 11
22.63727557821403
 21
123.8759836645962
 31
0.0
 70
   160
 71
     5
 42
14.00000000016142
  3
STD01$0
100
AcDbAlignedDimension
 13
35.59720499587502
 23
116.8759836645155
 33
0.0
 14
35.59720499587502
 24
130.8759836646769
 34
0.0
 50
90.0
100
AcDbRotatedDimension
  0
DIMENSION
  5
A8C7
330
1F
100
AcDbEntity
  8
dim
  6
Continuous
 62
     7
100
AcDbDimension
  2
*D7
 10
175.483482174578
 20
193.0929104531601
 30
0.0
 11
187.9834821745781
 21
195.0929104531601
 31
0.0
 70
    32
 71
     5
 42
24.99999999999988
  3
STD01$0
100
AcDbAlignedDimension
 13
200.483482174578
 23
183.875663318196
 33
0.0
 14
175.483482174578
 24
123.8759836645962
 34
0.0
100
AcDbRotatedDimension
  0
DIMENSION
  5
A8D4
330
1F
100
AcDbEntity
  8
dim
  6
Continuous
 62
     7
100
AcDbDimension
  2
*D8
 10
196.4839143979389
 20
188.878457498787
 30
0.0
 11
198.4836982862585
 21
190.878457498787
 31
0.0
 70
    32
 71
     5
 42
3.999567776638968
  3
STD01$0
100
AcDbAlignedDimension
 13
200.483482174578
 23
183.875663318196
 33
0.0
 14
196.4839143979389
 24
183.5502551937879
 34
0.0
100
AcDbRotatedDimension
  0
DIMENSION
  5
A8E3
330
1F
100
AcDbEntity
  8
dim
  6
Continuous
 62
     7
100
AcDbDimension
  2
*D9
 10
175.483482174578
 20
188.878457498787
 30
0.0
 11
168.1834821745781
 21
190.878457498787
 31
0.0
 70
    32
 71
     5
 42
1.999999999999885
  3
STD01$0
100
AcDbAlignedDimension
 13
177.483482174578
 23
158.5375116005399
 33
0.0
 14
175.483482174578
 24
123.8759836645962
 34
0.0
100
AcDbRotatedDimension
  0
DIMENSION
  5
A8F2
330
1F
100
AcDbEntity
  8
dim
  6
Continuous
 62
     7
100
AcDbDimension
  2
*D10
 10
177.483482174578
 20
188.878457498787
 30
0.0
 11
186.9836982862585
 21
190.878457498787
 31
0.0
 70
    32
 71
     5
 42
19.00043222336103
  3
STD01$0
100
AcDbAlignedDimension
 13
196.4839143979389
 23
183.5502551937879
 33
0.0
 14
177.483482174578
 24
158.5375116005399
 34
0.0
100
AcDbRotatedDimension
  0
DIMENSION
  5
A91C
330
1F
100
AcDbEntity
  8
dim
  6
Continuous
 62
     7
100
AcDbDimension
  2
*D11
 10
15.56729413056655
 20
48.89568156200666
 30
0.0
 11
13.56729413056654
 21
36.39568156200671
 31
0.0
 70
    32
 71
     5
 42
24.99999999999989
  3
STD01$0
100
AcDbAlignedDimension
 13
33.32542978584251
 23
23.89568156200675
 33
0.0
 14
57.16691703934521
 24
48.89568156200664
 34
0.0
 50
90.0
100
AcDbRotatedDimension
  0
DIMENSION
  5
A929
330
1F
100
AcDbEntity
  8
dim
  6
Continuous
 62
     7
100
AcDbDimension
  2
*D12
 10
21.88379037875437
 20
27.89568156207952
 30
0.0
 11
19.88379037875437
 21
25.89568156204314
 31
0.0
 70
    32
 71
     5
 42
4.000000000072758
  3
STD01$0
100
AcDbAlignedDimension
 13
33.32542978584251
 23
23.89568156200675
 33
0.0
 14
33.53506090302198
 24
27.89568156207951
 34
0.0
 50
90.0
100
AcDbRotatedDimension
  0
DIMENSION
  5
A938
330
1F
100
AcDbEntity
  8
dim
  6
Continuous
 62
     7
100
AcDbDimension
  2
*D13
 10
21.88379037875437
 20
46.89568156200675
 30
0.0
 11
19.88379037875438
 21
37.39568156204314
 31
0.0
 70
    32
 71
     5
 42
18.99999999992724
  3
STD01$0
100
AcDbAlignedDimension
 13
33.53506090302198
 23
27.89568156207951
 33
0.0
 14
53.32807019729035
 24
46.89568156200675
 34
0.0
 50
90.0
100
AcDbRotatedDimension
  0
DIMENSION
  5
A945
330
1F
100
AcDbEntity
  8
dim
  6
Continuous
 62
     7
100
AcDbDimension
  2
*D14
 10
21.88379037875437
 20
48.89568156200664
 30
0.0
 11
19.88379037875438
 21
56.19568156200664
 31
0.0
 70
    32
 71
     5
 42
1.999999999999885
  3
STD01$0
100
AcDbAlignedDimension
 13
53.32807019729035
 23
46.89568156200675
 33
0.0
 14
57.16691703934521
 24
48.89568156200664
 34
0.0
 50
90.0
100
AcDbRotatedDimension
  0
MTEXT
  5
A954
330
1F
100
AcDbEntity
  8
dim
  6
Continuous
 62
     7
100
AcDbMText
 10
219.761181481429
 20
83.04755286928639
 30
0.0
 40
3.0
 41
66.04009999999999
 71
     1
 72
     5
  1
駐）　１　　ポリカーボネート樹脂\P　　　２　　太陽電池　　　　　　\P　　　３　　ＬＥＤ　　　　　　　
 73
     1
 44
1.0
  0
LINE
  5
A958
330
1F
100
AcDbEntity
  8
dim
  6
Continuous
 62
     7
100
AcDbLine
 10
218.7452311349561
 20
79.5597713045181
 30
0.0
 11
265.9318633845185
 21
79.5597713045181
 31
0.0
  0
LINE
  5
A959
330
1F
100
AcDbEntity
  8
dim
  6
Continuous
 62
     7
100
AcDbLine
 10
218.7452311349561
 20
74.66758330683751
 30
0.0
 11
265.9318633845185
 21
74.66758330683751
 31
0.0
  0
LINE
  5
A95A
330
1F
100
AcDbEntity
  8
dim
  6
Continuous
 62
     7
100
AcDbLine
 10
218.7452311349561
 20
69.69031325461992
 30
0.0
 11
265.9318633845185
 21
69.69031325461992
 31
0.0
  0
CIRCLE
  5
A95C
330
1F
100
AcDbEntity
  8
dim
  6
Continuous
 62
     7
100
AcDbCircle
 10
229.4420734756695
 20
81.70693487134759
 30
0.0
 40
2.0
  0
CIRCLE
  5
A95D
330
1F
100
AcDbEntity
  8
dim
  6
Continuous
 62
     7
100
AcDbCircle
 10
229.4420734756695
 20
76.70286596107008
 30
0.0
 40
2.0
  0
CIRCLE
  5
A95E
330
1F
100
AcDbEntity
  8
dim
  6
Continuous
 62
     7
100
AcDbCircle
 10
229.4420734756695
 20
71.74785796817968
 30
0.0
 40
2.0
  0
LEADER
  5
A960
330
1F
100
AcDbEntity
  8
dim
  6
Continuous
 62
     7
100
AcDbLeader
  3
STD01
 76
     2
 10
104.3254297858429
 20
99.39981003879076
 30
0.0
 10
138.1712798799944
 20
60.25728399124454
 30
0.0
1001
ACAD
1000
DSTYLE
1002
{
1070
   147
1040
0.5
1070
    77
1070
     0
1002
}
  0
LEADER
  5
A963
330
1F
100
AcDbEntity
  8
dim
  6
Continuous
 62
     7
100
AcDbLeader
  3
STD01
 76
     2
 10
123.353683156678
 20
102.4452004401277
 30
0.0
 10
142.125509987375
 20
109.2518170425359
 30
0.0
1001
ACAD
1000
DSTYLE
1002
{
1070
   147
1040
0.5
1070
    77
1070
     0
1002
}
  0
LEADER
  5
A966
330
1F
100
AcDbEntity
  8
dim
  6
Continuous
 62
     7
100
AcDbLeader
  3
STD01
 76
     2
 10
106.4293781388641
 20
36.6248743599217
 30
0.0
 10
129.0822054098607
 20
45.79094375879639
 30
0.0
1001
ACAD
1000
DSTYLE
1002
{
1070
   147
1040
0.5
1070
    77
1070
     0
1002
}
  0
CIRCLE
  5
A967
330
1F
100
AcDbEntity
  8
dim
  6
Continuous
 62
     7
100
AcDbCircle
 10
144.125509987375
 20
109.2518170425359
 30
0.0
 40
2.0
  0
MTEXT
  5
A968
330
1F
100
AcDbEntity
  8
dim
  6
Continuous
 62
     7
100
AcDbMText
 10
143.6507297663546
 20
110.830160883025
 30
0.0
 40
3.0
 41
2.3944
 71
     1
 72
     5
  1
1
 73
     1
 44
1.0
  0
CIRCLE
  5
A96B
330
1F
100
AcDbEntity
  8
dim
  6
Continuous
 62
     7
100
AcDbCircle
 10
139.5854934423675
 20
58.84307042887144
 30
0.0
 40
2.0
  0
CIRCLE
  5
A96D
330
1F
100
AcDbEntity
  8
dim
  6
Continuous
 62
     7
100
AcDbCircle
 10
130.990481213742
 20
46.38967863862331
 30
0.0
 40
2.0
  0
MTEXT
  5
A96F
330
1F
100
AcDbEntity
  8
dim
  6
Continuous
 62
     7
100
AcDbMText
 10
139.1107132213471
 20
60.42141426936064
 30
0.0
 40
3.0
 41
2.3944
 71
     1
 72
     5
  1
2
 73
     1
 44
1.0
  0
MTEXT
  5
A970
330
1F
100
AcDbEntity
  8
dim
  6
Continuous
 62
     7
100
AcDbMText
 10
130.5157009927216
 20
47.96802247911251
 30
0.0
 40
3.0
 41
2.3944
 71
     1
 72
     5
  1
3
 73
     1
 44
1.0
  0
LWPOLYLINE
  5
A979
330
1F
100
AcDbEntity
  8
waku1
 62
     7
100
AcDbPolyline
 90
        3
 70
     0
 43
0.0
 10
5.0
 20
0.0
 10
0.0
 20
0.0
 10
0.0
 20
4.999999999999981
  0
LWPOLYLINE
  5
A97A
330
1F
100
AcDbEntity
  8
waku1
 62
     7
100
AcDbPolyline
 90
        3
 70
     0
 43
0.0
 10
297.0
 20
4.999999999999971
 10
297.0
 20
0.0
 10
292.0
 20
0.0
  0
LWPOLYLINE
  5
A97B
330
1F
100
AcDbEntity
  8
waku1
 62
     7
100
AcDbPolyline
 90
        3
 70
     0
 43
0.0
 10
292.0
 20
210.0
 10
297.0
 20
210.0
 10
297.0
 20
205.0
  0
MTEXT
  5
A985
330
1F
100
AcDbEntity
  8
dim
  6
Continuous
 62
     7
100
AcDbMText
 10
198.6843246857642
 20
42.79698490999885
 30
0.0
 40
6.0
 41
33.4513821239616
 71
     1
 72
     5
  1
セーフアイ
 73
     1
 44
1.0
  0
MTEXT
  5
A98D
330
1F
100
AcDbEntity
  8
dim
  6
Continuous
 62
     7
100
AcDbMText
 10
254.2927952443859
 20
42.89423621641367
 30
0.0
 40
6.0
 41
18.09016596985568
 71
     1
 72
     5
  1
SZY
 73
     1
 44
1.0
  0
MTEXT
  5
A993
330
1F
100
AcDbEntity
  8
dim
  6
Continuous
 62
     7
100
AcDbMText
 10
258.2673848712829
 20
26.71019861108265
 30
0.0
 40
6.0
 41
10.55172125798119
 71
     1
 72
     5
  1
B
 73
     1
 44
1.0
  0
LINE
  5
A9A0
330
1F
100
AcDbEntity
  8
01_ASM_CSYS_DTM_PLN
  6
CENTER
 62
     7
100
AcDbLine
 10
42.32542978584251
 20
129.6259836645962
 30
0.0
 11
42.32542978584251
 21
118.1259836645963
 31
0.0
  0
LINE
  5
A9A1
330
1F
100
AcDbEntity
  8
01_ASM_CSYS_DTM_PLN
  6
CENTER
 62
     7
100
AcDbLine
 10
124.3254297858425
 20
129.6259836645961
 30
0.0
 11
124.3254297858425
 21
118.1259836645961
 31
0.0
  0
DIMENSION
  5
A9A2
330
1F
100
AcDbEntity
  8
dim
  6
Continuous
 62
     7
100
AcDbDimension
  2
*D15
 10
124.3254297858425
 20
193.981683836893
 30
0.0
 11
83.32542978584251
 21
195.981683836893
 31
0.0
 70
    32
 71
     5
 42
82.0
  3
STD01$0
100
AcDbAlignedDimension
 13
42.32542978584251
 23
129.6259836645962
 33
0.0
 14
124.3254297858425
 24
129.6259836645961
 34
0.0
100
AcDbRotatedDimension
  0
DIMENSION
  5
A9C2
330
1F
100
AcDbEntity
  8
dim
  6
Continuous
 62
     7
100
AcDbDimension
  2
*D16
 10
120.8282082341725
 20
121.4610423778284
 30
0.0
 11
141.3860257647422
 21
132.8256821232528
 31
0.0
 70
   163
 71
     5
 42
8.5
  3
STD01$3
100
AcDbDiametricDimension
 15
127.8226513375123
 25
126.2909249513639
 35
0.0
 40
0.0
1001
ACAD
1000
DSTYLE
1002
{
1070
   288
1070
     1
1002
}
  0
MTEXT
  5
B0A5
330
1F
100
AcDbEntity
  8
3
100
AcDbMText
 10
231.7594112883269
 20
14.77472542243776
 30
0.0
 40
4.0
 41
54.56741751888074
 71
     1
 72
     5
  1
製造元  大塚刷毛製造株式会社
 73
     1
 44
1.0
  0
ENDSEC
  0
SECTION
  2
OBJECTS
  0
DICTIONARY
  5
C
330
0
100
AcDbDictionary
281
     1
  3
ACAD_GROUP
350
D
  3
ACAD_LAYOUT
350
1A
  3
ACAD_MLINESTYLE
350
17
  3
ACAD_PLOTSETTINGS
350
19
  3
ACAD_PLOTSTYLENAME
350
E
  3
AcadDim
350
A964
  3
AcDbVariableDictionary
350
1316
  0
DICTIONARY
  5
D
102
{ACAD_REACTORS
330
C
102
}
330
C
100
AcDbDictionary
281
     1
  0
DICTIONARY
  5
1A
102
{ACAD_REACTORS
330
C
102
}
330
C
100
AcDbDictionary
281
     1
  3
Layout1
350
1E
  3
Model
350
22
  0
DICTIONARY
  5
17
102
{ACAD_REACTORS
330
C
102
}
330
C
100
AcDbDictionary
281
     1
  3
Standard
350
18
  0
DICTIONARY
  5
19
102
{ACAD_REACTORS
330
C
102
}
330
C
100
AcDbDictionary
281
     1
  0
ACDBDICTIONARYWDFLT
  5
E
102
{ACAD_REACTORS
330
C
102
}
330
C
100
AcDbDictionary
281
     1
  3
Normal
350
F
100
AcDbDictionaryWithDefault
340
F
  0
XRECORD
  5
A964
102
{ACAD_REACTORS
330
C
102
}
330
C
100
AcDbXrecord
280
     1
 90
   990106
  3
OPEN
 60
     4
 61
     0
 62
     1
 63
     3
 64
     0
 65
     0
 66
     0
 67
     3
 68
     1
 69
     0
 70
     0
 71
     0
 72
     0
 40
0.0
170
     0
  0
DICTIONARY
  5
1316
102
{ACAD_REACTORS
330
C
102
}
330
C
100
AcDbDictionary
281
     1
  3
DIMASSOC
350
1317
  0
LAYOUT
  5
1E
102
{ACAD_REACTORS
330
1A
102
}
330
1A
100
AcDbPlotSettings
  1

  2

  4

  6

 40
0.0
 41
0.0
 42
0.0
 43
0.0
 44
0.0
 45
0.0
 46
0.0
 47
0.0
 48
0.0
 49
0.0
140
0.0
141
0.0
142
1.0
143
1.0
 70
     0
 72
     0
 73
     0
 74
     0
  7

 75
     0
147
1.0
148
0.0
149
0.0
100
AcDbLayout
  1
Layout1
 70
     0
 71
     1
 10
0.0
 20
0.0
 11
12.0
 21
9.0
 12
0.0
 22
0.0
 32
0.0
 14
1.000000000000000E+20
 24
1.000000000000000E+20
 34
1.000000000000000E+20
 15
-1.000000000000000E+20
 25
-1.000000000000000E+20
 35
-1.000000000000000E+20
146
0.0
 13
0.0
 23
0.0
 33
0.0
 16
1.0
 26
0.0
 36
0.0
 17
0.0
 27
1.0
 37
0.0
 76
     0
330
1B
  0
LAYOUT
  5
22
102
{ACAD_REACTORS
330
1A
102
}
330
1A
100
AcDbPlotSettings
  1

  2
DocuCom PDF Driver
  4
A4
  6

 40
3.174999952316284
 41
3.174999952316284
 42
3.175003051757812
 43
3.17498779296875
 44
209.9733276367187
 45
296.9683227539062
 46
-3.189999999999999
 47
-3.189999999999999
 48
0.0
 49
0.0
140
297.0
141
210.0
142
1.0
143
1.0
 70
 14500
 72
     1
 73
     1
 74
     4
  7
monochrome.ctb
 75
     0
147
1.0
148
0.0
149
0.0
100
AcDbLayout
  1
Model
 70
     0
 71
     0
 10
0.0
 20
0.0
 11
0.0
 21
0.0
 12
0.0
 22
0.0
 32
0.0
 14
0.0
 24
0.0
 34
0.0
 15
0.0
 25
0.0
 35
0.0
146
0.0
 13
0.0
 23
0.0
 33
0.0
 16
0.0
 26
0.0
 36
0.0
 17
0.0
 27
0.0
 37
0.0
 76
     0
330
1F
  0
MLINESTYLE
  5
18
102
{ACAD_REACTORS
330
17
102
}
330
17
100
AcDbMlineStyle
  2
STANDARD
 70
     0
  3

 62
   256
 51
90.0
 52
90.0
 71
     2
 49
0.5
 62
   256
  6
BYLAYER
 49
-0.5
 62
   256
  6
BYLAYER
  0
ACDBPLACEHOLDER
  5
F
102
{ACAD_REACTORS
330
E
102
}
330
E
  0
DICTIONARYVAR
  5
1317
102
{ACAD_REACTORS
330
1316
102
}
330
1316
100
DictionaryVariables
280
     0
  1
1
  0
ENDSEC
  0
EOF
