  0
SECTION
  2
HEADER
  9
$ACADVER
  1
AC1015
  9
$ACADMAINTVER
 70
    14
  9
$DWGCODEPAGE
  3
ANSI_932
  9
$INSBASE
 10
0.0
 20
0.0
 30
0.0
  9
$EXTMIN
 10
82.28045802176984
 20
63.46527204786582
 30
-0.0000000000000057
  9
$EXTMAX
 10
379.343903721012
 20
273.5101326432896
 30
0.0000000000000104
  9
$LIMMIN
 10
0.0
 20
0.0
  9
$LIMMAX
 10
594.0
 20
420.0
  9
$ORTHOMODE
 70
     0
  9
$REGENMODE
 70
     1
  9
$FILLMODE
 70
     1
  9
$QTEXTMODE
 70
     0
  9
$MIRRTEXT
 70
     1
  9
$LTSCALE
 40
10.0
  9
$ATTMODE
 70
     1
  9
$TEXTSIZE
 40
3.0
  9
$TRACEWID
 40
0.05
  9
$TEXTSTYLE
  7
STANDARD
  9
$CLAYER
  8
dim
  9
$CELTYPE
  6
ByLayer
  9
$CECOLOR
 62
   256
  9
$CELTSCALE
 40
1.0
  9
$DISPSILH
 70
     0
  9
$DIMSCALE
 40
1.0
  9
$DIMASZ
 40
3.0
  9
$DIMEXO
 40
0.5
  9
$DIMDLI
 40
4.0
  9
$DIMRND
 40
0.0
  9
$DIMDLE
 40
0.0
  9
$DIMEXE
 40
1.0
  9
$DIMTP
 40
0.0
  9
$DIMTM
 40
0.0
  9
$DIMTXT
 40
3.0
  9
$DIMCEN
 40
0.0
  9
$DIMTSZ
 40
0.0
  9
$DIMTOL
 70
     0
  9
$DIMLIM
 70
     0
  9
$DIMTIH
 70
     0
  9
$DIMTOH
 70
     0
  9
$DIMSE1
 70
     0
  9
$DIMSE2
 70
     0
  9
$DIMTAD
 70
     1
  9
$DIMZIN
 70
     9
  9
$DIMBLK
  1

  9
$DIMASO
 70
     1
  9
$DIMSHO
 70
     1
  9
$DIMPOST
  1

  9
$DIMAPOST
  1

  9
$DIMALT
 70
     0
  9
$DIMALTD
 70
     4
  9
$DIMALTF
 40
0.0394
  9
$DIMLFAC
 40
1.0
  9
$DIMTOFL
 70
     0
  9
$DIMTVP
 40
0.0
  9
$DIMTIX
 70
     0
  9
$DIMSOXD
 70
     0
  9
$DIMSAH
 70
     1
  9
$DIMBLK1
  1
OPEN
  9
$DIMBLK2
  1
OPEN
  9
$DIMSTYLE
  2
STD01
  9
$DIMCLRD
 70
     7
  9
$DIMCLRE
 70
     7
  9
$DIMCLRT
 70
     0
  9
$DIMTFAC
 40
1.0
  9
$DIMGAP
 40
0.5
  9
$DIMJUST
 70
     0
  9
$DIMSD1
 70
     0
  9
$DIMSD2
 70
     0
  9
$DIMTOLJ
 70
     1
  9
$DIMTZIN
 70
     9
  9
$DIMALTZ
 70
     0
  9
$DIMALTTZ
 70
     0
  9
$DIMUPT
 70
     0
  9
$DIMDEC
 70
     3
  9
$DIMTDEC
 70
     3
  9
$DIMALTU
 70
     8
  9
$DIMALTTD
 70
     4
  9
$DIMTXSTY
  7
STANDARD
  9
$DIMAUNIT
 70
     0
  9
$DIMADEC
 70
     3
  9
$DIMALTRND
 40
0.0
  9
$DIMAZIN
 70
     2
  9
$DIMDSEP
 70
    46
  9
$DIMATFIT
 70
     3
  9
$DIMFRAC
 70
     0
  9
$DIMLDRBLK
  1
OPEN
  9
$DIMLUNIT
 70
     2
  9
$DIMLWD
 70
    -2
  9
$DIMLWE
 70
    -2
  9
$DIMTMOVE
 70
     0
  9
$LUNITS
 70
     2
  9
$LUPREC
 70
     4
  9
$SKETCHINC
 40
0.1
  9
$FILLETRAD
 40
0.0
  9
$AUNITS
 70
     0
  9
$AUPREC
 70
     0
  9
$MENU
  1
acad
  9
$ELEVATION
 40
0.0
  9
$PELEVATION
 40
0.0
  9
$THICKNESS
 40
0.0
  9
$LIMCHECK
 70
     0
  9
$CHAMFERA
 40
0.0
  9
$CHAMFERB
 40
0.0
  9
$CHAMFERC
 40
0.0
  9
$CHAMFERD
 40
0.0
  9
$SKPOLY
 70
     0
  9
$TDCREATE
 40
2444975.375000000
  9
$TDUCREATE
 40
2444974.999999999
  9
$TDUPDATE
 40
2456150.718472234
  9
$TDUUPDATE
 40
2456150.343472234
  9
$TDINDWG
 40
0.0841737616
  9
$TDUSRTIMER
 40
0.0841714815
  9
$USRTIMER
 70
     1
  9
$ANGBASE
 50
0.0
  9
$ANGDIR
 70
     0
  9
$PDMODE
 70
     0
  9
$PDSIZE
 40
0.0
  9
$PLINEWID
 40
0.0
  9
$SPLFRAME
 70
     0
  9
$SPLINETYPE
 70
     6
  9
$SPLINESEGS
 70
     8
  9
$HANDSEED
  5
191CC
  9
$SURFTAB1
 70
     6
  9
$SURFTAB2
 70
     6
  9
$SURFTYPE
 70
     6
  9
$SURFU
 70
     6
  9
$SURFV
 70
     6
  9
$UCSBASE
  2

  9
$UCSNAME
  2

  9
$UCSORG
 10
0.0
 20
0.0
 30
0.0
  9
$UCSXDIR
 10
1.0
 20
0.0
 30
0.0
  9
$UCSYDIR
 10
0.0
 20
1.0
 30
0.0
  9
$UCSORTHOREF
  2

  9
$UCSORTHOVIEW
 70
     0
  9
$UCSORGTOP
 10
0.0
 20
0.0
 30
0.0
  9
$UCSORGBOTTOM
 10
0.0
 20
0.0
 30
0.0
  9
$UCSORGLEFT
 10
0.0
 20
0.0
 30
0.0
  9
$UCSORGRIGHT
 10
0.0
 20
0.0
 30
0.0
  9
$UCSORGFRONT
 10
0.0
 20
0.0
 30
0.0
  9
$UCSORGBACK
 10
0.0
 20
0.0
 30
0.0
  9
$PUCSBASE
  2

  9
$PUCSNAME
  2

  9
$PUCSORG
 10
0.0
 20
0.0
 30
0.0
  9
$PUCSXDIR
 10
1.0
 20
0.0
 30
0.0
  9
$PUCSYDIR
 10
0.0
 20
1.0
 30
0.0
  9
$PUCSORTHOREF
  2

  9
$PUCSORTHOVIEW
 70
     0
  9
$PUCSORGTOP
 10
0.0
 20
0.0
 30
0.0
  9
$PUCSORGBOTTOM
 10
0.0
 20
0.0
 30
0.0
  9
$PUCSORGLEFT
 10
0.0
 20
0.0
 30
0.0
  9
$PUCSORGRIGHT
 10
0.0
 20
0.0
 30
0.0
  9
$PUCSORGFRONT
 10
0.0
 20
0.0
 30
0.0
  9
$PUCSORGBACK
 10
0.0
 20
0.0
 30
0.0
  9
$USERI1
 70
     0
  9
$USERI2
 70
     0
  9
$USERI3
 70
     0
  9
$USERI4
 70
     0
  9
$USERI5
 70
     0
  9
$USERR1
 40
0.0
  9
$USERR2
 40
0.0
  9
$USERR3
 40
0.0
  9
$USERR4
 40
0.0
  9
$USERR5
 40
0.0
  9
$WORLDVIEW
 70
     1
  9
$SHADEDGE
 70
     3
  9
$SHADEDIF
 70
    70
  9
$TILEMODE
 70
     1
  9
$MAXACTVP
 70
    16
  9
$PINSBASE
 10
0.0
 20
0.0
 30
0.0
  9
$PLIMCHECK
 70
     0
  9
$PEXTMIN
 10
0.0
 20
0.0
 30
0.0
  9
$PEXTMAX
 10
0.0
 20
0.0
 30
0.0
  9
$PLIMMIN
 10
0.0
 20
0.0
  9
$PLIMMAX
 10
12.0
 20
9.0
  9
$UNITMODE
 70
     0
  9
$VISRETAIN
 70
     0
  9
$PLINEGEN
 70
     1
  9
$PSLTSCALE
 70
     1
  9
$TREEDEPTH
 70
  3020
  9
$CMLSTYLE
  2
Standard
  9
$CMLJUST
 70
     0
  9
$CMLSCALE
 40
1.0
  9
$PROXYGRAPHICS
 70
     1
  9
$MEASUREMENT
 70
     0
  9
$CELWEIGHT
370
    -1
  9
$ENDCAPS
280
     0
  9
$JOINSTYLE
280
     0
  9
$LWDISPLAY
290
     0
  9
$INSUNITS
 70
     0
  9
$HYPERLINKBASE
  1

  9
$STYLESHEET
  1
monochrome.ctb
  9
$XEDIT
290
     1
  9
$CEPSNTYPE
380
     0
  9
$PSTYLEMODE
290
     1
  9
$FINGERPRINTGUID
  2
{7E1F9735-F5C1-455F-B53A-48D08A1EECC8}
  9
$VERSIONGUID
  2
{8AE5FA40-BF35-4D9D-9462-354FF4823B49}
  9
$EXTNAMES
290
     1
  9
$PSVPSCALE
 40
0.0
  9
$OLESTARTUP
290
     0
  0
ENDSEC
  0
SECTION
  2
CLASSES
  0
CLASS
  1
ACDBDICTIONARYWDFLT
  2
AcDbDictionaryWithDefault
  3
AutoCAD 2000
 90
        0
280
     0
281
     0
  0
CLASS
  1
DIMASSOC
  2
AcDbDimAssoc
  3
"AcDbDimAssoc|Product Desc:     AcDim ARX App For Dimension|Company:          Autodesk, Inc.|WEB Address:      www.autodesk.com"
 90
    32768
280
     0
281
     0
  0
CLASS
  1
DICTIONARYVAR
  2
AcDbDictionaryVar
  3
AutoCAD 2000
 90
        0
280
     0
281
     0
  0
CLASS
  1
ACDBPLACEHOLDER
  2
AcDbPlaceHolder
  3
AutoCAD 2000
 90
        0
280
     0
281
     0
  0
CLASS
  1
LAYOUT
  2
AcDbLayout
  3
AutoCAD 2000
 90
        0
280
     0
281
     0
  0
ENDSEC
  0
SECTION
  2
TABLES
  0
TABLE
  2
VPORT
  5
8
330
0
100
AcDbSymbolTable
 70
     3
  0
VPORT
  5
191CB
330
8
100
AcDbSymbolTableRecord
100
AcDbViewportTableRecord
  2
*Active
 70
     0
 10
0.0
 20
0.0
 11
1.0
 21
1.0
 12
230.8121808713909
 22
168.4877023455777
 13
0.0
 23
0.0
 14
1.0
 24
1.0
 15
0.0
 25
0.0
 16
0.0
 26
0.0
 36
1.0
 17
0.0
 27
0.0
 37
0.0
 40
211.6564579912965
 41
1.541613316261203
 42
50.0
 43
0.0
 44
0.0
 50
0.0
 51
0.0
 71
     0
 72
   100
 73
     1
 74
     1
 75
     0
 76
     0
 77
     0
 78
     0
281
     0
 65
     1
110
0.0
120
0.0
130
0.0
111
1.0
121
-0.0000000000000977
131
0.0
112
0.0000000000000977
122
1.0
132
0.0
 79
     0
146
0.0
  0
ENDTAB
  0
TABLE
  2
LTYPE
  5
5
330
0
100
AcDbSymbolTable
 70
     9
  0
LTYPE
  5
13
330
5
100
AcDbSymbolTableRecord
100
AcDbLinetypeTableRecord
  2
ByBlock
 70
     0
  3

 72
    65
 73
     0
 40
0.0
  0
LTYPE
  5
14
330
5
100
AcDbSymbolTableRecord
100
AcDbLinetypeTableRecord
  2
ByLayer
 70
     0
  3

 72
    65
 73
     0
 40
0.0
  0
LTYPE
  5
15
330
5
100
AcDbSymbolTableRecord
100
AcDbLinetypeTableRecord
  2
CONTINUOUS
 70
     0
  3
Solid line
 72
    65
 73
     0
 40
0.0
  0
LTYPE
  5
187CE
330
5
100
AcDbSymbolTableRecord
100
AcDbLinetypeTableRecord
  2
BORDER
 70
     0
  3
Border __ __ _ __ __ _ __ __ _ __ __ _ __ __ _
 72
    65
 73
     6
 40
1.02
 49
0.36
 74
     0
 49
-0.08
 74
     0
 49
0.36
 74
     0
 49
-0.08
 74
     0
 49
0.06
 74
     0
 49
-0.08
 74
     0
  0
LTYPE
  5
187CF
330
5
100
AcDbSymbolTableRecord
100
AcDbLinetypeTableRecord
  2
CENTER
 70
     0
  3
Center ____ _ ____ _ ____ _ ____ _ ____ _ ____
 72
    65
 73
     4
 40
0.5800000000000001
 49
0.36
 74
     0
 49
-0.08
 74
     0
 49
0.06
 74
     0
 49
-0.08
 74
     0
  0
LTYPE
  5
187D0
330
5
100
AcDbSymbolTableRecord
100
AcDbLinetypeTableRecord
  2
DASHDOT
 70
     0
  3
Dash dot ____ _ ____ _ ____ _ ____ _ ____ _ ___
 72
    65
 73
     4
 40
0.5800000000000001
 49
0.36
 74
     0
 49
-0.08
 74
     0
 49
0.06
 74
     0
 49
-0.08
 74
     0
  0
LTYPE
  5
187D1
330
5
100
AcDbSymbolTableRecord
100
AcDbLinetypeTableRecord
  2
DASHED
 70
     0
  3
Dashed __ __ __ __ __ __ __ __ __ __ __ __ __ _
 72
    65
 73
     2
 40
0.3
 49
0.2
 74
     0
 49
-0.1
 74
     0
  0
LTYPE
  5
187D2
330
5
100
AcDbSymbolTableRecord
100
AcDbLinetypeTableRecord
  2
DIVIDE
 70
     0
  3
Divide ______  __  __  ______  __  __  ______
 72
    65
 73
     6
 40
0.72
 49
0.36
 74
     0
 49
-0.08
 74
     0
 49
0.06
 74
     0
 49
-0.08
 74
     0
 49
0.06
 74
     0
 49
-0.08
 74
     0
  0
LTYPE
  5
187D3
330
5
100
AcDbSymbolTableRecord
100
AcDbLinetypeTableRecord
  2
DOT
 70
     0
  3
Dot __ __ __ __ __ __ __ __ __ __ __ __ __ __
 72
    65
 73
     2
 40
0.3
 49
0.2
 74
     0
 49
-0.1
 74
     0
  0
LTYPE
  5
187D4
330
5
100
AcDbSymbolTableRecord
100
AcDbLinetypeTableRecord
  2
HIDDEN
 70
     0
  3
Hidden __ __ __ __ __ __ __ __ __ __ __ __ __ _
 72
    65
 73
     2
 40
0.3
 49
0.2
 74
     0
 49
-0.1
 74
     0
  0
LTYPE
  5
187D5
330
5
100
AcDbSymbolTableRecord
100
AcDbLinetypeTableRecord
  2
PHANTOM
 70
     0
  3
Phantom ______  __  __  ______  __  __  ______
 72
    65
 73
     6
 40
0.72
 49
0.36
 74
     0
 49
-0.08
 74
     0
 49
0.06
 74
     0
 49
-0.08
 74
     0
 49
0.06
 74
     0
 49
-0.08
 74
     0
  0
ENDTAB
  0
TABLE
  2
LAYER
  5
2
330
0
100
AcDbSymbolTable
 70
     9
  0
LAYER
  5
10
330
2
100
AcDbSymbolTableRecord
100
AcDbLayerTableRecord
  2
0
 70
     0
 62
     7
  6
CONTINUOUS
370
    -3
390
F
  0
LAYER
  5
6C11
330
2
100
AcDbSymbolTableRecord
100
AcDbLayerTableRecord
  2
DEFPOINTS
 70
     0
 62
     7
  6
CONTINUOUS
290
     0
370
    -3
390
F
  0
LAYER
  5
6C12
330
2
100
AcDbSymbolTableRecord
100
AcDbLayerTableRecord
  2
dim
 70
     0
 62
     7
  6
CONTINUOUS
370
    -3
390
F
  0
LAYER
  5
6C13
330
2
100
AcDbSymbolTableRecord
100
AcDbLayerTableRecord
  2
pnt
 70
     0
 62
     1
  6
CONTINUOUS
290
     0
370
    -3
390
F
  0
LAYER
  5
118BC
330
2
100
AcDbSymbolTableRecord
100
AcDbLayerTableRecord
  2
3
 70
     0
 62
     7
  6
CONTINUOUS
370
    -3
390
F
  0
LAYER
  5
187D6
330
2
100
AcDbSymbolTableRecord
100
AcDbLayerTableRecord
  2
cent
 70
     0
 62
     2
  6
CENTER
370
    -3
390
F
  0
LAYER
  5
18976
330
2
100
AcDbSymbolTableRecord
100
AcDbLayerTableRecord
  2
DEFAULT_2
 70
     0
 62
     8
  6
HIDDEN
370
    -3
390
F
  0
LAYER
  5
18977
330
2
100
AcDbSymbolTableRecord
100
AcDbLayerTableRecord
  2
01_ASM_CSYS_DTM_PLN
 70
     0
 62
     7
  6
CONTINUOUS
370
    -3
390
F
  0
LAYER
  5
18978
330
2
100
AcDbSymbolTableRecord
100
AcDbLayerTableRecord
  2
waku1
 70
     0
 62
     7
  6
CONTINUOUS
290
     0
370
    -3
390
F
  0
ENDTAB
  0
TABLE
  2
STYLE
  5
3
330
0
100
AcDbSymbolTable
 70
     2
  0
STYLE
  5
11
330
3
100
AcDbSymbolTableRecord
100
AcDbTextStyleTableRecord
  2
STANDARD
 70
     0
 40
0.0
 41
1.0
 50
0.0
 71
     0
 42
3.0
  3
txt.shx
  4
bigfont.shx
  0
STYLE
  5
187D7
330
3
100
AcDbSymbolTableRecord
100
AcDbTextStyleTableRecord
  2

 70
     1
 40
0.0
 41
1.0
 50
0.0
 71
     0
 42
2.5
  3
ltypeshp.shx
  4

  0
ENDTAB
  0
TABLE
  2
VIEW
  5
6
330
0
100
AcDbSymbolTable
 70
     0
  0
ENDTAB
  0
TABLE
  2
UCS
  5
7
330
0
100
AcDbSymbolTable
 70
     0
  0
ENDTAB
  0
TABLE
  2
APPID
  5
9
330
0
100
AcDbSymbolTable
 70
     5
  0
APPID
  5
12
330
9
100
AcDbSymbolTableRecord
100
AcDbRegAppTableRecord
  2
ACAD
 70
     0
  0
APPID
  5
6C2E
330
9
100
AcDbSymbolTableRecord
100
AcDbRegAppTableRecord
  2
CONTENTTABDATA
 70
     0
  0
APPID
  5
6C2F
330
9
100
AcDbSymbolTableRecord
100
AcDbRegAppTableRecord
  2
CONTENTCURRENTTAB
 70
     0
  0
APPID
  5
6C30
330
9
100
AcDbSymbolTableRecord
100
AcDbRegAppTableRecord
  2
CONTENTBLOCKICON
 70
     0
  0
APPID
  5
6C31
330
9
100
AcDbSymbolTableRecord
100
AcDbRegAppTableRecord
  2
CONTENTBLOCKDESCRIPTION
 70
     0
  0
ENDTAB
  0
TABLE
  2
DIMSTYLE
  5
A
330
0
100
AcDbSymbolTable
 70
    25
100
AcDbDimStyleTable
 71
     2
340
6C16
340
4B
  0
DIMSTYLE
105
4B
330
A
100
AcDbSymbolTableRecord
100
AcDbDimStyleTableRecord
  2
STANDARD
 70
     0
 41
5.0
 42
3.712499999999999
 43
22.572
 44
10.692
140
6.712332589299999
141
5.346
279
     2
340
11
  0
DIMSTYLE
105
6C16
102
{ACAD_REACTORS
330
11D7C
330
11D82
102
}
330
A
100
AcDbSymbolTableRecord
100
AcDbDimStyleTableRecord
  2
STD01
 70
     0
 41
3.0
 42
0.5
 43
4.0
 44
1.0
 73
     0
 74
     0
 77
     1
 78
     9
 79
     2
140
3.0
141
0.0
143
0.0394
147
0.5
171
     4
173
     1
176
     7
177
     7
179
     3
271
     3
272
     3
273
     8
274
     4
284
     9
340
11
341
6C05
343
6C05
344
6C05
  0
DIMSTYLE
105
6C26
102
{ACAD_REACTORS
330
11AF9
330
11AFC
330
11D79
330
11D85
330
11DB5
330
11DB2
102
}
330
A
100
AcDbSymbolTableRecord
100
AcDbDimStyleTableRecord
  2
STD01$0
 70
     0
 41
3.0
 42
0.5
 43
4.0
 44
1.0
 73
     0
 74
     0
 77
     1
 78
     9
 79
     2
140
3.0
141
0.0
143
0.0394
147
0.5
171
     4
172
     1
173
     1
176
     7
177
     7
179
     3
271
     3
272
     3
273
     8
274
     4
284
     9
340
11
341
6C05
343
6C05
344
6C05
  0
DIMSTYLE
105
187D8
330
A
100
AcDbSymbolTableRecord
100
AcDbDimStyleTableRecord
  2
STD02
 70
     0
 40
0.5
 41
3.0
 42
0.5
 43
4.0
 44
1.0
 73
     0
 74
     0
 77
     1
 78
     9
 79
     2
140
3.0
141
0.0
143
0.0394
147
0.5
171
     4
173
     1
176
   256
177
   256
179
     3
271
     3
272
     3
273
     8
274
     4
284
     9
340
11
341
6C05
343
6C05
344
6C05
  0
DIMSTYLE
105
187D9
330
A
100
AcDbSymbolTableRecord
100
AcDbDimStyleTableRecord
  2
STD05
 70
     0
 40
0.2
 41
3.0
 42
0.5
 43
4.0
 44
1.0
 73
     0
 74
     0
 77
     1
 78
     9
 79
     2
140
3.0
141
0.0
143
0.0394
147
0.5
171
     4
173
     1
176
   256
177
   256
179
     3
271
     3
272
     3
273
     8
274
     4
284
     9
340
11
341
6C05
343
6C05
344
6C05
  0
DIMSTYLE
105
187DA
330
A
100
AcDbSymbolTableRecord
100
AcDbDimStyleTableRecord
  2
STD10
 70
     0
 40
0.1
 41
3.0
 42
0.5
 43
4.0
 44
1.0
 73
     0
 74
     0
 77
     1
 78
     9
 79
     2
140
3.0
141
0.0
143
0.0394
147
0.5
171
     4
173
     1
176
   256
177
   256
179
     3
271
     3
272
     3
273
     8
274
     4
284
     9
340
11
341
6C05
343
6C05
344
6C05
  0
DIMSTYLE
105
187DB
330
A
100
AcDbSymbolTableRecord
100
AcDbDimStyleTableRecord
  2
STD01$4
 70
     0
 41
3.0
 42
0.5
 43
4.0
 44
1.0
 73
     0
 77
     1
 78
     9
 79
     2
140
3.0
141
0.0
143
0.0394
147
0.5
171
     4
173
     1
176
   256
177
   256
179
     3
271
     3
272
     3
273
     8
274
     4
284
     9
340
11
341
6C05
343
6C05
344
6C05
  0
DIMSTYLE
105
187DC
330
A
100
AcDbSymbolTableRecord
100
AcDbDimStyleTableRecord
  2
STD01$3
 70
     0
 41
3.0
 42
0.5
 43
4.0
 44
1.0
 73
     0
 77
     1
 78
     9
 79
     2
140
3.0
141
0.0
143
0.0394
147
0.5
171
     4
173
     1
176
   256
177
   256
179
     3
271
     3
272
     3
273
     8
274
     4
284
     9
340
11
341
6C05
343
6C05
344
6C05
  0
DIMSTYLE
105
187DD
330
A
100
AcDbSymbolTableRecord
100
AcDbDimStyleTableRecord
  2
STD01$6
 70
     0
 41
3.0
 42
0.5
 43
4.0
 44
1.0
 73
     0
 74
     0
 78
     9
 79
     2
140
3.0
141
0.0
143
0.0394
147
0.5
171
     4
173
     1
176
   256
177
   256
179
     3
271
     3
272
     3
273
     8
274
     4
284
     9
340
11
341
6C05
343
6C05
344
6C05
  0
DIMSTYLE
105
187DE
330
A
100
AcDbSymbolTableRecord
100
AcDbDimStyleTableRecord
  2
STD02$4
 70
     0
 40
0.5
 41
3.0
 42
0.5
 43
4.0
 44
1.0
 73
     0
 77
     1
 78
     9
 79
     2
140
3.0
141
0.0
143
0.0394
147
0.5
171
     4
173
     1
176
   256
177
   256
179
     3
271
     3
272
     3
273
     8
274
     4
284
     9
340
11
341
6C05
343
6C05
344
6C05
  0
DIMSTYLE
105
187DF
330
A
100
AcDbSymbolTableRecord
100
AcDbDimStyleTableRecord
  2
STD02$3
 70
     0
 40
0.5
 41
3.0
 42
0.5
 43
4.0
 44
1.0
 73
     0
 77
     1
 78
     9
 79
     2
140
3.0
141
0.0
143
0.0394
147
0.5
171
     4
173
     1
176
   256
177
   256
179
     3
271
     3
272
     3
273
     8
274
     4
284
     9
340
11
341
6C05
343
6C05
344
6C05
  0
DIMSTYLE
105
187E0
330
A
100
AcDbSymbolTableRecord
100
AcDbDimStyleTableRecord
  2
STD02$6
 70
     0
 40
0.5
 41
3.0
 42
0.5
 43
4.0
 44
1.0
 73
     0
 74
     0
 78
     9
 79
     2
140
3.0
141
0.0
143
0.0394
147
0.5
171
     4
173
     1
176
   256
177
   256
179
     3
271
     3
272
     3
273
     8
274
     4
284
     9
340
11
341
6C05
343
6C05
344
6C05
  0
DIMSTYLE
105
187E1
330
A
100
AcDbSymbolTableRecord
100
AcDbDimStyleTableRecord
  2
STD05$4
 70
     0
 40
0.2
 41
3.0
 42
0.5
 43
4.0
 44
1.0
 73
     0
 77
     1
 78
     9
 79
     2
140
3.0
141
0.0
143
0.0394
147
0.5
171
     4
173
     1
176
   256
177
   256
179
     3
271
     3
272
     3
273
     8
274
     4
284
     9
340
11
341
6C05
343
6C05
344
6C05
  0
DIMSTYLE
105
187E2
330
A
100
AcDbSymbolTableRecord
100
AcDbDimStyleTableRecord
  2
STD05$3
 70
     0
 40
0.2
 41
3.0
 42
0.5
 43
4.0
 44
1.0
 73
     0
 77
     1
 78
     9
 79
     2
140
3.0
141
0.0
143
0.0394
147
0.5
171
     4
173
     1
176
   256
177
   256
179
     3
271
     3
272
     3
273
     8
274
     4
284
     9
340
11
341
6C05
343
6C05
344
6C05
  0
DIMSTYLE
105
187E3
330
A
100
AcDbSymbolTableRecord
100
AcDbDimStyleTableRecord
  2
STD05$6
 70
     0
 40
0.2
 41
3.0
 42
0.5
 43
4.0
 44
1.0
 73
     0
 74
     0
 78
     9
 79
     2
140
3.0
141
0.0
143
0.0394
147
0.5
171
     4
173
     1
176
   256
177
   256
179
     3
271
     3
272
     3
273
     8
274
     4
284
     9
340
11
341
6C05
343
6C05
344
6C05
  0
DIMSTYLE
105
187E4
330
A
100
AcDbSymbolTableRecord
100
AcDbDimStyleTableRecord
  2
STD10$4
 70
     0
 40
0.1
 41
3.0
 42
0.5
 43
4.0
 44
1.0
 73
     0
 77
     1
 78
     9
 79
     2
140
3.0
141
0.0
143
0.0394
147
0.5
171
     4
173
     1
176
   256
177
   256
179
     3
271
     3
272
     3
273
     8
274
     4
284
     9
340
11
341
6C05
343
6C05
344
6C05
  0
DIMSTYLE
105
187E5
330
A
100
AcDbSymbolTableRecord
100
AcDbDimStyleTableRecord
  2
STD10$3
 70
     0
 40
0.1
 41
3.0
 42
0.5
 43
4.0
 44
1.0
 73
     0
 77
     1
 78
     9
 79
     2
140
3.0
141
0.0
143
0.0394
147
0.5
171
     4
173
     1
176
   256
177
   256
179
     3
271
     3
272
     3
273
     8
274
     4
284
     9
340
11
341
6C05
343
6C05
344
6C05
  0
DIMSTYLE
105
187E6
330
A
100
AcDbSymbolTableRecord
100
AcDbDimStyleTableRecord
  2
STD10$6
 70
     0
 40
0.1
 41
3.0
 42
0.5
 43
4.0
 44
1.0
 73
     0
 74
     0
 78
     9
 79
     2
140
3.0
141
0.0
143
0.0394
147
0.5
171
     4
173
     1
176
   256
177
   256
179
     3
271
     3
272
     3
273
     8
274
     4
284
     9
340
11
341
6C05
343
6C05
344
6C05
  0
DIMSTYLE
105
187E7
330
A
100
AcDbSymbolTableRecord
100
AcDbDimStyleTableRecord
  2
STD01$2
 70
     0
 41
3.0
 42
0.5
 43
4.0
 44
1.0
 73
     0
 74
     0
 77
     1
 78
     9
 79
     2
140
3.0
141
0.0
143
0.0394
147
0.5
171
     4
172
     1
173
     1
176
   256
177
   256
179
     3
271
     3
272
     3
273
     8
274
     4
284
     9
340
11
341
6C05
343
6C05
344
6C05
  0
DIMSTYLE
105
187E8
330
A
100
AcDbSymbolTableRecord
100
AcDbDimStyleTableRecord
  2
STD02$0
 70
     0
 40
0.5
 41
3.0
 42
0.5
 43
4.0
 44
1.0
 73
     0
 74
     0
 77
     1
 78
     9
 79
     2
140
3.0
141
0.0
143
0.0394
147
0.5
171
     4
172
     1
173
     1
176
   256
177
   256
179
     3
271
     3
272
     3
273
     8
274
     4
284
     9
340
11
341
6C05
343
6C05
344
6C05
  0
DIMSTYLE
105
187E9
330
A
100
AcDbSymbolTableRecord
100
AcDbDimStyleTableRecord
  2
STD02$2
 70
     0
 40
0.5
 41
3.0
 42
0.5
 43
4.0
 44
1.0
 73
     0
 74
     0
 77
     1
 78
     9
 79
     2
140
3.0
141
0.0
143
0.0394
147
0.5
171
     4
172
     1
173
     1
176
   256
177
   256
179
     3
271
     3
272
     3
273
     8
274
     4
284
     9
340
11
341
6C05
343
6C05
344
6C05
  0
DIMSTYLE
105
187EA
330
A
100
AcDbSymbolTableRecord
100
AcDbDimStyleTableRecord
  2
STD05$0
 70
     0
 40
0.2
 41
3.0
 42
0.5
 43
4.0
 44
1.0
 73
     0
 74
     0
 77
     1
 78
     9
 79
     2
140
3.0
141
0.0
143
0.0394
147
0.5
171
     4
172
     1
173
     1
176
   256
177
   256
179
     3
271
     3
272
     3
273
     8
274
     4
284
     9
340
11
341
6C05
343
6C05
344
6C05
  0
DIMSTYLE
105
187EB
330
A
100
AcDbSymbolTableRecord
100
AcDbDimStyleTableRecord
  2
STD05$2
 70
     0
 40
0.2
 41
3.0
 42
0.5
 43
4.0
 44
1.0
 73
     0
 74
     0
 77
     1
 78
     9
 79
     2
140
3.0
141
0.0
143
0.0394
147
0.5
171
     4
172
     1
173
     1
176
   256
177
   256
179
     3
271
     3
272
     3
273
     8
274
     4
284
     9
340
11
341
6C05
343
6C05
344
6C05
  0
DIMSTYLE
105
187EC
330
A
100
AcDbSymbolTableRecord
100
AcDbDimStyleTableRecord
  2
STD10$2
 70
     0
 40
0.1
 41
3.0
 42
0.5
 43
4.0
 44
1.0
 73
     0
 74
     0
 77
     1
 78
     9
 79
     2
140
3.0
141
0.0
143
0.0394
147
0.5
171
     4
172
     1
173
     1
176
   256
177
   256
179
     3
271
     3
272
     3
273
     8
274
     4
284
     9
340
11
341
6C05
343
6C05
344
6C05
  0
DIMSTYLE
105
187ED
330
A
100
AcDbSymbolTableRecord
100
AcDbDimStyleTableRecord
  2
STD10$0
 70
     0
 40
0.1
 41
3.0
 42
0.5
 43
4.0
 44
1.0
 73
     0
 74
     0
 77
     1
 78
     9
 79
     2
140
3.0
141
0.0
143
0.0394
147
0.5
171
     4
172
     1
173
     1
176
   256
177
   256
179
     3
271
     3
272
     3
273
     8
274
     4
284
     9
340
11
341
6C05
343
6C05
344
6C05
  0
ENDTAB
  0
TABLE
  2
BLOCK_RECORD
  5
1
330
0
100
AcDbSymbolTable
 70
     9
  0
BLOCK_RECORD
  5
20
330
1
100
AcDbSymbolTableRecord
100
AcDbBlockTableRecord
  2
*Model_Space
340
23
  0
BLOCK_RECORD
  5
11857
330
1
100
AcDbSymbolTableRecord
100
AcDbBlockTableRecord
  2
*Paper_Space
340
11858
  0
BLOCK_RECORD
  5
6C05
330
1
100
AcDbSymbolTableRecord
100
AcDbBlockTableRecord
  2
_OPEN
340
0
102
{BLKREFS
331
187F7
331
187F8
331
18800
331
18801
331
18809
331
1880A
331
18812
331
18813
331
1881B
331
1881C
331
18824
331
18825
102
}
  0
BLOCK_RECORD
  5
6C0B
330
1
100
AcDbSymbolTableRecord
100
AcDbBlockTableRecord
  2
aclt
340
0
102
{BLKREFS
331
6C37
331
187EF
102
}
  0
BLOCK_RECORD
  5
11D2B
330
1
100
AcDbSymbolTableRecord
100
AcDbBlockTableRecord
  2
*D2
340
0
  0
BLOCK_RECORD
  5
11D37
330
1
100
AcDbSymbolTableRecord
100
AcDbBlockTableRecord
  2
*D3
340
0
  0
BLOCK_RECORD
  5
11D88
330
1
100
AcDbSymbolTableRecord
100
AcDbBlockTableRecord
  2
*D4
340
0
  0
BLOCK_RECORD
  5
11D94
330
1
100
AcDbSymbolTableRecord
100
AcDbBlockTableRecord
  2
*D5
340
0
  0
BLOCK_RECORD
  5
11DB8
330
1
100
AcDbSymbolTableRecord
100
AcDbBlockTableRecord
  2
*D6
340
0
  0
BLOCK_RECORD
  5
11DC4
330
1
100
AcDbSymbolTableRecord
100
AcDbBlockTableRecord
  2
*D7
340
0
  0
BLOCK_RECORD
  5
187EE
330
1
100
AcDbSymbolTableRecord
100
AcDbBlockTableRecord
  2
lt1_1
340
0
102
{BLKREFS
331
187F3
102
}
  0
ENDTAB
  0
ENDSEC
  0
SECTION
  2
BLOCKS
  0
BLOCK
  5
51
330
20
100
AcDbEntity
  8
0
100
AcDbBlockBegin
  2
*Model_Space
 70
     0
 10
0.0
 20
0.0
 30
0.0
  3
*Model_Space
  1

  0
ENDBLK
  5
52
330
20
100
AcDbEntity
  8
0
100
AcDbBlockEnd
  0
BLOCK
  5
11859
330
11857
100
AcDbEntity
 67
     1
  8
0
100
AcDbBlockBegin
  2
*Paper_Space
 70
     0
 10
0.0
 20
0.0
 30
0.0
  3
*Paper_Space
  1

  0
ENDBLK
  5
1185A
330
11857
100
AcDbEntity
 67
     1
  8
0
100
AcDbBlockEnd
  0
BLOCK
  5
6C06
330
6C05
100
AcDbEntity
  8
0
100
AcDbBlockBegin
  2
_OPEN
 70
     0
 10
0.0
 20
0.0
 30
0.0
  3
_OPEN
  1

  0
LINE
  5
6C07
330
6C05
100
AcDbEntity
  8
0
  6
ByBlock
 62
     0
100
AcDbLine
 10
-1.0
 20
0.1666666666666666
 30
0.0
 11
0.0
 21
0.0
 31
0.0
  0
LINE
  5
6C08
330
6C05
100
AcDbEntity
  8
0
  6
ByBlock
 62
     0
100
AcDbLine
 10
0.0
 20
0.0
 30
0.0
 11
-1.0
 21
-0.1666666666666666
 31
0.0
  0
LINE
  5
6C09
330
6C05
100
AcDbEntity
  8
0
  6
ByBlock
 62
     0
100
AcDbLine
 10
0.0
 20
0.0
 30
0.0
 11
-1.0
 21
0.0
 31
0.0
  0
ENDBLK
  5
6C0A
330
6C05
100
AcDbEntity
  8
0
100
AcDbBlockEnd
  0
BLOCK
  5
6C0C
330
6C0B
100
AcDbEntity
  8
0
100
AcDbBlockBegin
  2
aclt
 70
     0
 10
0.0
 20
0.0
 30
0.0
  3
aclt
  1

  0
ENDBLK
  5
6C0D
330
6C0B
100
AcDbEntity
  8
0
100
AcDbBlockEnd
  0
BLOCK
  5
11D35
330
11D2B
100
AcDbEntity
  8
0
100
AcDbBlockBegin
  2
*D2
 70
     1
 10
0.0
 20
0.0
 30
0.0
  3
*D2
  1

  0
LINE
  5
187F4
330
11D2B
100
AcDbEntity
  8
dim
 62
     7
370
    -2
100
AcDbLine
 10
125.8526340398999
 20
97.4756552345948
 30
0.0
 11
121.1352799670944
 21
97.4756552345948
 31
0.0
  0
LINE
  5
187F5
330
11D2B
100
AcDbEntity
  8
dim
 62
     7
370
    -2
100
AcDbLine
 10
140.1777116611999
 20
114.4756552345947
 30
0.0
 11
121.1352799670944
 21
114.4756552345947
 31
0.0
  0
LINE
  5
187F6
330
11D2B
100
AcDbEntity
  8
dim
 62
     7
370
    -2
100
AcDbLine
 10
122.1352799670944
 20
100.4756552345948
 30
0.0
 11
122.1352799670944
 21
111.4756552345947
 31
0.0
  0
INSERT
  5
187F7
330
11D2B
100
AcDbEntity
  8
dim
 62
     7
370
    -2
100
AcDbBlockReference
  2
_OPEN
 10
122.1352799670944
 20
97.4756552345948
 30
0.0
 41
3.0
 42
3.0
 43
3.0
 50
270.0
  0
INSERT
  5
187F8
330
11D2B
100
AcDbEntity
  8
dim
 62
     7
370
    -2
100
AcDbBlockReference
  2
_OPEN
 10
122.1352799670944
 20
114.4756552345947
 30
0.0
 41
3.0
 42
3.0
 43
3.0
 50
90.0
  0
MTEXT
  5
187F9
330
11D2B
100
AcDbEntity
  8
dim
 62
     0
100
AcDbMText
 10
120.1352799670942
 20
105.9756552345948
 30
0.0
 40
3.0
 41
0.0
 71
     5
 72
     1
  1
\A1;17
 11
0.0000000000000001
 21
1.0
 31
0.0
 73
     1
 44
1.0
  0
POINT
  5
187FA
330
11D2B
100
AcDbEntity
  8
DEFPOINTS
 62
     0
100
AcDbPoint
 10
126.3526340399
 20
97.4756552345948
 30
0.0
  0
POINT
  5
187FB
330
11D2B
100
AcDbEntity
  8
DEFPOINTS
 62
     0
100
AcDbPoint
 10
140.6777116611999
 20
114.4756552345947
 30
0.0
  0
POINT
  5
187FC
330
11D2B
100
AcDbEntity
  8
DEFPOINTS
 62
     0
100
AcDbPoint
 10
122.1352799670944
 20
114.4756552345947
 30
0.0
  0
ENDBLK
  5
11D36
330
11D2B
100
AcDbEntity
  8
0
100
AcDbBlockEnd
  0
BLOCK
  5
11D41
330
11D37
100
AcDbEntity
  8
0
100
AcDbBlockBegin
  2
*D3
 70
     1
 10
0.0
 20
0.0
 30
0.0
  3
*D3
  1

  0
LINE
  5
187FD
330
11D37
100
AcDbEntity
  8
dim
 62
     7
370
    -2
100
AcDbLine
 10
129.3526340399
 20
96.97565523459481
 30
0.0
 11
129.3526340399
 21
88.16013335505928
 31
0.0
  0
LINE
  5
187FE
330
11D37
100
AcDbEntity
  8
dim
 62
     7
370
    -2
100
AcDbLine
 10
229.3526340399
 20
96.97565523459481
 30
0.0
 11
229.3526340399
 21
88.16013335505928
 31
0.0
  0
LINE
  5
187FF
330
11D37
100
AcDbEntity
  8
dim
 62
     7
370
    -2
100
AcDbLine
 10
132.3526340399
 20
89.16013335505928
 30
0.0
 11
226.3526340399001
 21
89.16013335505928
 31
0.0
  0
INSERT
  5
18800
330
11D37
100
AcDbEntity
  8
dim
 62
     7
370
    -2
100
AcDbBlockReference
  2
_OPEN
 10
129.3526340399
 20
89.16013335505928
 30
0.0
 41
3.0
 42
3.0
 43
3.0
 50
180.0
  0
INSERT
  5
18801
330
11D37
100
AcDbEntity
  8
dim
 62
     7
370
    -2
100
AcDbBlockReference
  2
_OPEN
 10
229.3526340399
 20
89.16013335505928
 30
0.0
 41
3.0
 42
3.0
 43
3.0
  0
MTEXT
  5
18802
330
11D37
100
AcDbEntity
  8
dim
 62
     0
100
AcDbMText
 10
179.3526340399
 20
91.16013335505929
 30
0.0
 40
3.0
 41
0.0
 71
     5
 72
     1
  1
\A1;100
 73
     1
 44
1.0
  0
POINT
  5
18803
330
11D37
100
AcDbEntity
  8
DEFPOINTS
 62
     0
100
AcDbPoint
 10
129.3526340399
 20
97.4756552345948
 30
0.0
  0
POINT
  5
18804
330
11D37
100
AcDbEntity
  8
DEFPOINTS
 62
     0
100
AcDbPoint
 10
229.3526340399
 20
97.4756552345948
 30
0.0
  0
POINT
  5
18805
330
11D37
100
AcDbEntity
  8
DEFPOINTS
 62
     0
100
AcDbPoint
 10
229.3526340399
 20
89.16013335505928
 30
0.0
  0
ENDBLK
  5
11D42
330
11D37
100
AcDbEntity
  8
0
100
AcDbBlockEnd
  0
BLOCK
  5
11D92
330
11D88
100
AcDbEntity
  8
0
100
AcDbBlockBegin
  2
*D4
 70
     1
 10
0.0
 20
0.0
 30
0.0
  3
*D4
  1

  0
LINE
  5
18806
330
11D88
100
AcDbEntity
  8
dim
 62
     7
370
    -2
100
AcDbLine
 10
131.8412181342
 20
141.8772599750999
 30
0.0
 11
118.6507386201079
 21
141.8772599750999
 31
0.0
  0
LINE
  5
18807
330
11D88
100
AcDbEntity
  8
dim
 62
     7
370
    -2
100
AcDbLine
 10
131.8412181342
 20
241.8772599750999
 30
0.0
 11
118.6507386201083
 21
241.8772599750999
 31
0.0
  0
LINE
  5
18808
330
11D88
100
AcDbEntity
  8
dim
 62
     7
370
    -2
100
AcDbLine
 10
119.6507386201079
 20
144.8772599750999
 30
0.0
 11
119.6507386201083
 21
238.8772599750999
 31
0.0
  0
INSERT
  5
18809
330
11D88
100
AcDbEntity
  8
dim
 62
     7
370
    -2
100
AcDbBlockReference
  2
_OPEN
 10
119.6507386201079
 20
141.8772599750999
 30
0.0
 41
3.0
 42
3.0
 43
3.0
 50
270.0
  0
INSERT
  5
1880A
330
11D88
100
AcDbEntity
  8
dim
 62
     7
370
    -2
100
AcDbBlockReference
  2
_OPEN
 10
119.6507386201083
 20
241.8772599750999
 30
0.0
 41
3.0
 42
3.0
 43
3.0
 50
90.0
  0
MTEXT
  5
1880B
330
11D88
100
AcDbEntity
  8
dim
 62
     0
100
AcDbMText
 10
117.6507386201079
 20
191.8772599750999
 30
0.0
 40
3.0
 41
0.0
 71
     5
 72
     1
  1
\A1;100
 11
0.0000000000000001
 21
1.0
 31
0.0
 73
     1
 44
1.0
  0
POINT
  5
1880C
330
11D88
100
AcDbEntity
  8
DEFPOINTS
 62
     0
100
AcDbPoint
 10
132.3412181342
 20
141.8772599750999
 30
0.0
  0
POINT
  5
1880D
330
11D88
100
AcDbEntity
  8
DEFPOINTS
 62
     0
100
AcDbPoint
 10
132.3412181342
 20
241.8772599750999
 30
0.0
  0
POINT
  5
1880E
330
11D88
100
AcDbEntity
  8
DEFPOINTS
 62
     0
100
AcDbPoint
 10
119.6507386201083
 20
241.8772599750999
 30
0.0
  0
ENDBLK
  5
11D93
330
11D88
100
AcDbEntity
  8
0
100
AcDbBlockEnd
  0
BLOCK
  5
11D9E
330
11D94
100
AcDbEntity
  8
0
100
AcDbBlockBegin
  2
*D5
 70
     1
 10
0.0
 20
0.0
 30
0.0
  3
*D5
  1

  0
LINE
  5
1880F
330
11D94
100
AcDbEntity
  8
dim
 62
     7
370
    -2
100
AcDbLine
 10
129.3526340399
 20
239.3886758808999
 30
0.0
 11
129.3526340399
 21
251.4491006792468
 31
0.0
  0
LINE
  5
18810
330
11D94
100
AcDbEntity
  8
dim
 62
     7
370
    -2
100
AcDbLine
 10
229.3526340399
 20
239.3886758808999
 30
0.0
 11
229.3526340399
 21
251.4491006792468
 31
0.0
  0
LINE
  5
18811
330
11D94
100
AcDbEntity
  8
dim
 62
     7
370
    -2
100
AcDbLine
 10
132.3526340399
 20
250.4491006792469
 30
0.0
 11
226.3526340399001
 21
250.4491006792469
 31
0.0
  0
INSERT
  5
18812
330
11D94
100
AcDbEntity
  8
dim
 62
     7
370
    -2
100
AcDbBlockReference
  2
_OPEN
 10
129.3526340399
 20
250.4491006792469
 30
0.0
 41
3.0
 42
3.0
 43
3.0
 50
180.0
  0
INSERT
  5
18813
330
11D94
100
AcDbEntity
  8
dim
 62
     7
370
    -2
100
AcDbBlockReference
  2
_OPEN
 10
229.3526340399
 20
250.4491006792469
 30
0.0
 41
3.0
 42
3.0
 43
3.0
  0
MTEXT
  5
18814
330
11D94
100
AcDbEntity
  8
dim
 62
     0
100
AcDbMText
 10
179.3526340399
 20
252.4491006792469
 30
0.0
 40
3.0
 41
0.0
 71
     5
 72
     1
  1
\A1;100
 73
     1
 44
1.0
  0
POINT
  5
18815
330
11D94
100
AcDbEntity
  8
DEFPOINTS
 62
     0
100
AcDbPoint
 10
129.3526340399
 20
238.8886758808999
 30
0.0
  0
POINT
  5
18816
330
11D94
100
AcDbEntity
  8
DEFPOINTS
 62
     0
100
AcDbPoint
 10
229.3526340399
 20
238.8886758808999
 30
0.0
  0
POINT
  5
18817
330
11D94
100
AcDbEntity
  8
DEFPOINTS
 62
     0
100
AcDbPoint
 10
229.3526340399
 20
250.4491006792469
 30
0.0
  0
ENDBLK
  5
11D9F
330
11D94
100
AcDbEntity
  8
0
100
AcDbBlockEnd
  0
BLOCK
  5
11DC2
330
11DB8
100
AcDbEntity
  8
0
100
AcDbBlockBegin
  2
*D6
 70
     1
 10
0.0
 20
0.0
 30
0.0
  3
*D6
  1

  0
LINE
  5
18818
330
11DB8
100
AcDbEntity
  8
dim
 62
     7
370
    -2
100
AcDbLine
 10
285.1170776755072
 20
245.3772599750999
 30
0.0
 11
285.1170776755072
 21
250.767103792464
 31
0.0
  0
LINE
  5
18819
330
11DB8
100
AcDbEntity
  8
dim
 62
     7
370
    -2
100
AcDbLine
 10
268.117077675507
 20
217.0622351012
 30
0.0
 11
268.117077675507
 21
250.767103792464
 31
0.0
  0
LINE
  5
1881A
330
11DB8
100
AcDbEntity
  8
dim
 62
     7
370
    -2
100
AcDbLine
 10
282.1170776755073
 20
249.7671037924642
 30
0.0
 11
271.117077675507
 21
249.7671037924642
 31
0.0
  0
INSERT
  5
1881B
330
11DB8
100
AcDbEntity
  8
dim
 62
     7
370
    -2
100
AcDbBlockReference
  2
_OPEN
 10
285.1170776755072
 20
249.7671037924642
 30
0.0
 41
3.0
 42
3.0
 43
3.0
  0
INSERT
  5
1881C
330
11DB8
100
AcDbEntity
  8
dim
 62
     7
370
    -2
100
AcDbBlockReference
  2
_OPEN
 10
268.117077675507
 20
249.7671037924642
 30
0.0
 41
3.0
 42
3.0
 43
3.0
 50
180.0
  0
MTEXT
  5
1881D
330
11DB8
100
AcDbEntity
  8
dim
 62
     0
100
AcDbMText
 10
276.617077675507
 20
251.7671037924642
 30
0.0
 40
3.0
 41
0.0
 71
     5
 72
     1
  1
\A1;17
 73
     1
 44
1.0
  0
POINT
  5
1881E
330
11DB8
100
AcDbEntity
  8
DEFPOINTS
 62
     0
100
AcDbPoint
 10
285.1170776755072
 20
244.8772599750999
 30
0.0
  0
POINT
  5
1881F
330
11DB8
100
AcDbEntity
  8
DEFPOINTS
 62
     0
100
AcDbPoint
 10
268.117077675507
 20
216.5622351012
 30
0.0
  0
POINT
  5
18820
330
11DB8
100
AcDbEntity
  8
DEFPOINTS
 62
     0
100
AcDbPoint
 10
268.117077675507
 20
249.7671037924642
 30
0.0
  0
ENDBLK
  5
11DC3
330
11DB8
100
AcDbEntity
  8
0
100
AcDbBlockEnd
  0
BLOCK
  5
11DCE
330
11DC4
100
AcDbEntity
  8
0
100
AcDbBlockBegin
  2
*D7
 70
     1
 10
0.0
 20
0.0
 30
0.0
  3
*D7
  1

  0
LINE
  5
18821
330
11DC4
100
AcDbEntity
  8
dim
 62
     7
370
    -2
100
AcDbLine
 10
285.6170776755071
 20
141.8772599750999
 30
0.0
 11
295.3576415645078
 21
141.8772599750999
 31
0.0
  0
LINE
  5
18822
330
11DC4
100
AcDbEntity
  8
dim
 62
     7
370
    -2
100
AcDbLine
 10
285.6170776755071
 20
241.8772599750999
 30
0.0
 11
295.3576415645078
 21
241.8772599750999
 31
0.0
  0
LINE
  5
18823
330
11DC4
100
AcDbEntity
  8
dim
 62
     7
370
    -2
100
AcDbLine
 10
294.3576415645078
 20
144.8772599750999
 30
0.0
 11
294.3576415645078
 21
238.8772599750999
 31
0.0
  0
INSERT
  5
18824
330
11DC4
100
AcDbEntity
  8
dim
 62
     7
370
    -2
100
AcDbBlockReference
  2
_OPEN
 10
294.3576415645078
 20
141.8772599750999
 30
0.0
 41
3.0
 42
3.0
 43
3.0
 50
270.0
  0
INSERT
  5
18825
330
11DC4
100
AcDbEntity
  8
dim
 62
     7
370
    -2
100
AcDbBlockReference
  2
_OPEN
 10
294.3576415645078
 20
241.8772599750999
 30
0.0
 41
3.0
 42
3.0
 43
3.0
 50
90.0
  0
MTEXT
  5
18826
330
11DC4
100
AcDbEntity
  8
dim
 62
     0
100
AcDbMText
 10
292.3576415645078
 20
191.8772599750999
 30
0.0
 40
3.0
 41
0.0
 71
     5
 72
     1
  1
\A1;100
 11
0.0000000000000001
 21
1.0
 31
0.0
 73
     1
 44
1.0
  0
POINT
  5
18827
330
11DC4
100
AcDbEntity
  8
DEFPOINTS
 62
     0
100
AcDbPoint
 10
285.1170776755072
 20
141.8772599750999
 30
0.0
  0
POINT
  5
18828
330
11DC4
100
AcDbEntity
  8
DEFPOINTS
 62
     0
100
AcDbPoint
 10
285.1170776755072
 20
241.8772599750999
 30
0.0
  0
POINT
  5
18829
330
11DC4
100
AcDbEntity
  8
DEFPOINTS
 62
     0
100
AcDbPoint
 10
294.3576415645078
 20
241.8772599750999
 30
0.0
  0
ENDBLK
  5
11DCF
330
11DC4
100
AcDbEntity
  8
0
100
AcDbBlockEnd
  0
BLOCK
  5
187F0
330
187EE
100
AcDbEntity
  8
0
100
AcDbBlockBegin
  2
lt1_1
 70
     0
 10
0.0
 20
0.0
 30
0.0
  3
lt1_1
  1

  0
INSERT
  5
187EF
330
187EE
100
AcDbEntity
  8
0
  6
Continuous
100
AcDbBlockReference
  2
aclt
 10
0.0
 20
0.0
 30
0.0
  0
ENDBLK
  5
187F1
330
187EE
100
AcDbEntity
  8
0
100
AcDbBlockEnd
  0
ENDSEC
  0
SECTION
  2
ENTITIES
  0
INSERT
  5
6C37
330
20
100
AcDbEntity
  8
0
  6
Continuous
100
AcDbBlockReference
  2
aclt
 10
0.0
 20
0.0
 30
0.0
  0
LINE
  5
CC4B
330
20
100
AcDbEntity
  8
0
 62
     7
100
AcDbLine
 10
285.1170776755072
 20
138.8772599751
 30
0.0
 11
285.1170776755072
 21
244.8772599750999
 31
0.0
  0
LINE
  5
CC4C
330
20
100
AcDbEntity
  8
0
100
AcDbLine
 10
285.1170776755072
 20
141.8772599750999
 30
0.0
 11
285.1170776755072
 21
241.8772599750999
 31
0.0
  0
LINE
  5
CC86
330
20
100
AcDbEntity
  8
0
  6
CENTER
 62
     7
100
AcDbLine
 10
265.117077675507
 20
191.8772599750999
 30
0.0
 11
288.1170776755071
 21
191.8772599750999
 31
0.0
  0
LINE
  5
CF99
330
20
100
AcDbEntity
  8
0
  6
CENTER
 62
     7
100
AcDbLine
 10
179.3526340399
 20
117.4756552345948
 30
0.0
 11
179.3526340399
 21
94.47565523459479
 31
0.0
  0
LINE
  5
CFAE
330
20
100
AcDbEntity
  8
0
 62
     7
100
AcDbLine
 10
126.3526340399
 20
97.4756552345948
 30
0.0
 11
232.3526340399
 21
97.4756552345948
 31
0.0
  0
LINE
  5
D78F
330
20
100
AcDbEntity
  8
0
  6
CENTER
 62
     7
100
AcDbLine
 10
126.3526340399
 20
191.8772599750999
 30
0.0
 11
232.3526340399
 21
191.8772599750999
 31
0.0
  0
LINE
  5
D7E6
330
20
100
AcDbEntity
  8
0
  6
CENTER
 62
     7
100
AcDbLine
 10
179.3526340399
 20
244.8772599750999
 30
0.0
 11
179.3526340399
 21
138.8772599750999
 31
0.0
  0
DIMENSION
  5
11AF9
330
20
100
AcDbEntity
  8
dim
100
AcDbDimension
  2
*D2
 10
122.1352799670944
 20
114.4756552345947
 30
0.0
 11
120.1352799670942
 21
105.9756552345948
 31
0.0
 70
    32
 71
     5
 42
17.0
  3
STD01$0
100
AcDbAlignedDimension
 13
126.3526340399
 23
97.4756552345948
 33
0.0
 14
140.6777116611999
 24
114.4756552345947
 34
0.0
 50
90.0
100
AcDbRotatedDimension
  0
DIMENSION
  5
11AFC
330
20
100
AcDbEntity
  8
dim
100
AcDbDimension
  2
*D3
 10
229.3526340399
 20
89.16013335505928
 30
0.0
 11
179.3526340399
 21
91.16013335505929
 31
0.0
 70
    32
 71
     5
 42
100.0
  3
STD01$0
100
AcDbAlignedDimension
 13
129.3526340399
 23
97.4756552345948
 33
0.0
 14
229.3526340399
 24
97.4756552345948
 34
0.0
100
AcDbRotatedDimension
  0
LINE
  5
11B0B
330
20
100
AcDbEntity
  8
3
  6
Continuous
100
AcDbLine
 10
313.0726231899098
 20
153.5314439526118
 30
0.0
 11
353.6507142758926
 21
153.5314439526118
 31
0.0
  0
LINE
  5
11B0C
330
20
100
AcDbEntity
  8
3
  6
Continuous
100
AcDbLine
 10
300.4774003658498
 20
161.0314439526115
 30
0.0
 11
353.6507142758926
 21
161.0314439526115
 31
0.0
  0
LINE
  5
11B0D
330
20
100
AcDbEntity
  8
3
  6
Continuous
100
AcDbLine
 10
300.4774003658498
 20
168.5314439526115
 30
0.0
 11
353.6507142758926
 21
168.5314439526115
 31
0.0
  0
MTEXT
  5
11B0E
102
{ACAD_XDICTIONARY
360
187C7
102
}
330
20
100
AcDbEntity
  8
3
100
AcDbMText
 10
300.6246748471343
 20
172.2047127614072
 30
0.0
 40
3.0
 41
55.5006
 71
     1
 72
     5
  1
註）　１　ＰＣ\P　　　２　ＰＣ\P　　　　一般公差　±1.0\P　　　　表面アラサ　\U+25BD\U+25BD\U+25BD
 73
     1
 44
1.5
  0
LINE
  5
11B0F
330
20
100
AcDbEntity
  8
3
  6
Continuous
100
AcDbLine
 10
313.0726231899098
 20
146.0314439526118
 30
0.0
 11
348.1915059573396
 21
146.0314439526118
 31
0.0
  0
CIRCLE
  5
11B10
330
20
100
AcDbEntity
  8
3
 62
     7
100
AcDbCircle
 10
312.9380737709416
 20
163.0141933029026
 30
0.0
 40
2.0
  0
CIRCLE
  5
11B11
330
20
100
AcDbEntity
  8
3
 62
     7
100
AcDbCircle
 10
312.8703482774746
 20
170.5956112978325
 30
0.0
 40
2.0
  0
MTEXT
  5
11B12
330
20
100
AcDbEntity
  8
3
100
AcDbMText
 10
269.913350601879
 20
116.3213369650287
 30
0.0
 40
4.0
 41
23.82046881679582
 71
     1
 72
     5
  1
セーフアイ
 73
     1
 44
1.0
  0
LINE
  5
11B13
330
20
100
AcDbEntity
  8
3
100
AcDbLine
 10
255.369454205419
 20
98.5323846171015
 30
0.0
 11
295.369454205419
 21
98.5323846171015
 31
0.0
  0
LINE
  5
11B14
330
20
100
AcDbEntity
  8
3
100
AcDbLine
 10
255.369454205419
 20
122.5323846171012
 30
0.0
 11
355.369454205419
 21
122.5323846171012
 31
0.0
  0
LINE
  5
11B15
330
20
100
AcDbEntity
  8
3
100
AcDbLine
 10
255.369454205419
 20
106.5323846171015
 30
0.0
 11
355.369454205419
 21
106.5323846171015
 31
0.0
  0
LINE
  5
11B16
330
20
100
AcDbEntity
  8
3
100
AcDbLine
 10
255.369454205419
 20
90.53238461710149
 30
0.0
 11
355.369454205419
 21
90.53238461710149
 31
0.0
  0
LINE
  5
11B17
330
20
100
AcDbEntity
  8
3
100
AcDbLine
 10
255.369454205419
 20
122.5323846171012
 30
0.0
 11
255.369454205419
 21
90.53238461710149
 31
0.0
  0
LINE
  5
11B18
330
20
100
AcDbEntity
  8
3
100
AcDbLine
 10
260.3694542054189
 20
122.5323846171012
 30
0.0
 11
260.3694542054189
 21
90.53238461710149
 31
0.0
  0
MTEXT
  5
11B19
330
20
100
AcDbEntity
  8
3
100
AcDbMText
 10
256.2822874757246
 20
98.14615838018291
 30
0.0
 40
2.799999999999998
 41
3.9807
 71
     1
 72
     5
  1
尺度
 73
     1
 44
1.0
  0
MTEXT
  5
11B1A
330
20
100
AcDbEntity
  8
3
100
AcDbMText
 10
256.2822874757246
 20
106.5571315073254
 30
0.0
 40
2.799999999999998
 41
3.9807
 71
     1
 72
     5
  1
材料
 73
     1
 44
1.0
  0
MTEXT
  5
11B1B
330
20
100
AcDbEntity
  8
3
100
AcDbMText
 10
256.160093040233
 20
120.8804143599228
 30
0.0
 40
2.799999999999998
 41
4.0944
 71
     1
 72
     5
  1
部品図
 73
     1
 44
1.0
  0
MTEXT
  5
11B1C
330
20
100
AcDbEntity
  8
3
100
AcDbMText
 10
276.1099474245771
 20
98.14615838018291
 30
0.0
 40
2.799999999999998
 41
3.9807
 71
     1
 72
     5
  1
単位
 73
     1
 44
1.0
  0
MTEXT
  5
11B1D
330
20
100
AcDbEntity
  8
3
100
AcDbMText
 10
276.1099474245771
 20
106.5571315073254
 30
0.0
 40
2.799999999999998
 41
3.9807
 71
     1
 72
     5
  1
個数
 73
     1
 44
1.0
  0
LINE
  5
11B1E
330
20
100
AcDbEntity
  8
3
100
AcDbLine
 10
275.369454205419
 20
106.5323846171015
 30
0.0
 11
275.369454205419
 21
90.53238461710149
 31
0.0
  0
MTEXT
  5
11B1F
330
20
100
AcDbEntity
  8
3
100
AcDbMText
 10
264.6300377320973
 20
96.19480947916144
 30
0.0
 40
3.0
 41
8.030624239295669
 71
     1
 72
     5
  1
1/1
 73
     1
 44
1.0
  0
LINE
  5
11B20
330
20
100
AcDbEntity
  8
3
100
AcDbLine
 10
280.369454205419
 20
106.5323846171015
 30
0.0
 11
280.369454205419
 21
90.53238461710149
 31
0.0
  0
MTEXT
  5
11B21
330
20
100
AcDbEntity
  8
3
100
AcDbMText
 10
284.098216703636
 20
96.19480947916144
 30
0.0
 40
3.0
 41
8.030599999999997
 71
     1
 72
     5
  1
m/m
 73
     1
 44
1.0
  0
MTEXT
  5
11B31
330
20
100
AcDbEntity
  8
3
100
AcDbMText
 10
323.3529818305456
 20
116.7879351712449
 30
0.0
 40
4.0
 41
21.07853875442573
 71
     1
 72
     5
  1
ＳＢ
 73
     1
 44
1.0
  0
LINE
  5
11B32
330
20
100
AcDbEntity
  8
3
100
AcDbLine
 10
305.369454205419
 20
122.5323846171012
 30
0.0
 11
305.369454205419
 21
90.53238461710149
 31
0.0
  0
LINE
  5
11B33
330
20
100
AcDbEntity
  8
3
100
AcDbLine
 10
310.3694542054191
 20
122.5323846171012
 30
0.0
 11
310.3694542054191
 21
90.53238461710149
 31
0.0
  0
MTEXT
  5
11B35
330
20
100
AcDbEntity
  8
3
100
AcDbMText
 10
306.0402098657641
 20
104.602867694972
 30
0.0
 40
2.799999999999998
 41
4.0944
 71
     1
 72
     5
  1
品　　名
 73
     1
 44
1.0
  0
MTEXT
  5
11B36
330
20
100
AcDbEntity
  8
3
100
AcDbMText
 10
299.0643791417558
 20
98.01884810225452
 30
0.0
 40
3.0
 41
6.3272
 71
     1
 72
     5
  1
/
 73
     1
 44
1.0
  0
LINE
  5
11B37
330
20
100
AcDbEntity
  8
3
100
AcDbLine
 10
295.369454205419
 20
106.5323846171015
 30
0.0
 11
295.369454205419
 21
90.53238461710149
 31
0.0
  0
MTEXT
  5
11B38
330
20
100
AcDbEntity
  8
3
100
AcDbMText
 10
296.5301338289356
 20
105.8909404919122
 30
0.0
 40
2.799999999999998
 41
9.237
 71
     1
 72
     5
  1
部番
 73
     1
 44
1.0
  0
LINE
  5
11B39
330
20
100
AcDbEntity
  8
3
100
AcDbLine
 10
295.369454205419
 20
102.5323846171015
 30
0.0
 11
305.369454205419
 21
102.5323846171015
 31
0.0
  0
MTEXT
  5
11B3B
330
20
100
AcDbEntity
  8
3
100
AcDbMText
 10
305.8947872151433
 20
120.5897440723571
 30
0.0
 40
2.799999999999998
 41
4.0944
 71
     1
 72
     5
  1
図　　番
 73
     1
 44
1.0
  0
LINE
  5
11B3C
330
20
100
AcDbEntity
  8
3
100
AcDbLine
 10
355.369454205419
 20
122.5323846171012
 30
0.0
 11
355.369454205419
 21
90.53238461710149
 31
0.0
  0
DIMENSION
  5
11D79
330
20
100
AcDbEntity
  8
dim
100
AcDbDimension
  2
*D4
 10
119.6507386201083
 20
241.8772599750999
 30
0.0
 11
117.6507386201079
 21
191.8772599750999
 31
0.0
 70
    32
 71
     5
 42
100.0
  3
STD01$0
100
AcDbAlignedDimension
 13
132.3412181342
 23
141.8772599750999
 33
0.0
 14
132.3412181342
 24
241.8772599750999
 34
0.0
 50
90.0
100
AcDbRotatedDimension
  0
LEADER
  5
11D7C
330
20
100
AcDbEntity
  8
dim
100
AcDbLeader
  3
STD01
 76
     2
 10
143.2073817464988
 20
200.6746284392803
 30
0.0
 10
113.1373335820349
 20
213.5914622905227
 30
0.0
1001
ACAD
1000
DSTYLE
1002
{
1070
   147
1040
0.5
1070
    77
1070
     1
1002
}
  0
CIRCLE
  5
11D7F
330
20
100
AcDbEntity
  8
3
 62
     7
100
AcDbCircle
 10
111.2017024084906
 20
214.4292826948039
 30
0.0
 40
2.0
  0
MTEXT
  5
11D81
330
20
100
AcDbEntity
  8
dim
100
AcDbMText
 10
110.7114259673481
 20
216.0681860996213
 30
0.0
 40
3.0
 41
2.205759530167142
 71
     1
 72
     5
  1
1
 73
     1
 44
1.0
  0
LEADER
  5
11D82
330
20
100
AcDbEntity
  8
dim
100
AcDbLeader
  3
STD01
 76
     2
 10
142.2133308542789
 20
155.9625137861428
 30
0.0
 10
113.1373335820349
 20
162.9177310837516
 30
0.0
1001
ACAD
1000
DSTYLE
1002
{
1070
   147
1040
0.5
1070
    77
1070
     1
1002
}
  0
CIRCLE
  5
11D83
330
20
100
AcDbEntity
  8
3
 62
     7
100
AcDbCircle
 10
111.2017024084906
 20
163.7555514880329
 30
0.0
 40
2.0
  0
MTEXT
  5
11D84
330
20
100
AcDbEntity
  8
dim
100
AcDbMText
 10
110.178039706459
 20
165.4240748671923
 30
0.0
 40
3.0
 41
2.205759530167142
 71
     1
 72
     5
  1
2
 73
     1
 44
1.0
  0
DIMENSION
  5
11D85
330
20
100
AcDbEntity
  8
dim
100
AcDbDimension
  2
*D5
 10
229.3526340399
 20
250.4491006792469
 30
0.0
 11
179.3526340399
 21
252.4491006792469
 31
0.0
 70
    32
 71
     5
 42
100.0
  3
STD01$0
100
AcDbAlignedDimension
 13
129.3526340399
 23
238.8886758808999
 33
0.0
 14
229.3526340399
 24
238.8886758808999
 34
0.0
100
AcDbRotatedDimension
  0
DIMENSION
  5
11DB2
330
20
100
AcDbEntity
  8
dim
100
AcDbDimension
  2
*D7
 10
294.3576415645078
 20
241.8772599750999
 30
0.0
 11
292.3576415645078
 21
191.8772599750999
 31
0.0
 70
    32
 71
     5
 42
100.0
  3
STD01$0
100
AcDbAlignedDimension
 13
285.1170776755072
 23
141.8772599750999
 33
0.0
 14
285.1170776755072
 24
241.8772599750999
 34
0.0
 50
90.0
100
AcDbRotatedDimension
  0
DIMENSION
  5
11DB5
330
20
100
AcDbEntity
  8
dim
100
AcDbDimension
  2
*D6
 10
268.117077675507
 20
249.7671037924642
 30
0.0
 11
276.617077675507
 21
251.7671037924642
 31
0.0
 70
    32
 71
     5
 42
17.0
  3
STD01$0
100
AcDbAlignedDimension
 13
285.1170776755072
 23
244.8772599750999
 33
0.0
 14
268.117077675507
 24
216.5622351012
 34
0.0
100
AcDbRotatedDimension
  0
POINT
  5
1531A
330
20
100
AcDbEntity
  8
pnt
100
AcDbPoint
 10
179.3526340399
 20
97.4756552345948
 30
0.0
  0
POINT
  5
1531B
330
20
100
AcDbEntity
  8
pnt
  6
CENTER
100
AcDbPoint
 10
179.3526340399
 20
191.8772599750999
 30
0.0
  0
LWPOLYLINE
  5
15355
330
20
100
AcDbEntity
  8
0
100
AcDbPolyline
 90
        5
 70
     0
 43
0.0
 10
130.3908147299999
 20
239.1392140810999
 10
130.5682117977999
 20
239.4589987202999
 10
130.8770272299
 20
239.8100480795999
 10
131.3293324296997
 20
240.1698708
 10
131.9163848656999
 20
240.4962800734999
  0
LWPOLYLINE
  5
15356
330
20
100
AcDbEntity
  8
0
100
AcDbPolyline
 90
        4
 70
     0
 43
0.0
 10
129.5553781004
 20
238.6860901472
 10
129.6862161333
 20
238.8556221652998
 10
129.9726764261999
 20
239.0109935819999
 10
130.3908097411999
 20
239.1392160347999
  0
LWPOLYLINE
  5
15357
330
20
100
AcDbEntity
  8
0
100
AcDbPolyline
 90
        4
 70
     0
 43
0.0
 10
131.9163848656999
 20
240.4962800734999
 10
132.0970978596998
 20
240.6154235146999
 10
132.3001969504999
 20
240.6888086937001
 10
132.5129433088999
 20
240.7131454042
  0
LWPOLYLINE
  5
15358
330
20
100
AcDbEntity
  8
0
100
AcDbPolyline
 90
        4
 70
     0
 43
0.0
 10
130.7074147819
 20
241.0707920060001
 10
131.2598213750999
 20
241.4169363073999
 10
131.8709461349999
 20
241.6311413342
 10
132.5129433088999
 20
241.7055348004
  0
LWPOLYLINE
  5
1535A
330
20
100
AcDbEntity
  8
0
100
AcDbPolyline
 90
        6
 70
     0
 43
0.0
 10
131.9163848656999
 20
143.2582398765999
 10
131.4394829018
 20
143.5133350677
 10
131.0420483224999
 20
143.7981183980996
 10
130.7385820490997
 20
144.0862346979
 10
130.5235114463999
 20
144.3621371158
 10
130.3908147299999
 20
144.615305869
  0
LWPOLYLINE
  5
1535B
330
20
100
AcDbEntity
  8
0
100
AcDbPolyline
 90
        6
 70
     0
 43
0.0
 10
130.7074147819
 20
142.6837279440998
 10
130.2841536867999
 20
143.0917493285
 10
129.9537016095999
 20
143.5607133099999
 10
129.7266653390997
 20
144.0561741160999
 10
129.5961627621998
 20
144.5617593685001
 10
129.5552197760999
 20
145.0684298056
  0
LWPOLYLINE
  5
1535C
330
20
100
AcDbEntity
  8
0
100
AcDbPolyline
 90
        4
 70
     0
 43
0.0
 10
129.5552197760999
 20
145.0684298056
 10
129.6861252379997
 20
144.8988861968
 10
129.9726400893
 20
144.7435153367
 10
130.3908133319999
 20
144.6153053215
  0
LWPOLYLINE
  5
1535D
330
20
100
AcDbEntity
  8
0
100
AcDbPolyline
 90
        4
 70
     0
 43
0.0
 10
129.9051143343
 20
237.7799050788
 10
130.0791433592999
 20
238.3025077683
 10
130.2426574440999
 20
238.7484615283
 10
130.3908147299999
 20
239.1392140810999
  0
LWPOLYLINE
  5
15361
330
20
100
AcDbEntity
  8
0
100
AcDbPolyline
 90
        7
 70
     0
 43
0.0
 10
134.7127811118999
 20
144.1797701198999
 10
134.4891812942996
 20
144.2487893546001
 10
134.2898234059999
 20
144.3603395157999
 10
134.1259841412999
 20
144.5089428270998
 10
134.0072638312999
 20
144.6870461529
 10
133.9412726529997
 20
144.8845943513999
 10
133.9322320762999
 20
145.0901194586
  0
LWPOLYLINE
  5
15364
330
20
100
AcDbEntity
  8
0
100
AcDbPolyline
 90
        5
 70
     0
 43
0.0
 10
130.3908147299999
 20
144.615305869
 10
130.2806491469
 20
144.9027605755999
 10
130.1631616076999
 20
145.2209341545001
 10
130.0370443799999
 20
145.5744019248998
 10
129.9050925536
 20
145.9746134599999
  0
LINE
  5
15367
330
20
100
AcDbEntity
  8
0
100
AcDbLine
 10
129.3526340399
 20
238.8886758808
 30
0.0
 11
129.3526340399
 21
144.8658440692998
 31
0.0
  0
LINE
  5
15368
330
20
100
AcDbEntity
  8
0
100
AcDbLine
 10
129.5698972976994
 20
145.9724671831999
 30
0.0
 11
129.5698972976994
 21
237.7820527668998
 31
0.0
  0
LWPOLYLINE
  5
15369
330
20
100
AcDbEntity
  8
0
100
AcDbPolyline
 90
        9
 70
     0
 43
0.0
 10
129.3526340399
 20
238.8886758808
 10
129.4097484751
 20
239.4719490641999
 10
129.5792243791999
 20
240.0329548031999
 10
129.8549838876
 20
240.5501218301998
 10
130.2266135545999
 20
241.0033121117999
 10
130.6798039108999
 20
241.3749312913
 10
131.1969598980998
 20
241.6506781754999
 10
131.7579518769
 20
241.8201469104001
 10
132.3412181342
 20
241.8772599750999
  0
LWPOLYLINE
  5
1536C
330
20
100
AcDbEntity
  8
0
100
AcDbPolyline
 90
        5
 70
     0
 43
0.0
 10
129.5552197760999
 20
238.6860901446
 10
129.6196909303999
 20
239.3172799502
 10
129.8263543944992
 20
239.9453921240001
 10
130.1900455264997
 20
240.5472195300998
 10
130.7074147819
 20
241.0707920060001
  0
LWPOLYLINE
  5
15371
330
20
100
AcDbEntity
  8
0
100
AcDbPolyline
 90
        7
 70
     0
 43
0.0
 10
223.6147847867999
 20
144.2430151926999
 10
223.9357117613
 20
144.2867094979999
 10
224.2207127827999
 20
144.4114053430998
 10
224.4453575776998
 20
144.6044747717
 10
224.5875937944997
 20
144.8458014158999
 10
224.6348860693
 20
145.1126245421999
 10
224.5831193167997
 20
145.3780762522999
  0
LINE
  5
15372
330
20
100
AcDbEntity
  8
0
100
AcDbLine
 10
223.9924100339
 20
144.1797546772999
 30
0.0
 11
223.7563310451998
 21
144.1563994602999
 31
0.0
  0
LINE
  5
15377
330
20
100
AcDbEntity
  8
0
100
AcDbLine
 10
132.3412181342
 20
141.8772599751
 30
0.0
 11
226.3640499455998
 21
141.8772599751
 31
0.0
  0
LINE
  5
15378
330
20
100
AcDbEntity
  8
0
100
AcDbLine
 10
226.1923247708998
 20
142.0489851498
 30
0.0
 11
132.5129433088999
 21
142.0489851498
 31
0.0
  0
LWPOLYLINE
  5
15379
330
20
100
AcDbEntity
  8
0
100
AcDbPolyline
 90
        9
 70
     0
 43
0.0
 10
132.3412181342
 20
141.8772599751
 10
131.7579449507997
 20
141.9343744101999
 10
131.1969392116999
 20
142.1038503143999
 10
130.6797721846997
 20
142.3796098227
 10
130.2265819031999
 20
142.7512394897999
 10
129.8549627237
 20
143.2044298461
 10
129.5792158393999
 20
143.7215858332999
 10
129.4097471044999
 20
144.2825778119999
 10
129.3526340399
 20
144.8658440692998
  0
LINE
  5
1537C
330
20
100
AcDbEntity
  8
0
100
AcDbLine
 10
134.9489370345999
 20
144.1563994602999
 30
0.0
 11
134.7127811118999
 21
144.1797701198999
 31
0.0
  0
LWPOLYLINE
  5
1537D
330
20
100
AcDbEntity
  8
0
100
AcDbPolyline
 90
        4
 70
     0
 43
0.0
 10
132.5129433088999
 20
143.0413745458999
 10
132.3002736902999
 20
143.0656942154
 10
132.0971667754998
 20
143.1390597438999
 10
131.9163848656999
 20
143.2582398765999
  0
LWPOLYLINE
  5
1537E
330
20
100
AcDbEntity
  8
0
100
AcDbPolyline
 90
        4
 70
     0
 43
0.0
 10
132.5129433088999
 20
142.0489851498
 10
131.8709234243994
 20
142.1233854186
 10
131.2597965042
 20
142.3375920153
 10
130.7074147819
 20
142.6837279440998
  0
LWPOLYLINE
  5
15387
330
20
100
AcDbEntity
  8
0
100
AcDbPolyline
 90
        4
 70
     0
 43
0.0
 10
129.5698972976994
 20
237.7820527668998
 10
129.5674023612999
 20
238.1088273217998
 10
129.5619544565999
 20
238.4109878688999
 10
129.5552197760999
 20
238.6860901446
  0
LINE
  5
15388
330
20
100
AcDbEntity
  8
0
100
AcDbLine
 10
129.9056887356
 20
145.9761413247
 30
0.0
 11
129.9056887356
 21
237.7784330178001
 31
0.0
  0
LINE
  5
15392
330
20
100
AcDbEntity
  8
0
100
AcDbLine
 10
132.5129433335999
 20
240.7131454042
 30
0.0
 11
132.5129433335999
 21
241.7055348004
 31
0.0
  0
LINE
  5
153B9
330
20
100
AcDbEntity
  8
0
100
AcDbLine
 10
132.5129642878999
 20
143.0413745456
 30
0.0
 11
132.5128809637999
 21
142.0490395996999
 31
0.0
  0
LWPOLYLINE
  5
153BA
330
20
100
AcDbEntity
  8
0
100
AcDbPolyline
 90
        3
 70
     0
 43
0.0
 10
129.5648937595999
 20
145.4902939282
 10
129.5683930368999
 20
145.7245914485999
 10
129.5698972976994
 20
145.9724671831999
  0
LINE
  5
153BB
330
20
100
AcDbEntity
  8
0
100
AcDbLine
 10
129.5552197760999
 20
145.0684298056
 30
0.0
 11
129.5648937595999
 21
145.4902939282
 31
0.0
  0
LWPOLYLINE
  5
153BC
330
20
100
AcDbEntity
  8
0
100
AcDbPolyline
 90
        7
 70
     0
 43
0.0
 10
133.9322254879998
 20
238.6644684900999
 10
133.9413122020999
 20
238.8701377167
 10
134.0074304820999
 20
239.0678121301998
 10
134.1262818238998
 20
239.2459206265
 10
134.2901506606999
 20
239.3944144542998
 10
134.4894041158999
 20
239.5058255619001
 10
134.7128580458999
 20
239.5747652729
  0
LWPOLYLINE
  5
153C9
330
20
100
AcDbEntity
  8
0
100
AcDbPolyline
 90
        4
 70
     0
 43
0.0
 10
130.7075060952999
 20
142.6838468273999
 10
131.0189122886999
 20
142.6943489800999
 10
131.4387871170999
 20
142.8938646844
 10
131.9163848692999
 20
143.2582805766999
  0
LINE
  5
153CA
330
20
100
AcDbEntity
  8
0
100
AcDbLine
 10
228.7995745059999
 20
145.9723380443999
 30
0.0
 11
229.1353707806
 21
145.9725440976999
 31
0.0
  0
LINE
  5
153CB
330
20
100
AcDbEntity
  8
0
100
AcDbLine
 10
226.1923247708998
 20
143.0413745458999
 30
0.0
 11
132.5129433088999
 21
143.0413745458999
 31
0.0
  0
LINE
  5
153D0
330
20
100
AcDbEntity
  8
0
100
AcDbLine
 10
134.9489370345999
 20
144.1563994602999
 30
0.0
 11
223.7563310451998
 21
144.1563994602999
 31
0.0
  0
LINE
  5
153D1
330
20
100
AcDbEntity
  8
0
100
AcDbLine
 10
223.6147847867999
 20
144.2430151926999
 30
0.0
 11
135.0904832929998
 21
144.2430151926999
 31
0.0
  0
LINE
  5
153D8
330
20
100
AcDbEntity
  8
0
100
AcDbLine
 10
129.9056887356
 20
145.9724671388
 30
0.0
 11
129.5698972976994
 21
145.9724671388
 31
0.0
  0
LINE
  5
153ED
330
20
100
AcDbEntity
  8
0
100
AcDbLine
 10
223.1548601261998
 20
149.1397259656
 30
0.0
 11
223.1140555581998
 21
149.1397259656
 31
0.0
  0
LINE
  5
153F0
330
20
100
AcDbEntity
  8
0
100
AcDbLine
 10
135.5912125216
 20
149.1397259656
 30
0.0
 11
135.5504079536
 21
149.1397259656
 31
0.0
  0
LWPOLYLINE
  5
153F5
330
20
100
AcDbEntity
  8
0
100
AcDbPolyline
 90
        4
 70
     0
 43
0.0
 10
227.997821847
 20
142.6837688866
 10
227.6863628661
 20
142.6942463662999
 10
227.2664664595999
 20
142.8937739596999
 10
226.7888832140999
 20
143.2582398767999
  0
LINE
  5
1544B
330
20
100
AcDbEntity
  8
0
100
AcDbLine
 10
140.6777116611999
 20
165.6922848488999
 30
0.0
 11
140.6777116611999
 21
218.0622351011999
 31
0.0
  0
LWPOLYLINE
  5
1545B
330
20
100
AcDbEntity
  8
0
100
AcDbPolyline
 90
        7
 70
     0
 43
0.0
 10
134.1221487629999
 20
145.3780762522999
 10
134.0703820104998
 20
145.1126245421999
 10
134.1176742853
 20
144.8458014158999
 10
134.2599105020999
 20
144.6044747717
 10
134.484555297
 20
144.4114053430998
 10
134.7695563184996
 20
144.2867094979999
 10
135.0904832929998
 20
144.2430151926999
  0
LINE
  5
1545D
330
20
100
AcDbEntity
  8
0
100
AcDbLine
 10
143.4086630348999
 20
214.3945275397999
 30
0.0
 11
143.4311559110999
 21
214.4355382369
 31
0.0
  0
LINE
  5
15461
330
20
100
AcDbEntity
  8
0
100
AcDbLine
 10
144.3369792518999
 20
213.7660674456999
 30
0.0
 11
144.3559631126998
 21
213.8006802429999
 31
0.0
  0
LWPOLYLINE
  5
1547E
330
20
100
AcDbEntity
  8
0
100
AcDbPolyline
 90
        5
 70
     0
 43
0.0
 10
140.6777116611999
 20
218.0622351011999
 10
139.9305370307999
 20
217.7906130560999
 10
139.2359360848999
 20
217.4325582650999
 10
138.6427832490997
 20
217.0132646504999
 10
138.1928147237999
 20
216.5622351012
  0
LWPOLYLINE
  5
154A4
330
20
100
AcDbEntity
  8
0
100
AcDbPolyline
 90
        5
 70
     0
 43
0.0
 10
140.6777116611999
 20
165.6922848488999
 10
139.9304639767999
 20
165.9639387998999
 10
139.2357609447999
 20
166.3220674121998
 10
138.6425680826
 20
166.7414348353998
 10
138.1928147237999
 20
167.1922848488998
  0
LINE
  5
154C0
330
20
100
AcDbEntity
  8
0
100
AcDbLine
 10
143.4311559110999
 20
169.3189817132999
 30
0.0
 11
143.4086630348999
 21
169.3599924103
 31
0.0
  0
LINE
  5
154C4
330
20
100
AcDbEntity
  8
0
100
AcDbLine
 10
144.3559631126998
 20
169.9538397071
 30
0.0
 11
144.3369792518999
 21
169.9884525044
 31
0.0
  0
LINE
  5
15515
330
20
100
AcDbEntity
  8
0
100
AcDbLine
 10
134.4481797992
 20
146.3848194254
 30
0.0
 11
134.3723238633999
 21
146.0186686630999
 31
0.0
  0
LINE
  5
15519
330
20
100
AcDbEntity
  8
0
100
AcDbLine
 10
133.9322320762999
 20
145.0901194586
 30
0.0
 11
133.9806025045999
 21
145.2914605199
 31
0.0
  0
LINE
  5
1551F
330
20
100
AcDbEntity
  8
0
100
AcDbLine
 10
138.1928147237999
 20
167.1922848488998
 30
0.0
 11
129.9056887356
 21
145.9761413247
 31
0.0
  0
LINE
  5
155AA
330
20
100
AcDbEntity
  8
0
100
AcDbLine
 10
129.9056887356
 20
237.7784330178001
 30
0.0
 11
138.1928147237999
 21
216.5622351012
 31
0.0
  0
LINE
  5
155AC
330
20
100
AcDbEntity
  8
0
100
AcDbLine
 10
133.9806025045999
 20
238.4630594302
 30
0.0
 11
133.9322254879998
 21
238.6644684900999
 31
0.0
  0
LINE
  5
155B0
330
20
100
AcDbEntity
  8
0
100
AcDbLine
 10
134.4481797992
 20
237.3697005246999
 30
0.0
 11
134.3723238633999
 21
237.7358512869998
 31
0.0
  0
LINE
  5
155D0
330
20
100
AcDbEntity
  8
0
100
AcDbLine
 10
140.6777116611999
 20
165.6922848488999
 30
0.0
 11
131.9163848656999
 21
143.2582398765999
 31
0.0
  0
LINE
  5
155D1
330
20
100
AcDbEntity
  8
0
100
AcDbLine
 10
143.4311559110999
 20
169.3189817132999
 30
0.0
 11
135.5504079536
 21
149.1397259656
 31
0.0
  0
LINE
  5
155D7
330
20
100
AcDbEntity
  8
0
100
AcDbLine
 10
134.1221487629999
 20
145.3780762522999
 30
0.0
 11
142.2398035752999
 21
166.1617590918
 31
0.0
  0
LINE
  5
155D8
330
20
100
AcDbEntity
  8
0
100
AcDbLine
 10
142.3321265434998
 20
166.6673844748999
 30
0.0
 11
133.9806025045999
 21
145.2914605199
 31
0.0
  0
LINE
  5
155D9
330
20
100
AcDbEntity
  8
0
100
AcDbLine
 10
142.3321265434998
 20
166.6673844748999
 30
0.0
 11
143.4086630348999
 21
169.3599924103
 31
0.0
  0
LINE
  5
155DA
330
20
100
AcDbEntity
  8
0
100
AcDbLine
 10
142.2398035752999
 20
166.1617590918
 30
0.0
 11
143.4763669032999
 21
169.2599771774998
 31
0.0
  0
LINE
  5
155DB
330
20
100
AcDbEntity
  8
0
100
AcDbLine
 10
134.4481797992
 20
146.3848194254
 30
0.0
 11
135.5504079536
 21
149.1397259656
 31
0.0
  0
LINE
  5
155DF
330
20
100
AcDbEntity
  8
0
100
AcDbLine
 10
134.4481797992
 20
146.3848194254
 30
0.0
 11
133.9806025045999
 21
145.2914605199
 31
0.0
  0
LINE
  5
155E4
330
20
100
AcDbEntity
  8
0
100
AcDbLine
 10
134.9917284380999
 20
144.2564606962999
 30
0.0
 11
134.9489370345999
 21
144.1563994602999
 31
0.0
  0
LINE
  5
15603
330
20
100
AcDbEntity
  8
0
100
AcDbLine
 10
140.6777116611999
 20
165.6922848488999
 30
0.0
 11
141.9478812125998
 21
165.6922848488999
 31
0.0
  0
LINE
  5
15604
330
20
100
AcDbEntity
  8
0
100
AcDbLine
 10
142.0556008142999
 20
165.6922848488999
 30
0.0
 11
216.6496672655
 21
165.6922848488999
 31
0.0
  0
LINE
  5
15605
330
20
100
AcDbEntity
  8
0
100
AcDbLine
 10
216.7573868672
 20
165.6922848488999
 30
0.0
 11
218.0275564186
 21
165.6922848488999
 31
0.0
  0
LINE
  5
15606
330
20
100
AcDbEntity
  8
0
100
AcDbLine
 10
138.1928147237999
 20
167.1922848488998
 30
0.0
 11
142.5413710704999
 21
167.1922848488998
 31
0.0
  0
LINE
  5
15607
330
20
100
AcDbEntity
  8
0
100
AcDbLine
 10
142.6490906721998
 20
167.1922848488998
 30
0.0
 11
216.0561774075999
 21
167.1922848488998
 31
0.0
  0
LINE
  5
15608
330
20
100
AcDbEntity
  8
0
100
AcDbLine
 10
216.1638970093
 20
167.1922848488998
 30
0.0
 11
220.5124533559998
 21
167.1922848488998
 31
0.0
  0
LINE
  5
15610
330
20
100
AcDbEntity
  8
0
100
AcDbLine
 10
144.4046831202999
 20
169.8884372715999
 30
0.0
 11
214.3005849594998
 21
169.8884372715999
 31
0.0
  0
LINE
  5
15611
330
20
100
AcDbEntity
  8
0
100
AcDbLine
 10
144.3559631126998
 20
169.9538397071
 30
0.0
 11
214.3493049671
 21
169.9538397071
 31
0.0
  0
LINE
  5
15612
330
20
100
AcDbEntity
  8
0
100
AcDbLine
 10
144.3369792518999
 20
169.9884525044
 30
0.0
 11
214.3682888278998
 21
169.9884525044
 31
0.0
  0
LWPOLYLINE
  5
1564C
330
20
100
AcDbEntity
  8
0
100
AcDbPolyline
 90
        9
 70
     0
 43
0.0
 10
143.4763669032999
 20
214.4945427725999
 10
143.5416751834999
 20
214.3610414184996
 10
143.6260488927999
 20
214.2386943287998
 10
143.7276255257999
 20
214.1302049299999
 10
143.8441616336999
 20
214.0379710319999
 10
143.9730827777998
 20
213.9640310318998
 10
144.1115402855998
 20
213.9100188453999
 10
144.2564745224999
 20
213.8771274975999
 10
144.4046831202999
 20
213.8660826785001
  0
LINE
  5
1564D
330
20
100
AcDbEntity
  8
0
100
AcDbLine
 10
133.9806025045999
 20
238.4630594302
 30
0.0
 11
134.4481797992
 21
237.3697005246999
 31
0.0
  0
LINE
  5
15652
330
20
100
AcDbEntity
  8
0
100
AcDbLine
 10
134.9489370345999
 20
239.5981204897999
 30
0.0
 11
134.9917284380999
 21
239.4980592538999
 31
0.0
  0
LINE
  5
15654
330
20
100
AcDbEntity
  8
0
100
AcDbLine
 10
134.4481797992
 20
237.3697005246999
 30
0.0
 11
135.5504079536
 21
234.6147939845
 31
0.0
  0
LINE
  5
15658
330
20
100
AcDbEntity
  8
0
100
AcDbLine
 10
142.1320839735999
 20
217.5927608583999
 30
0.0
 11
143.4086630348999
 21
214.3945275397999
 31
0.0
  0
LINE
  5
15659
330
20
100
AcDbEntity
  8
0
100
AcDbLine
 10
143.4763669032999
 20
214.4945427725999
 30
0.0
 11
142.2398035752999
 21
217.5927608583999
 31
0.0
  0
LINE
  5
1565A
330
20
100
AcDbEntity
  8
0
100
AcDbLine
 10
131.9163848656999
 20
240.4962800734999
 30
0.0
 11
140.6777116611999
 21
218.0622351011999
 31
0.0
  0
LINE
  5
1565B
330
20
100
AcDbEntity
  8
0
100
AcDbLine
 10
142.1320839735999
 20
217.5927608583999
 30
0.0
 11
133.9806025045999
 21
238.4630594302
 31
0.0
  0
LINE
  5
1565C
330
20
100
AcDbEntity
  8
0
100
AcDbLine
 10
143.4311559110999
 20
214.4355382369
 30
0.0
 11
135.5504079536
 21
234.6147939845
 31
0.0
  0
LINE
  5
1565D
330
20
100
AcDbEntity
  8
0
100
AcDbLine
 10
134.1221487629999
 20
238.3764436978001
 30
0.0
 11
142.2398035752999
 21
217.5927608583999
 31
0.0
  0
LINE
  5
15691
330
20
100
AcDbEntity
  8
0
100
AcDbLine
 10
143.5929540507999
 20
169.5941655318
 30
0.0
 11
143.4311559110999
 21
169.3189817132999
 31
0.0
  0
LWPOLYLINE
  5
15692
330
20
100
AcDbEntity
  8
0
100
AcDbPolyline
 90
        4
 70
     0
 43
0.0
 10
143.4086630348999
 20
169.3599924103
 10
143.6242935738999
 20
169.6898730407999
 10
143.9506242907
 20
169.9107928301
 10
144.3369792518999
 20
169.9884525044
  0
LINE
  5
156B3
330
20
100
AcDbEntity
  8
0
100
AcDbLine
 10
144.3559631126998
 20
169.9538397071
 30
0.0
 11
144.0794996304999
 21
169.9143997539999
 31
0.0
  0
LWPOLYLINE
  5
156B5
330
20
100
AcDbEntity
  8
0
100
AcDbPolyline
 90
        9
 70
     0
 43
0.0
 10
144.4046831202999
 20
169.8884372715999
 10
144.2564744866
 20
169.8773924470999
 10
144.1115401751998
 20
169.8445010708
 10
143.9730826010999
 20
169.7904888336999
 10
143.8441614425999
 20
169.7165487887
 10
143.7276253816999
 20
169.6243148875
 10
143.6260488203999
 20
169.5158255313999
 10
143.5416751651999
 20
169.3934785004
 10
143.4763669032999
 20
169.2599771774998
  0
LINE
  5
156F3
330
20
100
AcDbEntity
  8
0
100
AcDbLine
 10
214.3493049671
 20
169.9538397071
 30
0.0
 11
214.6257684493
 21
169.9143997539999
 31
0.0
  0
LWPOLYLINE
  5
156F6
330
20
100
AcDbEntity
  8
0
100
AcDbPolyline
 90
        4
 70
     0
 43
0.0
 10
214.3682888278998
 20
169.9884525044
 10
214.7546437890999
 20
169.9107928301
 10
215.0809745059
 20
169.6898730407999
 10
215.2966050448998
 20
169.3599924103
  0
LINE
  5
15717
330
20
100
AcDbEntity
  8
0
100
AcDbLine
 10
143.5929540507999
 20
214.1603544183001
 30
0.0
 11
143.4311559110999
 21
214.4355382369
 31
0.0
  0
LINE
  5
1582C
330
20
100
AcDbEntity
  8
0
100
AcDbLine
 10
129.5552197760999
 20
145.0684298056
 30
0.0
 11
129.3526340399
 21
144.8658440692998
 31
0.0
  0
LINE
  5
1582D
330
20
100
AcDbEntity
  8
0
100
AcDbLine
 10
226.1923247708998
 20
241.7055348004
 30
0.0
 11
226.3640499455998
 21
241.8772599750999
 31
0.0
  0
LWPOLYLINE
  5
1585A
330
20
100
AcDbEntity
  8
0
100
AcDbPolyline
 90
        3
 70
     0
 43
0.0
 10
214.6257684493
 20
213.8401201962
 10
214.8868170404999
 20
213.9596114353
 10
215.112314029
 20
214.1603544183001
  0
LWPOLYLINE
  5
15897
330
20
100
AcDbEntity
  8
0
100
AcDbPolyline
 90
        3
 70
     0
 43
0.0
 10
214.6257684493
 20
169.9143997539999
 10
214.8868170404999
 20
169.7949085147999
 10
215.112314029
 20
169.5941655318
  0
LINE
  5
1589B
330
20
100
AcDbEntity
  8
0
100
AcDbLine
 10
226.1923247708998
 20
142.0489851498
 30
0.0
 11
226.3640499455998
 21
141.8772599751
 31
0.0
  0
LINE
  5
1589C
330
20
100
AcDbEntity
  8
0
100
AcDbLine
 10
129.5552197760999
 20
238.6860901446
 30
0.0
 11
129.3526340399
 21
238.8886758808
 31
0.0
  0
LINE
  5
158E7
330
20
100
AcDbEntity
  8
0
100
AcDbLine
 10
132.5129433088999
 20
142.0489851498
 30
0.0
 11
132.3412181342
 21
141.8772599751
 31
0.0
  0
LINE
  5
158E8
330
20
100
AcDbEntity
  8
0
100
AcDbLine
 10
229.1500483036999
 20
238.6860901446
 30
0.0
 11
229.3526340399
 21
238.8886758808
 31
0.0
  0
LWPOLYLINE
  5
1590A
330
20
100
AcDbEntity
  8
0
100
AcDbPolyline
 90
        3
 70
     0
 43
0.0
 10
144.0794996304999
 20
169.9143997539999
 10
143.8184510393
 20
169.7949085147999
 10
143.5929540507999
 20
169.5941655318
  0
LWPOLYLINE
  5
15926
330
20
100
AcDbEntity
  8
0
100
AcDbPolyline
 90
        3
 70
     0
 43
0.0
 10
144.0794996304999
 20
213.8401201962
 10
143.8184510393
 20
213.9596114353
 10
143.5929540507999
 20
214.1603544183001
  0
LINE
  5
15927
330
20
100
AcDbEntity
  8
0
100
AcDbLine
 10
229.1500483036999
 20
145.0684298056
 30
0.0
 11
229.3526340399
 21
144.8658440692998
 31
0.0
  0
LINE
  5
15928
330
20
100
AcDbEntity
  8
0
100
AcDbLine
 10
132.5129433088999
 20
241.7055348004
 30
0.0
 11
132.3412181342
 21
241.8772599750999
 31
0.0
  0
LWPOLYLINE
  5
15A0C
330
20
100
AcDbEntity
  8
0
100
AcDbPolyline
 90
        4
 70
     0
 43
0.0
 10
144.3369792518999
 20
213.7660674456999
 10
143.9506242907
 20
213.84372712
 10
143.6242935738999
 20
214.0646469092998
 10
143.4086630348999
 20
214.3945275397999
  0
LINE
  5
15A7A
330
20
100
AcDbEntity
  8
0
100
AcDbLine
 10
223.7135396416999
 20
239.4980592538999
 30
0.0
 11
223.7563310451998
 21
239.5981204897999
 31
0.0
  0
LINE
  5
15A7D
330
20
100
AcDbEntity
  8
0
100
AcDbLine
 10
215.112314029
 20
214.1603544183001
 30
0.0
 11
215.2741121686998
 21
214.4355382369
 31
0.0
  0
LWPOLYLINE
  5
15A7E
330
20
100
AcDbEntity
  8
0
100
AcDbPolyline
 90
        4
 70
     0
 43
0.0
 10
215.2966050448998
 20
214.3945275397999
 10
215.0809745059
 20
214.0646469092998
 10
214.7546437890999
 20
213.84372712
 10
214.3682888278998
 20
213.7660674456999
  0
LINE
  5
15A9A
330
20
100
AcDbEntity
  8
0
100
AcDbLine
 10
214.3493049671
 20
213.8006802429999
 30
0.0
 11
214.6257684493
 21
213.8401201962
 31
0.0
  0
LWPOLYLINE
  5
15A9B
330
20
100
AcDbEntity
  8
0
100
AcDbPolyline
 90
        9
 70
     0
 43
0.0
 10
214.3005849594998
 20
213.8660826785001
 10
214.4487935931999
 20
213.8771275030001
 10
214.5937279045999
 20
213.9100188792999
 10
214.7321854786999
 20
213.9640311165
 10
214.8611066372
 20
214.0379711613999
 10
214.9776426981
 20
214.1302050625998
 10
215.0792192593999
 20
214.2386944187001
 10
215.1635929145999
 20
214.3610414497999
 10
215.2289011765
 20
214.4945427725999
  0
LINE
  5
15AF3
330
20
100
AcDbEntity
  8
0
100
AcDbLine
 10
144.3369792518999
 20
213.7660674456999
 30
0.0
 11
214.3682888278998
 21
213.7660674456999
 31
0.0
  0
LINE
  5
15AF4
330
20
100
AcDbEntity
  8
0
100
AcDbLine
 10
144.3559631126998
 20
213.8006802429999
 30
0.0
 11
214.3493049671
 21
213.8006802429999
 31
0.0
  0
LINE
  5
15AF5
330
20
100
AcDbEntity
  8
0
100
AcDbLine
 10
214.3005849594998
 20
213.8660826785001
 30
0.0
 11
144.4046831202999
 21
213.8660826785001
 31
0.0
  0
LINE
  5
15AFC
330
20
100
AcDbEntity
  8
0
100
AcDbLine
 10
144.3559631126998
 20
213.8006802429999
 30
0.0
 11
144.0794996304999
 21
213.8401201962
 31
0.0
  0
LINE
  5
15B16
330
20
100
AcDbEntity
  8
0
100
AcDbLine
 10
215.112314029
 20
169.5941655318
 30
0.0
 11
215.2741121686998
 21
169.3189817132999
 31
0.0
  0
LWPOLYLINE
  5
15B17
330
20
100
AcDbEntity
  8
0
100
AcDbPolyline
 90
        9
 70
     0
 43
0.0
 10
215.2289011765
 20
169.2599771774998
 10
215.1635928962999
 20
169.3934785316999
 10
215.0792191869999
 20
169.5158256213
 10
214.9776425539999
 20
169.6243150201
 10
214.8611064460999
 20
169.7165489180999
 10
214.7321853019998
 20
169.7904889181999
 10
214.5937277942
 20
169.8445011047
 10
214.4487935573
 20
169.8773924524999
 10
214.3005849594998
 20
169.8884372715999
  0
LINE
  5
15B19
330
20
100
AcDbEntity
  8
0
100
AcDbLine
 10
223.7563310451998
 20
144.1563994602999
 30
0.0
 11
223.7135396416999
 21
144.2564606962999
 31
0.0
  0
LINE
  5
15B47
330
20
100
AcDbEntity
  8
0
100
AcDbLine
 10
215.2741121686998
 20
214.4355382369
 30
0.0
 11
223.1548601261998
 21
234.6147939845
 31
0.0
  0
LINE
  5
15B48
330
20
100
AcDbEntity
  8
0
100
AcDbLine
 10
218.0275564186
 20
218.0622351011999
 30
0.0
 11
226.7888832140999
 21
240.4962800734999
 31
0.0
  0
LINE
  5
15B4C
330
20
100
AcDbEntity
  8
0
100
AcDbLine
 10
220.5124533559998
 20
216.5622351012
 30
0.0
 11
228.7995793441999
 21
237.7783786254
 31
0.0
  0
LINE
  5
15B4D
330
20
100
AcDbEntity
  8
0
100
AcDbLine
 10
224.5831193167997
 20
238.3764436978001
 30
0.0
 11
216.4654645045
 21
217.5927608583999
 31
0.0
  0
LINE
  5
15B4E
330
20
100
AcDbEntity
  8
0
100
AcDbLine
 10
216.3731415362998
 20
217.0871354752998
 30
0.0
 11
224.7246655751999
 21
238.4630594302
 31
0.0
  0
LINE
  5
15B52
330
20
100
AcDbEntity
  8
0
100
AcDbLine
 10
224.2570882805999
 20
237.3697005246999
 30
0.0
 11
223.1548601261998
 21
234.6147939845
 31
0.0
  0
LINE
  5
15B53
330
20
100
AcDbEntity
  8
0
100
AcDbLine
 10
216.4654645045
 20
217.5927608583999
 30
0.0
 11
215.2289011765
 21
214.4945427725999
 31
0.0
  0
LINE
  5
15B54
330
20
100
AcDbEntity
  8
0
100
AcDbLine
 10
216.3731415362998
 20
217.0871354752998
 30
0.0
 11
215.2966050448998
 21
214.3945275397999
 31
0.0
  0
LINE
  5
15B57
330
20
100
AcDbEntity
  8
0
100
AcDbLine
 10
224.2570882805999
 20
237.3697005246999
 30
0.0
 11
224.7246655751999
 21
238.4630594302
 31
0.0
  0
LINE
  5
15B74
330
20
100
AcDbEntity
  8
0
100
AcDbLine
 10
216.0561774075999
 20
216.5622351012
 30
0.0
 11
142.6490906721998
 21
216.5622351012
 31
0.0
  0
LINE
  5
15B75
330
20
100
AcDbEntity
  8
0
100
AcDbLine
 10
142.5413710704999
 20
216.5622351012
 30
0.0
 11
138.1928147237999
 21
216.5622351012
 31
0.0
  0
LINE
  5
15B76
330
20
100
AcDbEntity
  8
0
100
AcDbLine
 10
216.1638970093
 20
216.5622351012
 30
0.0
 11
220.5124533559998
 21
216.5622351012
 31
0.0
  0
LINE
  5
15B77
330
20
100
AcDbEntity
  8
0
100
AcDbLine
 10
218.0275564186
 20
218.0622351011999
 30
0.0
 11
216.7573868672
 21
218.0622351011999
 31
0.0
  0
LINE
  5
15B78
330
20
100
AcDbEntity
  8
0
100
AcDbLine
 10
216.6496672655
 20
218.0622351011999
 30
0.0
 11
142.0556008142999
 21
218.0622351011999
 31
0.0
  0
LINE
  5
15B79
330
20
100
AcDbEntity
  8
0
100
AcDbLine
 10
141.9478812125998
 20
218.0622351011999
 30
0.0
 11
140.6777116611999
 21
218.0622351011999
 31
0.0
  0
LINE
  5
15BBC
330
20
100
AcDbEntity
  8
0
100
AcDbLine
 10
224.7246655751999
 20
145.2914605199
 30
0.0
 11
224.2570882805999
 21
146.3848194254
 31
0.0
  0
LINE
  5
15BC0
330
20
100
AcDbEntity
  8
0
100
AcDbLine
 10
224.2570882805999
 20
146.3848194254
 30
0.0
 11
223.1548601261998
 21
149.1397259656
 31
0.0
  0
LINE
  5
15BC1
330
20
100
AcDbEntity
  8
0
100
AcDbLine
 10
215.2289011765
 20
169.2599771774998
 30
0.0
 11
216.4654645045
 21
166.1617590918
 31
0.0
  0
LINE
  5
15BC2
330
20
100
AcDbEntity
  8
0
100
AcDbLine
 10
216.5731841061999
 20
166.1617590918
 30
0.0
 11
215.2966050448998
 21
169.3599924103
 31
0.0
  0
LINE
  5
15BC7
330
20
100
AcDbEntity
  8
0
100
AcDbLine
 10
224.5831193167997
 20
145.3780762522999
 30
0.0
 11
216.4654645045
 21
166.1617590918
 31
0.0
  0
LINE
  5
15BC8
330
20
100
AcDbEntity
  8
0
100
AcDbLine
 10
215.2741121686998
 20
169.3189817132999
 30
0.0
 11
223.1548601261998
 21
149.1397259656
 31
0.0
  0
LINE
  5
15BC9
330
20
100
AcDbEntity
  8
0
100
AcDbLine
 10
216.5731841061999
 20
166.1617590918
 30
0.0
 11
224.7246655751999
 21
145.2914605199
 31
0.0
  0
LINE
  5
15BCA
330
20
100
AcDbEntity
  8
0
100
AcDbLine
 10
226.7888832140999
 20
143.2582398765999
 30
0.0
 11
218.0275564186
 21
165.6922848488999
 31
0.0
  0
LINE
  5
15BCB
330
20
100
AcDbEntity
  8
0
100
AcDbLine
 10
228.7995793441999
 20
145.9760869323
 30
0.0
 11
220.5124533559998
 21
167.1922848488998
 31
0.0
  0
LWPOLYLINE
  5
15BF5
330
20
100
AcDbEntity
  8
0
100
AcDbPolyline
 90
        7
 70
     0
 43
0.0
 10
224.5831193167997
 20
238.3764436978001
 10
224.6348860693
 20
238.6418954079999
 10
224.5875937944997
 20
238.9087185343
 10
224.4453575776998
 20
239.1500451783999
 10
224.2207127827999
 20
239.3431146069999
 10
223.9357117613
 20
239.4678104521001
 10
223.6147847867999
 20
239.5115047575
  0
LINE
  5
15BF7
330
20
100
AcDbEntity
  8
0
100
AcDbLine
 10
224.2570882805999
 20
237.3697005246999
 30
0.0
 11
224.3329442163999
 21
237.7358512869998
 31
0.0
  0
LINE
  5
15BFA
330
20
100
AcDbEntity
  8
0
100
AcDbLine
 10
224.7730360034998
 20
238.6644004914999
 30
0.0
 11
224.7246655751999
 21
238.4630594302
 31
0.0
  0
LINE
  5
15C53
330
20
100
AcDbEntity
  8
0
100
AcDbLine
 10
224.7246655751999
 20
145.2914605199
 30
0.0
 11
224.7730425917998
 21
145.0900514599998
 31
0.0
  0
LINE
  5
15C58
330
20
100
AcDbEntity
  8
0
100
AcDbLine
 10
224.2570882805999
 20
146.3848194254
 30
0.0
 11
224.3329442163999
 21
146.0186686630999
 31
0.0
  0
LINE
  5
15C67
330
20
100
AcDbEntity
  8
0
100
AcDbLine
 10
218.0275564186
 20
165.6922848488999
 30
0.0
 11
218.0275564186
 21
218.0622351011999
 31
0.0
  0
LINE
  5
15CBC
330
20
100
AcDbEntity
  8
0
100
AcDbLine
 10
214.3682888278998
 20
169.9884525044
 30
0.0
 11
214.3493049671
 21
169.9538397071
 31
0.0
  0
LINE
  5
15CC0
330
20
100
AcDbEntity
  8
0
100
AcDbLine
 10
215.2966050448998
 20
169.3599924103
 30
0.0
 11
215.2741121686998
 21
169.3189817132999
 31
0.0
  0
LWPOLYLINE
  5
15CCE
330
20
100
AcDbEntity
  8
0
100
AcDbPolyline
 90
        5
 70
     0
 43
0.0
 10
218.0275564186
 20
165.6922848488999
 10
218.7748041029999
 20
165.9639387998999
 10
219.4695071349999
 20
166.3220674121998
 10
220.0626999972
 20
166.7414348353998
 10
220.5124533559998
 20
167.1922848488998
  0
LINE
  5
15CF6
330
20
100
AcDbEntity
  8
0
100
AcDbLine
 10
223.1548601261998
 20
234.6147939845
 30
0.0
 11
223.1140555581998
 21
234.6147939845
 31
0.0
  0
LINE
  5
15CF9
330
20
100
AcDbEntity
  8
0
100
AcDbLine
 10
135.5912125216
 20
234.6147939845
 30
0.0
 11
135.5504079536
 21
234.6147939845
 31
0.0
  0
LWPOLYLINE
  5
15CFA
330
20
100
AcDbEntity
  8
0
100
AcDbPolyline
 90
        5
 70
     0
 43
0.0
 10
218.0275564186
 20
218.0622351011999
 10
218.774731049
 20
217.7906130560999
 10
219.4693319949
 20
217.4325582650999
 10
220.0624848306999
 20
217.0132646504999
 10
220.5124533559998
 20
216.5622351012
  0
LINE
  5
15D09
330
20
100
AcDbEntity
  8
0
100
AcDbLine
 10
214.3493049671
 20
213.8006802429999
 30
0.0
 11
214.3682888278998
 21
213.7660674456999
 31
0.0
  0
LINE
  5
15D0D
330
20
100
AcDbEntity
  8
0
100
AcDbLine
 10
215.2741121686998
 20
214.4355382369
 30
0.0
 11
215.2966050448998
 21
214.3945275397999
 31
0.0
  0
LWPOLYLINE
  5
15D13
330
20
100
AcDbEntity
  8
0
100
AcDbPolyline
 90
        4
 70
     0
 43
0.0
 10
229.1353707821
 20
145.9724671831999
 10
229.1378657184999
 20
145.6456926284
 10
229.1433136231999
 20
145.3435320812999
 10
229.1500483036999
 20
145.0684298056
  0
LINE
  5
15D38
330
20
100
AcDbEntity
  8
0
100
AcDbLine
 10
226.1923247462
 20
143.0413745458999
 30
0.0
 11
226.1923247462
 21
142.0489851498
 31
0.0
  0
LINE
  5
15D42
330
20
100
AcDbEntity
  8
0
100
AcDbLine
 10
228.7995793441999
 20
237.7783786254
 30
0.0
 11
228.7995793441999
 21
145.9760869323
 31
0.0
  0
LINE
  5
15D43
330
20
100
AcDbEntity
  8
0
100
AcDbLine
 10
229.1353707821
 20
237.7820527668998
 30
0.0
 11
229.1353707821
 21
145.9724671831999
 31
0.0
  0
LINE
  5
15D44
330
20
100
AcDbEntity
  8
0
100
AcDbLine
 10
229.3526340399
 20
144.8658440692998
 30
0.0
 11
229.3526340399
 21
238.8886758808
 31
0.0
  0
LINE
  5
15D45
330
20
100
AcDbEntity
  8
0
100
AcDbLine
 10
226.1923037918999
 20
240.7131454046
 30
0.0
 11
226.1923871159999
 21
241.7054803503998
 31
0.0
  0
LWPOLYLINE
  5
15D46
330
20
100
AcDbEntity
  8
0
100
AcDbPolyline
 90
        3
 70
     0
 43
0.0
 10
229.1403743202
 20
238.2642260219999
 10
229.1368750428999
 20
238.0299285015
 10
229.1353707821
 20
237.7820527668998
  0
LINE
  5
15D47
330
20
100
AcDbEntity
  8
0
100
AcDbLine
 10
229.1500483036999
 20
238.6860901446
 30
0.0
 11
229.1403743202
 21
238.2642260219999
 31
0.0
  0
LWPOLYLINE
  5
15D48
330
20
100
AcDbEntity
  8
0
100
AcDbPolyline
 90
        7
 70
     0
 43
0.0
 10
224.7730425917998
 20
145.0900514599998
 10
224.7639558777
 20
144.8843822334
 10
224.6978375976999
 20
144.6867078198999
 10
224.5789862558999
 20
144.5085993236
 10
224.4151174190999
 20
144.3601054958
 10
224.2158639638999
 20
144.2486943882999
 10
223.9924100339
 20
144.1797546772999
  0
LWPOLYLINE
  5
15D53
330
20
100
AcDbEntity
  8
0
100
AcDbPolyline
 90
        4
 70
     0
 43
0.0
 10
227.9977619844999
 20
241.0706731227
 10
227.6863557911
 20
241.0601709699999
 10
227.2664809626999
 20
240.8606552656999
 10
226.7888832104999
 20
240.4962393733999
  0
LINE
  5
15D54
330
20
100
AcDbEntity
  8
0
100
AcDbLine
 10
129.9056935737999
 20
237.7821819058
 30
0.0
 11
129.5698972991999
 21
237.7819758524001
 31
0.0
  0
LINE
  5
15D69
330
20
100
AcDbEntity
  8
0
100
AcDbLine
 10
228.7995793441999
 20
237.7820528113999
 30
0.0
 11
229.1353707821
 21
237.7820528113999
 31
0.0
  0
LINE
  5
15D70
330
20
100
AcDbEntity
  8
0
100
AcDbLine
 10
135.0904832929998
 20
239.5115047575
 30
0.0
 11
223.6147847867999
 21
239.5115047575
 31
0.0
  0
LINE
  5
15D71
330
20
100
AcDbEntity
  8
0
100
AcDbLine
 10
134.9489370345999
 20
239.5981204897999
 30
0.0
 11
223.7563310451998
 21
239.5981204897999
 31
0.0
  0
LINE
  5
15D76
330
20
100
AcDbEntity
  8
0
100
AcDbLine
 10
132.5129433088999
 20
240.7131454042
 30
0.0
 11
226.1923247708998
 21
240.7131454042
 31
0.0
  0
LINE
  5
15D77
330
20
100
AcDbEntity
  8
0
100
AcDbLine
 10
132.5129433088999
 20
241.7055348004
 30
0.0
 11
226.1923247708998
 21
241.7055348004
 31
0.0
  0
LINE
  5
15D78
330
20
100
AcDbEntity
  8
0
100
AcDbLine
 10
226.3640499455998
 20
241.8772599750999
 30
0.0
 11
132.3412181342
 21
241.8772599750999
 31
0.0
  0
LWPOLYLINE
  5
15D7A
330
20
100
AcDbEntity
  8
0
100
AcDbPolyline
 90
        4
 70
     0
 43
0.0
 10
130.7074462328
 20
241.0707510634999
 10
131.0189052136999
 20
241.0602735838001
 10
131.4388016201999
 20
240.8607459904001
 10
131.9163848656999
 20
240.4962800733999
  0
LWPOLYLINE
  5
15D88
330
20
100
AcDbEntity
  8
0
100
AcDbPolyline
 90
        9
 70
     0
 43
0.0
 10
229.3526340399
 20
144.8658440692998
 10
229.2955196046999
 20
144.282570886
 10
229.1260437006
 20
143.7215651469
 10
228.8502841921999
 20
143.2043981199001
 10
228.4786545251999
 20
142.7512078383998
 10
228.0254641688999
 20
142.3795886588995
 10
227.5083081816998
 20
142.1038417745999
 10
226.9473162028998
 20
141.9343730397
 10
226.3640499455998
 20
141.8772599751
  0
LWPOLYLINE
  5
15D8A
330
20
100
AcDbEntity
  8
0
100
AcDbPolyline
 90
        5
 70
     0
 43
0.0
 10
229.1500483036999
 20
145.0684298056
 10
229.0855771493998
 20
144.4372399999999
 10
228.8789136853
 20
143.8091278261
 10
228.5152225532999
 20
143.2073004200001
 10
227.9978532978998
 20
142.6837279440998
  0
LWPOLYLINE
  5
15D8F
330
20
100
AcDbEntity
  8
0
100
AcDbPolyline
 90
        7
 70
     0
 43
0.0
 10
135.0904832929998
 20
239.5115047575
 10
134.7695563184996
 20
239.4678104521001
 10
134.484555297
 20
239.3431146069999
 10
134.2599105020999
 20
239.1500451783999
 10
134.1176742853
 20
238.9087185343
 10
134.0703820104998
 20
238.6418954079999
 10
134.1221487629999
 20
238.3764436978001
  0
LINE
  5
15D90
330
20
100
AcDbEntity
  8
0
100
AcDbLine
 10
134.7128580458999
 20
239.5747652729
 30
0.0
 11
134.9489370345999
 21
239.5981204897999
 31
0.0
  0
LWPOLYLINE
  5
15D95
330
20
100
AcDbEntity
  8
0
100
AcDbPolyline
 90
        9
 70
     0
 43
0.0
 10
226.3640499455998
 20
241.8772599750999
 10
226.9473231289999
 20
241.8201455399
 10
227.5083288680999
 20
241.6506696358001
 10
228.0254958950999
 20
241.3749101273999
 10
228.4786861766
 20
241.0032804602999
 10
228.8503053560998
 20
240.5500901039999
 10
229.1260522403999
 20
240.0329341167998
 10
229.2955209752999
 20
239.4719421381
 10
229.3526340399
 20
238.8886758808
  0
LINE
  5
15D97
330
20
100
AcDbEntity
  8
0
100
AcDbLine
 10
223.7563310451998
 20
239.5981204897999
 30
0.0
 11
223.9924869678999
 21
239.5747498302
 31
0.0
  0
LWPOLYLINE
  5
15D98
330
20
100
AcDbEntity
  8
0
100
AcDbPolyline
 90
        4
 70
     0
 43
0.0
 10
226.1923247708998
 20
240.7131454042
 10
226.4049943894999
 20
240.6888257348
 10
226.6081013042998
 20
240.6154602061999
 10
226.7888832140999
 20
240.4962800734999
  0
LWPOLYLINE
  5
15D99
330
20
100
AcDbEntity
  8
0
100
AcDbPolyline
 90
        4
 70
     0
 43
0.0
 10
226.1923247708998
 20
241.7055348004
 10
226.8343446553998
 20
241.6311345315
 10
227.4454715755998
 20
241.4169279348
 10
227.9978532978998
 20
241.0707920060001
  0
LWPOLYLINE
  5
15D9B
330
20
100
AcDbEntity
  8
0
100
AcDbPolyline
 90
        7
 70
     0
 43
0.0
 10
223.9924869678999
 20
239.5747498302
 10
224.2160867855
 20
239.5057305954999
 10
224.4154446738
 20
239.3941804344001
 10
224.5792839384999
 20
239.2455771230999
 10
224.6980042484996
 20
239.0674737972999
 10
224.7639954267998
 20
238.8699255986999
 10
224.7730360034998
 20
238.6644004914999
  0
LWPOLYLINE
  5
15DA2
330
20
100
AcDbEntity
  8
0
100
AcDbPolyline
 90
        4
 70
     0
 43
0.0
 10
228.8001537454999
 20
145.9746148712999
 10
228.6261247205
 20
145.4520121818999
 10
228.4626106356999
 20
145.0060584218999
 10
228.3144533498
 20
144.615305869
  0
LWPOLYLINE
  5
15DA3
330
20
100
AcDbEntity
  8
0
100
AcDbPolyline
 90
        5
 70
     0
 43
0.0
 10
228.3144533498
 20
144.615305869
 10
228.1370562819998
 20
144.2955212298999
 10
227.8282408498998
 20
143.9444718704999
 10
227.3759356500999
 20
143.5846491501
 10
226.7888832140999
 20
143.2582398765999
  0
LWPOLYLINE
  5
15DA6
330
20
100
AcDbEntity
  8
0
100
AcDbPolyline
 90
        6
 70
     0
 43
0.0
 10
226.7888832140999
 20
240.4962800734999
 10
227.265785178
 20
240.2411848824001
 10
227.6632197572999
 20
239.9564015519998
 10
227.9666860306999
 20
239.6682852522001
 10
228.1817566333999
 20
239.3923828342999
 10
228.3144533498
 20
239.1392140810999
  0
LWPOLYLINE
  5
15DA9
330
20
100
AcDbEntity
  8
0
100
AcDbPolyline
 90
        5
 70
     0
 43
0.0
 10
228.3144533498
 20
239.1392140810999
 10
228.4246189329
 20
238.8517593745
 10
228.5421064720999
 20
238.5335857955999
 10
228.6682236998
 20
238.1801180252
 10
228.8001755262
 20
237.7799064902001
  0
LWPOLYLINE
  5
15DAB
330
20
100
AcDbEntity
  8
0
100
AcDbPolyline
 90
        4
 70
     0
 43
0.0
 10
229.1498899793999
 20
145.0684298029
 10
229.0190519464998
 20
144.8988977848
 10
228.7325916536
 20
144.7435263682
 10
228.3144583386
 20
144.6153039153
  0
LWPOLYLINE
  5
15DAC
330
20
100
AcDbEntity
  8
0
100
AcDbPolyline
 90
        4
 70
     0
 43
0.0
 10
226.7888832140999
 20
143.2582398765999
 10
226.6081702200998
 20
143.1390964353999
 10
226.4050711293
 20
143.0657112563999
 10
226.1923247708998
 20
143.0413745458999
  0
LWPOLYLINE
  5
15DAD
330
20
100
AcDbEntity
  8
0
100
AcDbPolyline
 90
        4
 70
     0
 43
0.0
 10
227.9978532978998
 20
142.6837279440998
 10
227.4454467046998
 20
142.3375836428
 10
226.8343219447999
 20
142.1233786159
 10
226.1923247708998
 20
142.0489851498
  0
LWPOLYLINE
  5
15DAE
330
20
100
AcDbEntity
  8
0
100
AcDbPolyline
 90
        6
 70
     0
 43
0.0
 10
227.9978532978998
 20
241.0707920060001
 10
228.4211143929999
 20
240.6627706215999
 10
228.7515664702
 20
240.1938066401001
 10
228.9786027407
 20
239.6983458340999
 10
229.1091053175998
 20
239.1927605815999
 10
229.1500483036999
 20
238.6860901446
  0
LWPOLYLINE
  5
15DAF
330
20
100
AcDbEntity
  8
0
100
AcDbPolyline
 90
        4
 70
     0
 43
0.0
 10
229.1500483036999
 20
238.6860901446
 10
229.0191428417998
 20
238.8556337533
 10
228.7326279904998
 20
239.0110046134
 10
228.3144547477998
 20
239.1392146287
  0
LINE
  5
15EFB
330
20
100
AcDbEntity
  8
0
100
AcDbLine
 10
133.9368123318999
 20
102.0758616239946
 30
0.0
 11
133.9322320762999
 21
102.1790657119947
 31
0.0
  0
LINE
  5
15F01
330
20
100
AcDbEntity
  8
0
100
AcDbLine
 10
132.5129642878999
 20
100.9962222836948
 30
0.0
 11
132.5128809637999
 21
99.43847825499485
 31
0.0
  0
LINE
  5
15F02
330
20
100
AcDbEntity
  8
0
100
AcDbLine
 10
129.5698972982999
 20
99.95898564139487
 30
0.0
 11
129.3526340399
 21
97.4756552345948
 31
0.0
  0
LINE
  5
15F05
330
20
100
AcDbEntity
  8
0
100
AcDbLine
 10
132.5129433088999
 20
99.43848296309477
 30
0.0
 11
132.3412181342
 21
97.4756552345948
 31
0.0
  0
LWPOLYLINE
  5
15F07
330
20
100
AcDbEntity
  8
0
100
AcDbPolyline
 90
        4
 70
     0
 43
0.0
 10
129.5552197760999
 20
99.79122079559477
 10
129.6861252379997
 20
100.3283401489946
 10
129.9726400893
 20
100.8059879071949
 10
130.3908133319999
 20
101.1842354579947
  0
LINE
  5
15F0B
330
20
100
AcDbEntity
  8
0
100
AcDbLine
 10
134.0883080897
 20
101.8761558337947
 30
0.0
 11
133.9806025045999
 21
102.2953100279948
 31
0.0
  0
LINE
  5
15F0D
330
20
100
AcDbEntity
  8
0
100
AcDbLine
 10
134.1547611475999
 20
101.8284538439947
 30
0.0
 11
134.0788784762999
 21
102.1237638775948
 31
0.0
  0
LINE
  5
15F11
330
20
100
AcDbEntity
  8
0
100
AcDbLine
 10
140.6777116611999
 20
114.4756552345947
 30
0.0
 11
140.6777116611999
 21
114.0737314459947
 31
0.0
  0
LWPOLYLINE
  5
15F1E
330
20
100
AcDbEntity
  8
0
100
AcDbPolyline
 90
        3
 70
     0
 43
0.0
 10
134.1221487629999
 20
102.3453176443948
 10
134.0703820104998
 20
102.1920590280947
 10
134.0785287401999
 20
102.1261202540947
  0
LINE
  5
15F1F
330
20
100
AcDbEntity
  8
0
100
AcDbLine
 10
133.9322320762999
 20
102.1790657119947
 30
0.0
 11
133.9806025045999
 21
102.2953100279948
 31
0.0
  0
LWPOLYLINE
  5
15F20
330
20
100
AcDbEntity
  8
0
100
AcDbPolyline
 90
        4
 70
     0
 43
0.0
 10
130.7075060952999
 20
99.63288346309479
 10
131.0189122886999
 20
100.2544198935948
 10
131.4387871170999
 20
100.7714059455947
 10
131.9163848692999
 20
101.1213590419949
  0
LWPOLYLINE
  5
15F22
330
20
100
AcDbEntity
  8
0
100
AcDbPolyline
 90
        5
 70
     0
 43
0.0
 10
134.0785287401999
 20
102.1261202540947
 10
134.1176742853
 20
102.0380086242947
 10
134.2599105020999
 20
101.8986786212948
 10
134.484555297
 20
101.7872099346948
 10
134.7695563184996
 20
101.7152167549947
  0
LINE
  5
15F28
330
20
100
AcDbEntity
  8
0
100
AcDbLine
 10
135.1033332170999
 20
101.6399822196948
 30
0.0
 11
135.0904832929998
 21
101.6899898360948
 31
0.0
  0
LINE
  5
15F33
330
20
100
AcDbEntity
  8
0
100
AcDbLine
 10
138.1928147237999
 20
113.1565143037948
 30
0.0
 11
129.9050925536
 21
100.9043641836947
 31
0.0
  0
LINE
  5
15F34
330
20
100
AcDbEntity
  8
0
100
AcDbLine
 10
140.6777116611999
 20
114.0737314459947
 30
0.0
 11
131.9163848656999
 21
101.1214295421948
 31
0.0
  0
LINE
  5
15F36
330
20
100
AcDbEntity
  8
0
100
AcDbLine
 10
141.9478812125998
 20
114.0737314459947
 30
0.0
 11
133.9806025045999
 21
102.2953100279948
 31
0.0
  0
LINE
  5
15F37
330
20
100
AcDbEntity
  8
0
100
AcDbLine
 10
134.1221487629999
 20
102.3453176443948
 30
0.0
 11
142.0556008142999
 21
114.0737314459947
 31
0.0
  0
LINE
  5
15F42
330
20
100
AcDbEntity
  8
0
100
AcDbLine
 10
138.3640216544999
 20
113.3855087836947
 30
0.0
 11
138.3329396374996
 21
113.3456561653948
 31
0.0
  0
LINE
  5
15F44
330
20
100
AcDbEntity
  8
0
100
AcDbLine
 10
138.3799987728999
 20
113.4047887753949
 30
0.0
 11
138.3640216544999
 21
113.3855087836947
 31
0.0
  0
LINE
  5
15F45
330
20
100
AcDbEntity
  8
0
100
AcDbLine
 10
142.1320839735999
 20
114.2931038435947
 30
0.0
 11
141.9478812125998
 21
114.0737314459947
 31
0.0
  0
LINE
  5
15F46
330
20
100
AcDbEntity
  8
0
100
AcDbLine
 10
142.0556008142999
 20
114.0737314459947
 30
0.0
 11
142.2398035752999
 21
114.2931038435947
 31
0.0
  0
LINE
  5
15F47
330
20
100
AcDbEntity
  8
0
100
AcDbLine
 10
138.3992035562
 20
113.4271676776948
 30
0.0
 11
138.3787716589999
 21
113.4030562998947
 31
0.0
  0
LINE
  5
15F52
330
20
100
AcDbEntity
  8
0
100
AcDbLine
 10
142.3321265434998
 20
114.4293782407945
 30
0.0
 11
142.1320839735999
 21
114.2931038435947
 31
0.0
  0
LINE
  5
15F53
330
20
100
AcDbEntity
  8
0
100
AcDbLine
 10
142.2398035752999
 20
114.2931038435947
 30
0.0
 11
142.4398461452
 21
114.4293782407945
 31
0.0
  0
LWPOLYLINE
  5
15F59
330
20
100
AcDbEntity
  8
0
100
AcDbPolyline
 90
        5
 70
     0
 43
0.0
 10
134.2898234059999
 20
101.7577270655948
 10
134.1259841412999
 20
101.8435232273948
 10
134.0072638312999
 20
101.9463512303947
 10
133.9412726529997
 20
102.0604057360948
 10
133.9368123318999
 20
102.0758616239946
  0
LWPOLYLINE
  5
15F5B
330
20
100
AcDbEntity
  8
0
100
AcDbPolyline
 90
        5
 70
     0
 43
0.0
 10
223.9357117613
 20
101.7152167549947
 10
224.2207127827999
 20
101.7872099346948
 10
224.4453575776998
 20
101.8986786212948
 10
224.5875937944997
 20
102.0380086242947
 10
224.6267393395999
 20
102.1261202540947
  0
LINE
  5
15F5E
330
20
100
AcDbEntity
  8
0
100
AcDbLine
 10
228.5152225532999
 20
99.70799115739477
 30
0.0
 11
227.4454467046998
 21
99.55197958389488
 31
0.0
  0
LWPOLYLINE
  5
15F63
330
20
100
AcDbEntity
  8
0
100
AcDbPolyline
 90
        6
 70
     0
 43
0.0
 10
131.2597965042
 20
99.55195474259486
 10
130.2841536867999
 20
99.69630014139477
 10
129.9537016095999
 20
99.73383702089485
 10
129.7266653390997
 20
99.75530500319486
 10
129.5961627621998
 20
99.77126222669484
 10
129.5552197760999
 20
99.79122079559477
  0
LWPOLYLINE
  5
15F64
330
20
100
AcDbEntity
  8
0
100
AcDbPolyline
 90
        5
 70
     0
 43
0.0
 10
131.9163848656999
 20
101.1214295421948
 10
131.4394829018
 20
101.2127251978949
 10
131.0420483224999
 20
101.2364516780947
 10
130.7385820490997
 20
101.2221341321948
 10
130.5235114463999
 20
101.1969565016948
  0
LWPOLYLINE
  5
15F69
330
20
100
AcDbEntity
  8
0
100
AcDbPolyline
 90
        3
 70
     0
 43
0.0
 10
227.4454467046998
 20
99.55197958389488
 10
226.8343219447999
 20
99.48578439499478
 10
226.1923247708998
 20
99.43848296309477
  0
LINE
  5
15F6A
330
20
100
AcDbEntity
  8
0
100
AcDbLine
 10
229.0855771493998
 20
99.76738994939481
 30
0.0
 11
228.5152225532999
 21
99.70799115739477
 31
0.0
  0
LINE
  5
15F6B
330
20
100
AcDbEntity
  8
0
100
AcDbLine
 10
223.6147847867999
 20
101.6899898360948
 30
0.0
 11
223.9357117613
 21
101.7152167549947
 31
0.0
  0
LINE
  5
15F6E
330
20
100
AcDbEntity
  8
0
100
AcDbLine
 10
129.3526340399
 20
97.4756552345948
 30
0.0
 11
229.3526340399
 21
97.4756552345948
 31
0.0
  0
LINE
  5
15F7B
330
20
100
AcDbEntity
  8
0
100
AcDbLine
 10
226.1923247708998
 20
99.43848296309477
 30
0.0
 11
132.5129433088999
 21
99.43848296309477
 31
0.0
  0
LWPOLYLINE
  5
15F80
330
20
100
AcDbEntity
  8
0
100
AcDbPolyline
 90
        4
 70
     0
 43
0.0
 10
134.9489370345999
 20
101.6399822196948
 10
134.7127811118999
 20
101.6534752762948
 10
134.4891812942996
 20
101.6933235499946
 10
134.2898234059999
 20
101.7577270655948
  0
LWPOLYLINE
  5
15F81
330
20
100
AcDbEntity
  8
0
100
AcDbPolyline
 90
        4
 70
     0
 43
0.0
 10
132.5129433088999
 20
100.9962222851948
 10
132.3002736902999
 20
101.0102632528947
 10
132.0971667754998
 20
101.0526208605947
 10
131.9163848656999
 20
101.1214295421948
  0
LWPOLYLINE
  5
15F82
330
20
100
AcDbEntity
  8
0
100
AcDbPolyline
 90
        3
 70
     0
 43
0.0
 10
132.5129433088999
 20
99.43848296309477
 10
131.8709234243994
 20
99.48580126239484
 10
131.2597965042
 20
99.55195474259486
  0
LINE
  5
15F83
330
20
100
AcDbEntity
  8
0
100
AcDbLine
 10
134.7695563184996
 20
101.7152167549947
 30
0.0
 11
135.0904832929998
 21
101.6899898360948
 31
0.0
  0
LWPOLYLINE
  5
15F8B
330
20
100
AcDbEntity
  8
0
100
AcDbPolyline
 90
        5
 70
     0
 43
0.0
 10
130.5235114463999
 20
101.1969565016948
 10
130.2806491469
 20
101.1739949725948
 10
130.1631616076999
 20
101.1359843728947
 10
130.0370443799999
 20
101.0541843648947
 10
129.9050925536
 20
100.9043641836947
  0
LINE
  5
15F8E
330
20
100
AcDbEntity
  8
0
100
AcDbLine
 10
226.1923247708998
 20
100.9962222851948
 30
0.0
 11
132.5129433088999
 21
100.9962222851948
 31
0.0
  0
LINE
  5
15F8F
330
20
100
AcDbEntity
  8
0
100
AcDbLine
 10
134.9489370345999
 20
101.6399822196948
 30
0.0
 11
223.7563310451998
 21
101.6399822196948
 31
0.0
  0
LINE
  5
15F90
330
20
100
AcDbEntity
  8
0
100
AcDbLine
 10
223.6147847867999
 20
101.6899898360948
 30
0.0
 11
135.0904832929998
 21
101.6899898360948
 31
0.0
  0
LWPOLYLINE
  5
15FAA
330
20
100
AcDbEntity
  8
0
100
AcDbPolyline
 90
        5
 70
     0
 43
0.0
 10
228.3144533498
 20
101.1842335638944
 10
228.1370562819998
 20
101.2024447497947
 10
227.8282408498998
 20
101.2320907749947
 10
227.3759356500999
 20
101.2241925244947
 10
226.7888832140999
 20
101.1214295421948
  0
LWPOLYLINE
  5
15FAC
330
20
100
AcDbEntity
  8
0
100
AcDbPolyline
 90
        5
 70
     0
 43
0.0
 10
218.0275564186
 20
114.0737314459947
 10
218.7748041029999
 20
114.1086738221948
 10
219.4695071349999
 20
113.9582949072947
 10
220.0626999972
 20
113.6331827268947
 10
220.5124533559998
 20
113.1565143037948
  0
LWPOLYLINE
  5
15FCE
330
20
100
AcDbEntity
  8
0
100
AcDbPolyline
 90
        5
 70
     0
 43
0.0
 10
140.6777116611999
 20
114.0737314459947
 10
139.9304639767999
 20
114.1086738221948
 10
139.2357609447999
 20
113.9582949072947
 10
138.6425680826
 20
113.6331827268947
 10
138.1928147237999
 20
113.1565143037948
  0
LINE
  5
15FD9
330
20
100
AcDbEntity
  8
0
100
AcDbLine
 10
140.6777116611999
 20
114.0737314459947
 30
0.0
 11
141.9478812125998
 21
114.0737314459947
 31
0.0
  0
LINE
  5
15FDA
330
20
100
AcDbEntity
  8
0
100
AcDbLine
 10
142.0556008142999
 20
114.0737314459947
 30
0.0
 11
216.6496672655
 21
114.0737314459947
 31
0.0
  0
LINE
  5
15FDB
330
20
100
AcDbEntity
  8
0
100
AcDbLine
 10
216.7573868672
 20
114.0737314459947
 30
0.0
 11
218.0275564186
 21
114.0737314459947
 31
0.0
  0
LINE
  5
15FDC
330
20
100
AcDbEntity
  8
0
100
AcDbLine
 10
140.6777116611999
 20
114.4756552345947
 30
0.0
 11
218.0275564186
 21
114.4756552345947
 31
0.0
  0
LWPOLYLINE
  5
15FE3
330
20
100
AcDbEntity
  8
0
100
AcDbPolyline
 90
        4
 70
     0
 43
0.0
 10
224.4151174190999
 20
101.7575919540946
 10
224.2158639638999
 20
101.6932687211947
 10
223.9924100339
 20
101.6534663604948
 10
223.7563310451998
 20
101.6399822196948
  0
LINE
  5
15FE5
330
20
100
AcDbEntity
  8
0
100
AcDbLine
 10
142.4398461452
 20
114.4293782407945
 30
0.0
 11
142.6490906721998
 21
114.4756552345947
 31
0.0
  0
LINE
  5
15FE6
330
20
100
AcDbEntity
  8
0
100
AcDbLine
 10
142.5413710704999
 20
114.4756552345947
 30
0.0
 11
142.3321265434998
 21
114.4293782407945
 31
0.0
  0
LINE
  5
15FE7
330
20
100
AcDbEntity
  8
0
100
AcDbLine
 10
216.0561774075999
 20
114.4756552345947
 30
0.0
 11
216.2654219345998
 21
114.4293782407945
 31
0.0
  0
LINE
  5
15FE8
330
20
100
AcDbEntity
  8
0
100
AcDbLine
 10
216.3731415362998
 20
114.4293782407945
 30
0.0
 11
216.1638970093
 21
114.4756552345947
 31
0.0
  0
LWPOLYLINE
  5
15FEB
330
20
100
AcDbEntity
  8
0
100
AcDbPolyline
 90
        4
 70
     0
 43
0.0
 10
226.7888832140999
 20
101.1214295421948
 10
226.6081702200998
 20
101.0526420443948
 10
226.4050711293
 20
101.0102730914947
 10
226.1923247708998
 20
100.9962222851948
  0
LINE
  5
15FEC
330
20
100
AcDbEntity
  8
0
100
AcDbLine
 10
229.1500483036999
 20
99.79122079559477
 30
0.0
 11
229.0855771493998
 21
99.76738994939481
 31
0.0
  0
LINE
  5
15FF1
330
20
100
AcDbEntity
  8
0
100
AcDbLine
 10
216.2654219345998
 20
114.4293782407945
 30
0.0
 11
216.4654645045
 21
114.2931038435947
 31
0.0
  0
LWPOLYLINE
  5
15FF4
330
20
100
AcDbEntity
  8
0
100
AcDbPolyline
 90
        4
 70
     0
 43
0.0
 10
228.7994828091
 20
100.9053895597947
 10
228.6261247205
 20
101.0866090725947
 10
228.4626106356999
 20
101.1654829472949
 10
228.3144533498
 20
101.1842335638944
  0
LINE
  5
15FF5
330
20
100
AcDbEntity
  8
0
100
AcDbLine
 10
216.4654645045
 20
114.2931038435947
 30
0.0
 11
216.6496672655
 21
114.0737314459947
 31
0.0
  0
LINE
  5
16000
330
20
100
AcDbEntity
  8
0
100
AcDbLine
 10
218.0275564186
 20
114.4756552345947
 30
0.0
 11
218.0275564186
 21
114.0737314459947
 31
0.0
  0
LWPOLYLINE
  5
16009
330
20
100
AcDbEntity
  8
0
100
AcDbPolyline
 90
        3
 70
     0
 43
0.0
 10
216.7573868672
 20
114.0737314459947
 10
216.5731841061999
 20
114.2931038435947
 10
216.3731415362998
 20
114.4293782407945
  0
LINE
  5
1600A
330
20
100
AcDbEntity
  8
0
100
AcDbLine
 10
220.3440223409999
 20
113.3821564716949
 30
0.0
 11
220.3263209333999
 21
113.4035334332947
 31
0.0
  0
LINE
  5
1600D
330
20
100
AcDbEntity
  8
0
100
AcDbLine
 10
220.3773473945
 20
113.3391842994948
 30
0.0
 11
220.3440223409999
 21
113.3821564716949
 31
0.0
  0
LINE
  5
16012
330
20
100
AcDbEntity
  8
0
100
AcDbLine
 10
224.5831193167997
 20
102.3453176443948
 30
0.0
 11
216.6496672655
 21
114.0737314459947
 31
0.0
  0
LINE
  5
16013
330
20
100
AcDbEntity
  8
0
100
AcDbLine
 10
216.7573868672
 20
114.0737314459947
 30
0.0
 11
224.7246655751999
 21
102.2953100279948
 31
0.0
  0
LINE
  5
16015
330
20
100
AcDbEntity
  8
0
100
AcDbLine
 10
226.7888832140999
 20
101.1214295421948
 30
0.0
 11
218.0275564186
 21
114.0737314459947
 31
0.0
  0
LINE
  5
16016
330
20
100
AcDbEntity
  8
0
100
AcDbLine
 10
228.7995793441999
 20
100.9052468623946
 30
0.0
 11
220.5124533559998
 21
113.1565143037948
 31
0.0
  0
LINE
  5
16023
330
20
100
AcDbEntity
  8
0
100
AcDbLine
 10
226.1923247708998
 20
99.43848296309477
 30
0.0
 11
226.3640499455998
 21
97.4756552345948
 31
0.0
  0
LWPOLYLINE
  5
16028
330
20
100
AcDbEntity
  8
0
100
AcDbPolyline
 90
        3
 70
     0
 43
0.0
 10
224.6267393395999
 20
102.1261202540947
 10
224.6348860693
 20
102.1920590280947
 10
224.5831193167997
 20
102.3453176443948
  0
LINE
  5
16029
330
20
100
AcDbEntity
  8
0
100
AcDbLine
 10
223.6147847867999
 20
101.6899898360948
 30
0.0
 11
223.6019348626999
 21
101.6399822196948
 31
0.0
  0
LINE
  5
16030
330
20
100
AcDbEntity
  8
0
100
AcDbLine
 10
224.6263896034999
 20
102.1237638775948
 30
0.0
 11
224.5504983941998
 21
101.8284206167948
 31
0.0
  0
LINE
  5
16032
330
20
100
AcDbEntity
  8
0
100
AcDbLine
 10
224.7246655751999
 20
102.2953100279948
 30
0.0
 11
224.6169679877999
 21
101.8761869579948
 31
0.0
  0
LWPOLYLINE
  5
16035
330
20
100
AcDbEntity
  8
0
100
AcDbPolyline
 90
        5
 70
     0
 43
0.0
 10
224.7684552281
 20
102.0758615776947
 10
224.7639558777
 20
102.0602832696948
 10
224.6978375976999
 20
101.9461558937947
 10
224.5789862558999
 20
101.8433249055947
 10
224.4151174190999
 20
101.7575919540946
  0
LWPOLYLINE
  5
16037
330
20
100
AcDbEntity
  8
0
100
AcDbPolyline
 90
        4
 70
     0
 43
0.0
 10
227.997821847
 20
99.63289551989477
 10
227.6863628661
 20
100.2544315359944
 10
227.2664664595999
 20
100.7714370062948
 10
226.7888832140999
 20
101.1214295419949
  0
LWPOLYLINE
  5
16038
330
20
100
AcDbEntity
  8
0
100
AcDbPolyline
 90
        3
 70
     0
 43
0.0
 10
224.7246655751999
 20
102.2953100279948
 10
224.7730425917998
 20
102.1790264529949
 10
224.7684552281
 20
102.0758615776947
  0
LINE
  5
1603C
330
20
100
AcDbEntity
  8
0
100
AcDbLine
 10
229.3526340399
 20
97.4756552345948
 30
0.0
 11
229.1353707821
 21
99.95898563509479
 31
0.0
  0
LINE
  5
1603D
330
20
100
AcDbEntity
  8
0
100
AcDbLine
 10
226.1923247462
 20
100.9962222851948
 30
0.0
 11
226.1923247462
 21
99.43848296309477
 31
0.0
  0
LWPOLYLINE
  5
16043
330
20
100
AcDbEntity
  8
0
100
AcDbPolyline
 90
        4
 70
     0
 43
0.0
 10
229.1498899793999
 20
99.79120696449481
 10
229.0190519464998
 20
100.3283431259947
 10
228.7325916536
 20
100.8059990119948
 10
228.3144583386
 20
101.1842403229948
  0
LWPOLYLINE
  5
16147
330
20
100
AcDbEntity
  8
0
100
AcDbPolyline
 90
        4
 70
     0
 43
0.0
 10
282.9598373903073
 20
142.6837688866
 10
282.3383013742073
 20
142.6942463662999
 10
281.8212959039072
 20
142.8937739596999
 10
281.4713033682073
 20
143.2582398767999
  0
LINE
  5
16148
330
20
100
AcDbEntity
  8
0
100
AcDbLine
 10
283.1542499471073
 20
142.0489851498
 30
0.0
 11
285.1170776755072
 21
141.8772599751
 31
0.0
  0
LINE
  5
1614D
330
20
100
AcDbEntity
  8
0
100
AcDbLine
 10
281.6874899446073
 20
145.9723380443999
 30
0.0
 11
282.6337472589072
 21
145.9725440976999
 31
0.0
  0
LINE
  5
1614F
330
20
100
AcDbEntity
  8
0
100
AcDbLine
 10
282.8015121146071
 20
145.0684298056
 30
0.0
 11
285.1170776755072
 21
144.8658440692998
 31
0.0
  0
LINE
  5
16157
330
20
100
AcDbEntity
  8
0
100
AcDbLine
 10
281.8213269646071
 20
240.8606552656999
 30
0.0
 11
281.4713738682073
 21
240.4962393733999
 31
0.0
  0
LINE
  5
1615C
330
20
100
AcDbEntity
  8
0
100
AcDbLine
 10
268.117077675507
 20
167.1922848488998
 30
0.0
 11
269.4362186064072
 21
167.1922848488998
 31
0.0
  0
LWPOLYLINE
  5
1615E
330
20
100
AcDbEntity
  8
0
100
AcDbPolyline
 90
        4
 70
     0
 43
0.0
 10
283.1542499471073
 20
241.7055348004
 10
283.1069316477073
 20
241.6311345315
 10
283.0407781676072
 20
241.4169279348
 10
282.9598310540071
 20
241.0707920060001
  0
LINE
  5
1616B
330
20
100
AcDbEntity
  8
0
100
AcDbLine
 10
268.519001464207
 20
218.0622351011999
 30
0.0
 11
281.5965106250073
 21
240.7131454042
 31
0.0
  0
LINE
  5
1616D
330
20
100
AcDbEntity
  8
0
100
AcDbLine
 10
269.4362186064072
 20
216.5622351012
 30
0.0
 11
281.6874860478073
 21
237.7783786254
 31
0.0
  0
LINE
  5
16170
330
20
100
AcDbEntity
  8
0
100
AcDbLine
 10
281.5965106250073
 20
143.0413745458999
 30
0.0
 11
268.519001464207
 21
165.6922848488999
 31
0.0
  0
LINE
  5
16171
330
20
100
AcDbEntity
  8
0
100
AcDbLine
 10
281.6874860478073
 20
145.9760869323
 30
0.0
 11
269.4362186064072
 21
167.1922848488998
 31
0.0
  0
LWPOLYLINE
  5
1617B
330
20
100
AcDbEntity
  8
0
100
AcDbPolyline
 90
        5
 70
     0
 43
0.0
 10
268.519001464207
 20
218.0622351011999
 10
268.4840532412073
 20
217.7906130560999
 10
268.6343733480073
 20
217.4325582650999
 10
268.9593847633072
 20
217.0132646504999
 10
269.4362186064072
 20
216.5622351012
  0
LWPOLYLINE
  5
1617C
330
20
100
AcDbEntity
  8
0
100
AcDbPolyline
 90
        6
 70
     0
 43
0.0
 10
281.4713033680073
 20
240.4962800734999
 10
281.3800077123072
 20
240.2411848824001
 10
281.3562812321073
 20
239.9564015519998
 10
281.3705987780073
 20
239.6682852522001
 10
281.395776408507
 20
239.3923828342999
 10
281.4084993463071
 20
239.1392140810999
  0
LWPOLYLINE
  5
1618F
330
20
100
AcDbEntity
  8
0
100
AcDbPolyline
 90
        5
 70
     0
 43
0.0
 10
268.519001464207
 20
165.6922848488999
 10
268.4840590880073
 20
165.9639387998999
 10
268.6344380028073
 20
166.3220674121998
 10
268.9595501833073
 20
166.7414348353998
 10
269.4362186064072
 20
167.1922848488998
  0
LINE
  5
16191
330
20
100
AcDbEntity
  8
0
100
AcDbLine
 10
268.117077675507
 20
167.1922848488998
 30
0.0
 11
268.117077675507
 21
216.5622351012
 31
0.0
  0
LWPOLYLINE
  5
16199
330
20
100
AcDbEntity
  8
0
100
AcDbPolyline
 90
        5
 70
     0
 43
0.0
 10
282.8015121146071
 20
238.6860901446
 10
282.7429869414073
 20
238.4828161201999
 10
282.6909379781071
 20
238.2642260219999
 10
282.6509410552073
 20
238.0299285015
 10
282.6337472751071
 20
237.7820527668998
  0
LWPOLYLINE
  5
161B8
330
20
100
AcDbEntity
  8
0
100
AcDbPolyline
 90
        4
 70
     0
 43
0.0
 10
282.9598310540071
 20
142.6837279440998
 10
283.0407533263072
 20
142.3375836428
 10
283.1069485152072
 20
142.1233786159
 10
283.1542499471073
 20
142.0489851498
  0
LWPOLYLINE
  5
161C2
330
20
100
AcDbEntity
  8
0
100
AcDbPolyline
 90
        6
 70
     0
 43
0.0
 10
282.9598310540071
 20
241.0707920060001
 10
282.8964327688073
 20
240.6627706215999
 10
282.8588958893071
 20
240.1938066401001
 10
282.8374279070071
 20
239.6983458340999
 10
282.8214706835073
 20
239.1927605815999
 10
282.8015121146071
 20
238.6860901446
  0
LWPOLYLINE
  5
161C8
330
20
100
AcDbEntity
  8
0
100
AcDbPolyline
 90
        4
 70
     0
 43
0.0
 10
282.6337472751071
 20
145.9724671831999
 10
282.6622645294071
 20
145.6456926284
 10
282.7245343652073
 20
145.3435320812999
 10
282.8015121146071
 20
145.0684298056
  0
LWPOLYLINE
  5
161D3
330
20
100
AcDbEntity
  8
0
100
AcDbPolyline
 90
        5
 70
     0
 43
0.0
 10
281.4084993463071
 20
239.1392140810999
 10
281.4187379376073
 20
238.8517593745
 10
281.4567485373073
 20
238.5335857955999
 10
281.5385485453073
 20
238.1801180252
 10
281.6883687265071
 20
237.7799064902001
  0
LWPOLYLINE
  5
161D4
330
20
100
AcDbEntity
  8
0
100
AcDbPolyline
 90
        4
 70
     0
 43
0.0
 10
282.8015121146071
 20
145.0684298056
 10
282.8468181335073
 20
143.8091278261
 10
282.8847417527073
 20
143.2073004200001
 10
282.9598310540071
 20
142.6837279440998
  0
LINE
  5
161D7
330
20
100
AcDbEntity
  8
0
100
AcDbLine
 10
281.6874860478073
 20
237.7783786254
 30
0.0
 11
281.6874860478073
 21
145.9760869323
 31
0.0
  0
LINE
  5
161E0
330
20
100
AcDbEntity
  8
0
100
AcDbLine
 10
282.6337472751071
 20
237.7820527668998
 30
0.0
 11
282.6337472751071
 21
145.9724671831999
 31
0.0
  0
LINE
  5
161FB
330
20
100
AcDbEntity
  8
0
100
AcDbLine
 10
285.1170776755072
 20
141.8772599751
 30
0.0
 11
285.1170776755072
 21
241.8772599750999
 31
0.0
  0
LWPOLYLINE
  5
161FE
330
20
100
AcDbEntity
  8
0
100
AcDbPolyline
 90
        5
 70
     0
 43
0.0
 10
281.4084993463071
 20
144.615305869
 10
281.3902881604071
 20
144.2955212298999
 10
281.3606421352073
 20
143.9444718704999
 10
281.3685403857073
 20
143.5846491501
 10
281.4713033680073
 20
143.2582398765999
  0
LWPOLYLINE
  5
16211
330
20
100
AcDbEntity
  8
0
100
AcDbPolyline
 90
        4
 70
     0
 43
0.0
 10
281.6883364883072
 20
145.9746148712999
 10
281.5061238376073
 20
145.4520121818999
 10
281.4272499629073
 20
145.0060584218999
 10
281.4084993463071
 20
144.615305869
  0
LINE
  5
1621F
330
20
100
AcDbEntity
  8
0
100
AcDbLine
 10
268.117077675507
 20
216.5622351012
 30
0.0
 11
269.4362186064072
 21
216.5622351012
 31
0.0
  0
LINE
  5
16238
330
20
100
AcDbEntity
  8
0
100
AcDbLine
 10
282.8015121146071
 20
238.6860901446
 30
0.0
 11
285.1170776755072
 21
238.8886758808
 31
0.0
  0
LINE
  5
1623A
330
20
100
AcDbEntity
  8
0
100
AcDbLine
 10
281.6874860478073
 20
237.7820528113999
 30
0.0
 11
282.6337472751071
 21
237.7820528113999
 31
0.0
  0
LWPOLYLINE
  5
1623E
330
20
100
AcDbEntity
  8
0
100
AcDbPolyline
 90
        4
 70
     0
 43
0.0
 10
282.8015259457073
 20
145.0684298029
 10
282.2643897841073
 20
144.8988977848
 10
281.7867338982073
 20
144.7435263682
 10
281.4084925872073
 20
144.6153039153
  0
LINE
  5
16240
330
20
100
AcDbEntity
  8
0
100
AcDbLine
 10
283.1542499471073
 20
241.7055348004
 30
0.0
 11
285.1170776755072
 21
241.8772599750999
 31
0.0
  0
LWPOLYLINE
  5
16241
330
20
100
AcDbEntity
  8
0
100
AcDbPolyline
 90
        3
 70
     0
 43
0.0
 10
282.9598494471073
 20
241.0706731227
 10
282.3383130166071
 20
241.0601709699999
 10
281.8213269646071
 20
240.8606552656999
  0
LWPOLYLINE
  5
16249
330
20
100
AcDbEntity
  8
0
100
AcDbPolyline
 90
        4
 70
     0
 43
0.0
 10
282.8015121146071
 20
238.6860901446
 10
282.2643927612073
 20
238.8556337533
 10
281.7867450030071
 20
239.0110046134
 10
281.4084974522073
 20
239.1392146287
  0
ARC
  5
186FF
330
20
100
AcDbEntity
  8
0
100
AcDbCircle
 10
218.0275564186
 20
111.4756552345947
 30
0.0
 40
3.0
100
AcDbArc
 50
34.0756035077001
 51
90.0
  0
ARC
  5
18700
330
20
100
AcDbEntity
  8
0
100
AcDbCircle
 10
140.6777116611999
 20
111.4756552345947
 30
0.0
 40
3.0
100
AcDbArc
 50
90.0
 51
145.9243964922999
  0
ARC
  5
18701
330
20
100
AcDbEntity
  8
0
100
AcDbCircle
 10
227.1429824942999
 20
99.78466148069479
 30
0.0
 40
2.0
100
AcDbArc
 50
5.000364322101657
 51
34.07590786879917
  0
ARC
  5
18702
330
20
100
AcDbEntity
  8
0
100
AcDbCircle
 10
131.5622866938997
 20
99.78467414959482
 30
0.0
 40
2.0
100
AcDbArc
 50
145.9243964922999
 51
175.0
  0
ARC
  5
18707
330
20
100
AcDbEntity
  8
0
100
AcDbCircle
 10
271.117077675507
 20
167.1922848488998
 30
0.0
 40
3.0
100
AcDbArc
 50
180.0
 51
210.0000000000004
  0
ARC
  5
18708
330
20
100
AcDbEntity
  8
0
100
AcDbCircle
 10
271.117077675507
 20
216.5622351012
 30
0.0
 40
3.0
100
AcDbArc
 50
149.9999999999993
 51
180.0
  0
ARC
  5
18709
330
20
100
AcDbEntity
  8
0
100
AcDbCircle
 10
283.3285614326073
 20
239.7131454041999
 30
0.0
 40
2.0
100
AcDbArc
 50
94.99999999999976
 51
149.9999999999993
  0
ARC
  5
1870A
330
20
100
AcDbEntity
  8
0
100
AcDbCircle
 10
283.3285614326073
 20
144.0413745458999
 30
0.0
 40
2.0
100
AcDbArc
 50
210.0000000000004
 51
265.0000000000003
  0
INSERT
  5
187F3
330
20
100
AcDbEntity
  8
dim
100
AcDbBlockReference
  2
lt1_1
 10
101.5693468294176
 20
157.8057519116056
 30
0.0
  0
MTEXT
  5
1887E
330
20
100
AcDbEntity
  8
3
100
AcDbMText
 10
316.067799290592
 20
99.60196881314088
 30
0.0
 40
2.5
 41
27.10399999999999
 71
     1
 72
     5
  1

 73
     1
 44
1.0
  0
MTEXT
  5
1887F
330
20
100
AcDbEntity
  8
3
100
AcDbMText
 10
287.0560849821917
 20
88.38689568599106
 30
0.0
 40
4.0
 41
74.69590670254252
 71
     1
 72
     5
  1
製造元  大塚刷毛製造株式会社
 73
     1
 44
1.0
  0
LWPOLYLINE
  5
18AA4
330
20
100
AcDbEntity
  8
waku1
 62
     7
100
AcDbPolyline
 90
        3
 70
     0
 43
0.0
 10
374.3253512992166
 20
273.4967905482554
 10
379.3253512992166
 20
273.4967905482554
 10
379.3253512992166
 20
268.4967905482555
  0
LWPOLYLINE
  5
18AA5
330
20
100
AcDbEntity
  8
waku1
 62
     7
100
AcDbPolyline
 90
        3
 70
     0
 43
0.0
 10
379.3253512992166
 20
68.49679054825545
 10
379.3253512992166
 20
63.49679054825547
 10
374.3253512992166
 20
63.49679054825547
  0
LWPOLYLINE
  5
18AA6
330
20
100
AcDbEntity
  8
waku1
 62
     7
100
AcDbPolyline
 90
        3
 70
     0
 43
0.0
 10
82.32535129921663
 20
268.4967905482555
 10
82.32535129921663
 20
273.4967905482554
 10
87.32535129921663
 20
273.4967905482554
  0
LWPOLYLINE
  5
18ABE
330
20
100
AcDbEntity
  8
waku1
 62
     7
100
AcDbPolyline
 90
        3
 70
     0
 43
0.0
 10
87.32535129921663
 20
63.49679054825547
 10
82.32535129921663
 20
63.49679054825547
 10
82.32535129921663
 20
68.49679054825546
  0
MTEXT
  5
18D3A
330
20
100
AcDbEntity
  8
dim
100
AcDbMText
 10
103.2175091082512
 20
160.4256179132596
 30
0.0
 40
3.0
 41
16.06154744878699
 71
     1
 72
     5
  1
片面反射
 73
     1
 44
1.0
  0
MTEXT
  5
18D78
330
20
100
AcDbEntity
  8
3
100
AcDbMText
 10
326.5847856976272
 20
100.9171504233177
 30
0.0
 40
4.0
 41
6.860846139518152
 71
     1
 72
     5
  1
Ｂ
 73
     1
 44
1.0
  0
LINE
  5
18F89
330
20
100
AcDbEntity
  8
0
100
AcDbLine
 10
269.4362186064072
 20
193.6380904277092
 30
0.0
 11
269.4362186064072
 21
216.5622351012
 31
0.0
  0
LINE
  5
18F8A
330
20
100
AcDbEntity
  8
0
100
AcDbLine
 10
220.5124533559996
 20
193.6380904272351
 30
0.0
 11
220.5124533559996
 21
216.5622351012
 31
0.0
  0
LINE
  5
18F8B
330
20
100
AcDbEntity
  8
0
100
AcDbLine
 10
138.1928147237999
 20
216.5622351012
 30
0.0
 11
138.1928147237999
 21
193.6380904139994
 31
0.0
  0
LINE
  5
18FEC
330
20
100
AcDbEntity
  8
0
100
AcDbLine
 10
138.1928147237999
 20
190.1164295351217
 30
0.0
 11
138.1928147237999
 21
167.1922848488998
 31
0.0
  0
SPLINE
  5
19009
330
20
100
AcDbEntity
  8
0
  6
Continuous
 62
     7
100
AcDbSpline
210
0.0
220
0.0
230
1.0
 70
     8
 71
     3
 72
    28
 73
    24
 74
    22
 42
0.0000000001
 43
0.0000000001
 44
0.0000000001
 12
-0.2314995090387272
 22
-0.9728350206046389
 32
0.0
 13
-0.9802273055963313
 23
-0.1978747820298392
 33
0.0
 40
0.0
 40
0.0
 40
0.0
 40
0.0
 40
0.2607009544982086
 40
0.527154930360908
 40
0.8010158324502011
 40
1.083602070220743
 40
1.375946029413495
 40
1.678748901969493
 40
1.99252549691722
 40
2.318080602556868
 40
2.656086078715371
 40
3.00708354663401
 40
3.371698145971309
 40
3.750368791186179
 40
4.143342671112582
 40
4.550786864622963
 40
4.972748644424339
 40
5.409210227796445
 40
5.859314789809419
 40
6.321269894271135
 40
6.794352461361254
 40
7.278986415133421
 40
7.775748485518313
 40
7.775748485518313
 40
7.775748485518313
 40
7.775748485518313
 10
138.0448565266999
 20
190.3147370661999
 30
0.0
 10
138.0247391457091
 20
190.2301973933862
 30
0.0
 10
137.9807573702405
 20
190.060019283323
 30
0.0
 10
137.9038978080725
 20
189.8042466770394
 30
0.0
 10
137.8145038628499
 20
189.5448415612074
 30
0.0
 10
137.7113745971399
 20
189.2812883059972
 30
0.0
 10
137.5932549983171
 20
189.0135147721913
 30
0.0
 10
137.458879930173
 20
188.7418570375792
 30
0.0
 10
137.3069399669915
 20
188.4668866170174
 30
0.0
 10
137.1360665129372
 20
188.1893698632501
 30
0.0
 10
136.9448325498502
 20
187.9102756455266
 30
0.0
 10
136.7318148027629
 20
187.6308506825697
 30
0.0
 10
136.4956365465546
 20
187.352646997312
 30
0.0
 10
136.2350217412917
 20
187.077545144494
 30
0.0
 10
135.9488876209414
 20
186.8077863767929
 30
0.0
 10
135.6363899272715
 20
186.5459372030726
 30
0.0
 10
135.2969477405839
 20
186.2948380957872
 30
0.0
 10
134.9305084538392
 20
186.0577132522301
 30
0.0
 10
134.5378820071801
 20
185.8381900669115
 30
0.0
 10
134.1205299530438
 20
185.6399070249355
 30
0.0
 10
133.6799546810238
 20
185.4661509454828
 30
0.0
 10
133.2173233259652
 20
185.3198793852302
 30
0.0
 10
132.8988671257919
 20
185.2435874691325
 30
0.0
 10
132.7365538771999
 20
185.2108219069998
 30
0.0
 11
138.0448565266999
 21
190.3147370661999
 31
0.0
 11
137.9796231470999
 21
190.0623294714998
 31
0.0
 11
137.9029423543999
 21
189.8071476200998
 31
0.0
 11
137.8137172357
 21
189.5482293474999
 31
0.0
 11
137.7107445182
 21
189.2850723577999
 31
0.0
 11
137.5927574038999
 21
189.0175951973999
 31
0.0
 11
137.4585048192999
 21
188.7461807114999
 31
0.0
 11
137.3067507318997
 21
188.4715419514998
 31
0.0
 11
137.1360623889999
 21
188.1943207105998
 31
0.0
 11
136.9450117915
 21
187.9154885547999
 31
0.0
 11
136.7322175969998
 21
187.6363508588999
 31
0.0
 11
136.4962497730999
 21
187.3583886453998
 31
0.0
 11
136.2358286801999
 21
187.0834844585998
 31
0.0
 11
135.9498962450998
 21
186.8139086568999
 31
0.0
 11
135.6375987742
 21
186.5522197948999
 31
0.0
 11
135.2983697763999
 21
186.3012707349999
 31
0.0
 11
134.9319409326
 21
186.0641449957999
 31
0.0
 11
134.5390770751
 21
185.8444813751998
 31
0.0
 11
134.1218218759999
 21
185.6462375420999
 31
0.0
 11
133.6817312976999
 21
185.4726650840999
 31
0.0
 11
133.2196446582998
 21
185.3265623570998
 31
0.0
 11
132.7365538771999
 21
185.2108219069998
 31
0.0
  0
SPLINE
  5
1900A
330
20
100
AcDbEntity
  8
0
  6
Continuous
 62
     7
100
AcDbSpline
210
0.0
220
0.0
230
1.0
 70
     8
 71
     3
 72
    28
 73
    24
 74
    22
 42
0.0000000001
 43
0.0000000001
 44
0.0000000001
 12
-0.2278624599046232
 22
-0.9736933292193256
 32
0.0
 13
-0.9765953113478994
 23
-0.2150850944470569
 33
0.0
 40
0.0
 40
0.0
 40
0.0
 40
0.0
 40
0.293757594992291
 40
0.5940377656069755
 40
0.902702320257271
 40
1.221245883573466
 40
1.550842724686266
 40
1.892295782191095
 40
2.246199957622711
 40
2.613480176967052
 40
2.99491459990348
 40
3.391138004558363
 40
3.802883730872404
 40
4.23067953916314
 40
4.674841646721326
 40
5.135601136348196
 40
5.613059336947282
 40
6.10725003246834
 40
6.617262206746675
 40
7.141126847846016
 40
7.678088545256518
 40
8.228698033178964
 40
8.793686763160396
 40
8.793686763160396
 40
8.793686763160396
 40
8.793686763160396
 10
138.1928139226999
 20
190.1164265710998
 30
0.0
 10
138.1705018132963
 20
190.0210833008827
 30
0.0
 10
138.1217162987302
 20
189.8291167052665
 30
0.0
 10
138.0364430108495
 20
189.5404766847287
 30
0.0
 10
137.9372332082584
 20
189.2475769732959
 30
0.0
 10
137.8227400129121
 20
188.9498053121096
 30
0.0
 10
137.6915523031046
 20
188.6470414637008
 30
0.0
 10
137.5422420715167
 20
188.3396208609061
 30
0.0
 10
137.3733260674207
 20
188.0281394129572
 30
0.0
 10
137.1832477488
 20
187.7134076536296
 30
0.0
 10
136.9703767114442
 20
187.396459365145
 30
0.0
 10
136.7330762089276
 20
187.0786375573514
 30
0.0
 10
136.4697491805912
 20
186.7616267382958
 30
0.0
 10
136.1788969604207
 20
186.447481116427
 30
0.0
 10
135.8592212077472
 20
186.1386641778914
 30
0.0
 10
135.5096734863796
 20
185.8380120879573
 30
0.0
 10
135.1294824833486
 20
185.5486794327003
 30
0.0
 10
134.7184513925236
 20
185.2742718897745
 30
0.0
 10
134.2773365372571
 20
185.018880030745
 30
0.0
 10
133.8076166357892
 20
184.786638448144
 30
0.0
 10
133.3108104530736
 20
184.5813079461017
 30
0.0
 10
132.7880525184701
 20
184.406295031117
 30
0.0
 10
132.4276121596545
 20
184.313306125083
 30
0.0
 10
132.2436903780998
 20
184.2727992402999
 30
0.0
 11
138.1928139226999
 21
190.1164265710998
 31
0.0
 11
138.1204595020999
 21
189.8317190677999
 31
0.0
 11
138.0353838841999
 21
189.5437428185998
 31
0.0
 11
137.9363614015
 21
189.2513931046998
 31
0.0
 11
137.8220422771999
 21
188.9540698133999
 31
0.0
 11
137.6910020754
 21
188.6516420646999
 31
0.0
 11
137.5418285405997
 21
188.3444980479999
 31
0.0
 11
137.3731201221
 21
188.0333941506999
 31
0.0
 11
137.1832490817999
 21
187.7189998956999
 31
0.0
 11
136.9705840459
 21
187.4023521394999
 31
0.0
 11
136.7335351885998
 21
187.0848606818999
 31
0.0
 11
136.4704462582998
 21
186.7681293163999
 31
0.0
 11
136.1798147410999
 21
186.4542143998999
 31
0.0
 11
135.8603700735999
 21
186.1456125816999
 31
0.0
 11
135.5110535221998
 21
185.8451508466998
 31
0.0
 11
135.1311102041999
 21
185.5559979313999
 31
0.0
 11
134.7201013711
 21
185.2815964323999
 31
0.0
 11
134.2787314558999
 21
185.0260479714999
 31
0.0
 11
133.8091334569
 21
184.7938586488999
 31
0.0
 11
133.3128887226999
 21
184.5887512909999
 31
0.0
 11
132.7907642432997
 21
184.4139461531999
 31
0.0
 11
132.2436903780998
 21
184.2727992402999
 31
0.0
  0
ARC
  5
1900B
330
20
100
AcDbEntity
  8
0
  6
Continuous
 62
     7
100
AcDbCircle
 10
130.3526340399
 20
191.8772599750999
 30
0.0
 40
7.079863524099999
100
AcDbArc
 50
289.6770621850023
 51
70.32293771740221
  0
ARC
  5
1900C
330
20
100
AcDbEntity
  8
0
  6
Continuous
 62
     7
100
AcDbCircle
 10
130.3526340399
 20
191.8772599750999
 30
0.0
 40
6.083668826
100
AcDbArc
 50
284.1226549005034
 51
75.87734509400239
  0
SPLINE
  5
1900D
330
20
100
AcDbEntity
  8
0
  6
Continuous
 62
     7
100
AcDbSpline
210
0.0
220
0.0
230
1.0
 70
     8
 71
     3
 72
    28
 73
    24
 74
    22
 42
0.0000000001
 43
0.0000000001
 44
0.0000000001
 12
0.9802273032848509
 22
-0.1978747934803952
 32
0.0
 13
0.231499514171793
 23
-0.9728350193831552
 33
0.0
 40
0.0
 40
0.0
 40
0.0
 40
0.0
 40
0.4967023799725614
 40
0.9813095823207333
 40
1.454391080647819
 40
1.916359204567479
 40
2.366465435038227
 40
2.802916903165308
 40
3.224875695861431
 40
3.632320465200661
 40
4.025295749603277
 40
4.403966473154945
 40
4.76857893558899
 40
5.119575468363616
 40
5.45758091127244
 40
5.783134451855463
 40
6.096911769333297
 40
6.399712175809429
 40
6.692048581122647
 40
6.974631439205047
 40
7.248502147048275
 40
7.514987279934628
 40
7.775748512241104
 40
7.775748512241104
 40
7.775748512241104
 40
7.775748512241104
 10
132.7365538890997
 20
198.5436980406999
 30
0.0
 10
132.8988476339183
 20
198.5109364137471
 30
0.0
 10
133.2172760318581
 20
198.4346526146947
 30
0.0
 10
133.6798810655186
 20
198.2883947666869
 30
0.0
 10
134.1204539349964
 20
198.1146460611561
 30
0.0
 10
134.5378124464818
 20
197.916365972717
 30
0.0
 10
134.9304425786493
 20
197.6968462492718
 30
0.0
 10
135.2968813412317
 20
197.4597276444236
 30
0.0
 10
135.636323259846
 20
197.2086352057947
 30
0.0
 10
135.9488239734953
 20
196.9467901582554
 30
0.0
 10
136.2349619363112
 20
196.6770344631775
 30
0.0
 10
136.4955799744097
 20
196.4019359734091
 30
0.0
 10
136.731761050593
 20
196.1237359949231
 30
0.0
 10
136.944781719705
 20
195.8443145628866
 30
0.0
 10
137.1360187756688
 20
195.5652234884356
 30
0.0
 10
137.306895662584
 20
195.2877091932039
 30
0.0
 10
137.4588386671679
 20
195.0127417128865
 30
0.0
 10
137.5932159296107
 20
194.7410885242164
 30
0.0
 10
137.7113374430684
 20
194.4733207238521
 30
0.0
 10
137.814470447591
 20
194.209769337992
 30
0.0
 10
137.9038721727211
 20
193.950353642948
 30
0.0
 10
137.9807443247057
 20
193.6945495587735
 30
0.0
 10
138.0247344938353
 20
193.5243421033949
 30
0.0
 10
138.0448565266999
 20
193.4397828838999
 30
0.0
 11
132.7365538890997
 21
198.5436980406999
 31
0.0
 11
133.2195871226999
 21
198.4279735855998
 31
0.0
 11
133.6816498027997
 21
198.2818838178998
 31
0.0
 11
134.1217415778
 21
198.1083173071999
 31
0.0
 11
134.5390108698998
 21
197.9100727980998
 31
0.0
 11
134.9318785377999
 21
197.6904125735998
 31
0.0
 11
135.2983015802998
 21
197.4532964881999
 31
0.0
 11
135.6375312683997
 21
197.2023533841999
 31
0.0
 11
135.9498324555999
 21
196.9406680606999
 31
0.0
 11
136.2357692520999
 21
196.6710948376998
 31
0.0
 11
136.4961937792999
 21
196.3961937963999
 31
0.0
 11
136.7321636848999
 21
196.1182361531999
 31
0.0
 11
136.9449608591998
 21
195.8391019047999
 31
0.0
 11
137.1360150048997
 21
195.5602722204999
 31
0.0
 11
137.3067061101997
 21
195.2830545183999
 31
0.0
 11
137.4584641173
 21
195.0084170987999
 31
0.0
 11
137.5927191749999
 21
194.7370065874999
 31
0.0
 11
137.7107069562999
 21
194.4695379774999
 31
0.0
 11
137.8136823131
 21
194.2063856497999
 31
0.0
 11
137.9029143147998
 21
193.9474593774999
 31
0.0
 11
137.9796069379999
 21
193.6922485477999
 31
0.0
 11
138.0448565266999
 21
193.4397828838999
 31
0.0
  0
SPLINE
  5
1900E
330
20
100
AcDbEntity
  8
0
  6
Continuous
 62
     7
100
AcDbSpline
210
0.0
220
0.0
230
1.0
 70
     8
 71
     3
 72
    28
 73
    24
 74
    22
 42
0.0000000001
 43
0.0000000001
 44
0.0000000001
 12
0.9765953065866932
 22
-0.2150851160653439
 32
0.0
 13
0.2278624620463567
 23
-0.97369332871812
 33
0.0
 40
0.0
 40
0.0
 40
0.0
 40
0.0
 40
0.5649208923945261
 40
1.115500070624396
 40
1.652460646208558
 40
2.1763401302658
 40
2.686354259218415
 40
3.180533561775143
 40
3.657988442152657
 40
4.118748636952587
 40
4.562912379496073
 40
4.990708317906504
 40
5.402451667871685
 40
5.798674050492161
 40
6.180108466099624
 40
6.547386945102239
 40
6.901291960326337
 40
7.242742257044361
 40
7.572330597379184
 40
7.890870366730846
 40
8.199545987162863
 40
8.499861280550369
 40
8.793686824911265
 40
8.793686824911265
 40
8.793686824911265
 40
8.793686824911265
 10
132.2436903780998
 20
199.4817207097999
 30
0.0
 10
132.4275900754682
 20
199.4412186845637
 30
0.0
 10
132.7879990317925
 20
199.348239534472
 30
0.0
 10
133.3107273634945
 20
199.1732426382274
 30
0.0
 10
133.8075309987725
 20
198.9679204686222
 30
0.0
 10
134.2772583175458
 20
198.7356820341675
 30
0.0
 10
134.7183774440247
 20
198.4802939495621
 30
0.0
 10
135.1294080609022
 20
198.2058933920845
 30
0.0
 10
135.5095988667493
 20
197.9165681986524
 30
0.0
 10
135.8591500578036
 20
197.6159206430092
 30
0.0
 10
136.1788301816633
 20
197.3071070411057
 30
0.0
 10
136.4696860757088
 20
196.9929650984187
 30
0.0
 10
136.7330163041624
 20
196.6759583578537
 30
0.0
 10
136.9703201089139
 20
196.3581404342792
 30
0.0
 10
137.1831946283672
 20
196.04119559693
 30
0.0
 10
137.3732767983562
 20
195.7264665192955
 30
0.0
 10
137.5421962106448
 20
195.4149883075134
 30
0.0
 10
137.6915089020217
 20
195.1075727646123
 30
0.0
 10
137.8226987560617
 20
194.8048153223362
 30
0.0
 10
137.9371961158968
 20
194.5070457041762
 30
0.0
 10
138.0364145642231
 20
194.2141339905782
 30
0.0
 10
138.1217018267302
 20
193.9254584013729
 30
0.0
 10
138.1704966565497
 20
193.7334586855169
 30
0.0
 10
138.1928139271998
 20
193.6380933613999
 30
0.0
 11
132.2436903780998
 21
199.4817207097999
 31
0.0
 11
132.7906991623999
 21
199.3405930917998
 31
0.0
 11
133.3127967371999
 21
199.1658030637998
 31
0.0
 11
133.8090430012999
 21
198.9607023443999
 31
0.0
 11
134.2786570128
 21
198.7285119181999
 31
0.0
 11
134.7200313303998
 21
198.4729671598999
 31
0.0
 11
135.1310337679999
 21
198.1985765999999
 31
0.0
 11
135.5109779653
 21
197.9094303225999
 31
0.0
 11
135.8602987659998
 21
197.6089724464999
 31
0.0
 11
136.1797483841
 21
197.3003733996998
 31
0.0
 11
136.4703837992997
 21
196.9864619147999
 31
0.0
 11
136.7334751058999
 21
196.6697356123999
 31
0.0
 11
136.9705273299
 21
196.3522479439999
 31
0.0
 11
137.1831963548999
 21
196.0356028757999
 31
0.0
 11
137.3730704999998
 21
195.7212125289998
 31
0.0
 11
137.5417833035998
 21
195.4101100543999
 31
0.0
 11
137.6909596076999
 21
195.1029704518999
 31
0.0
 11
137.8220005672
 21
194.8005522959999
 31
0.0
 11
137.9363226361999
 21
194.5032342016999
 31
0.0
 11
138.0353527693
 21
194.2108753957999
 31
0.0
 11
138.1204415193998
 21
193.9228664027999
 31
0.0
 11
138.1928139271998
 21
193.6380933613999
 31
0.0
  0
LINE
  5
1900F
330
20
100
AcDbEntity
  8
0
  6
Continuous
 62
     7
100
AcDbLine
 10
131.8370387035999
 20
185.9774714696999
 30
0.0
 11
131.8370387035999
 21
197.7770484779999
 31
0.0
  0
LINE
  5
19010
330
20
100
AcDbEntity
  8
0
  6
Continuous
 62
     7
100
AcDbLine
 10
131.0087397243997
 20
185.9774659803998
 30
0.0
 11
131.0087397243997
 21
197.7770539696998
 31
0.0
  0
SPLINE
  5
19011
330
20
100
AcDbEntity
  8
0
  6
Continuous
 62
     7
100
AcDbSpline
210
0.0
220
0.0
230
1.0
 70
     8
 71
     3
 72
    29
 73
    25
 74
    23
 42
0.0000000001
 43
0.0000000001
 44
0.0000000001
 12
-0.9635213226901949
 22
-0.2676315764653669
 32
0.0
 13
0.2179579461588561
 23
0.975958161862594
 33
0.0
 40
0.0
 40
0.0
 40
0.0
 40
0.0
 40
0.0875276521648767
 40
0.1711582862407853
 40
0.2510225764623221
 40
0.3273480817713465
 40
0.4004220313415373
 40
0.4705779704193583
 40
0.5381846354539736
 40
0.6035747604081015
 40
0.6670904358563055
 40
0.7292152466109906
 40
0.7904321302851059
 40
0.8509077373166739
 40
0.9106002244846484
 40
0.9695142541034293
 40
1.027911966500172
 40
1.086160454874282
 40
1.144684526542944
 40
1.204034657807013
 40
1.264798786715763
 40
1.327585700360576
 40
1.393038404326147
 40
1.461885816611783
 40
1.461885816611783
 40
1.461885816611783
 40
1.461885816611783
 10
132.7365550869
 20
185.2108223395999
 30
0.0
 10
132.7084435005047
 20
185.2030139517555
 30
0.0
 10
132.6528644322869
 20
185.189819358834
 30
0.0
 10
132.5700498040127
 20
185.177210515998
 30
0.0
 10
132.4901727427649
 20
185.1720263449085
 30
0.0
 10
132.4136684929893
 20
185.1739743138663
 30
0.0
 10
132.3408928397793
 20
185.182693839877
 30
0.0
 10
132.2721378321074
 20
185.1977844720429
 30
0.0
 10
132.2076513453092
 20
185.2188215089119
 30
0.0
 10
132.1476432807456
 20
185.2453673202613
 30
0.0
 10
132.0922508121896
 20
185.2770013502265
 30
0.0
 10
132.0415424392967
 20
185.3133609603285
 30
0.0
 10
131.9956280848053
 20
185.3541002228496
 30
0.0
 10
131.9547274031435
 20
185.3987748442123
 30
0.0
 10
131.9190920964894
 20
185.4467948852649
 30
0.0
 10
131.8888451290072
 20
185.497567928641
 30
0.0
 10
131.8639601433198
 20
185.5506357278614
 30
0.0
 10
131.8443331711537
 20
185.6057212264797
 30
0.0
 10
131.8298610644166
 20
185.6627027993575
 30
0.0
 10
131.820494446713
 20
185.7215884110732
 30
0.0
 10
131.8162715996388
 20
185.7824863671476
 30
0.0
 10
131.8173375436474
 20
185.845554976925
 30
0.0
 10
131.8239395347474
 20
185.9109894223551
 30
0.0
 10
131.8320377790398
 20
185.9550743313187
 30
0.0
 10
131.8370397258999
 20
185.9774717292998
 30
0.0
 11
132.7365550869
 21
185.2108223395999
 31
0.0
 11
132.651366859
 21
185.1907212022999
 31
0.0
 11
132.5686720207999
 21
185.1782453579999
 31
0.0
 11
132.4889685525999
 21
185.1731795895999
 31
0.0
 11
132.4126703046998
 21
185.1752192287999
 31
0.0
 11
132.3401255357
 21
185.1839975313999
 31
0.0
 11
132.2716165076
 21
185.1991094093999
 31
0.0
 11
132.2073623320999
 21
185.2201346819999
 31
0.0
 11
132.1475816725
 21
185.2466326286998
 31
0.0
 11
132.0924444763998
 21
185.2781624658999
 31
0.0
 11
132.0419716936998
 21
185.3143838727999
 31
0.0
 11
131.9961909821999
 21
185.3550241643999
 31
0.0
 11
131.9553574127998
 21
185.3996326686999
 31
0.0
 11
131.9197815532999
 21
185.4475654470999
 31
0.0
 11
131.8896189538999
 21
185.4981725659999
 31
0.0
 11
131.8648073370999
 21
185.5510372657998
 31
0.0
 11
131.8452320680997
 21
185.6058979551998
 31
0.0
 11
131.8307930145999
 21
185.6626128623998
 31
0.0
 11
131.8214291590998
 21
185.7212196562999
 31
0.0
 11
131.8171768263
 21
185.7818348113999
 31
0.0
 11
131.8181788893999
 21
185.8446137281999
 31
0.0
 11
131.8246807720999
 21
185.9097426923998
 31
0.0
 11
131.8370397258999
 21
185.9774717292998
 31
0.0
  0
SPLINE
  5
19012
330
20
100
AcDbEntity
  8
0
  6
Continuous
 62
     7
100
AcDbSpline
210
0.0
220
0.0
230
1.0
 70
     8
 71
     3
 72
    29
 73
    25
 74
    23
 42
0.0000000001
 43
0.0000000001
 44
0.0000000001
 12
-0.9765962286100974
 22
-0.2150809295696261
 32
0.0
 13
-0.0000155291625864
 23
0.9999999998794224
 33
0.0
 40
0.0
 40
0.0
 40
0.0
 40
0.0
 40
0.1009271418134878
 40
0.1991389707113617
 40
0.2955820007830934
 40
0.3912413685760764
 40
0.4870276108707977
 40
0.5837290537000849
 40
0.6819932212639674
 40
0.7822380118062064
 40
0.8847384298806652
 40
0.9898928970048423
 40
1.098053046880192
 40
1.208954304331967
 40
1.321844036625987
 40
1.435968465551299
 40
1.551052217747769
 40
1.66705746192148
 40
1.784096268442737
 40
1.902552418438119
 40
2.02287610146095
 40
2.145516852509499
 40
2.270917999381583
 40
2.399556305305839
 40
2.399556305305839
 40
2.399556305305839
 40
2.399556305305839
 10
132.2436903780998
 20
184.2727992402999
 30
0.0
 10
132.21083535608
 20
184.2655634058065
 30
0.0
 10
132.1450405836327
 20
184.255274840289
 30
0.0
 10
132.0462656570951
 20
184.2528916387717
 30
0.0
 10
131.9497817313594
 20
184.2634488525169
 30
0.0
 10
131.8563278066281
 20
184.2864077025075
 30
0.0
 10
131.7664914909435
 20
184.321084477397
 30
0.0
 10
131.6807415632448
 20
184.3667194583211
 30
0.0
 10
131.5994519788382
 20
184.4225132699051
 30
0.0
 10
131.5229190341619
 20
184.4876526470643
 30
0.0
 10
131.4513196565204
 20
184.5613816992899
 30
0.0
 10
131.3847268447666
 20
184.6430700256007
 30
0.0
 10
131.3232606581703
 20
184.7320877386368
 30
0.0
 10
131.2671736470208
 20
184.8275754930542
 30
0.0
 10
131.2167577041995
 20
184.9283887895843
 30
0.0
 10
131.1721420403709
 20
185.0334041366957
 30
0.0
 10
131.1332594684468
 20
185.1417688817942
 30
0.0
 10
131.0999216242272
 20
185.2529730347957
 30
0.0
 10
131.071909306151
 20
185.3667891649315
 30
0.0
 10
131.049033419822
 20
185.4832113758481
 30
0.0
 10
131.0311730036307
 20
185.6023935564753
 30
0.0
 10
131.0182993615339
 20
185.7245440507157
 30
0.0
 10
131.010471631204
 20
185.8498954946895
 30
0.0
 10
131.0087403902814
 20
185.9345865450969
 30
0.0
 10
131.0087397243997
 20
185.9774659803998
 30
0.0
 11
132.2436903780998
 21
184.2727992402999
 31
0.0
 11
132.1439503716
 21
184.2573648935998
 31
0.0
 11
132.0457651518998
 21
184.2550788559998
 31
0.0
 11
131.9498953063999
 21
184.2655779403999
 31
0.0
 11
131.8569829982999
 21
184.2883379414999
 31
0.0
 11
131.7675798765997
 21
184.3227194196998
 31
0.0
 11
131.6821407658
 21
184.3680110015999
 31
0.0
 11
131.6010240580997
 21
184.4234720361999
 31
0.0
 11
131.5245687418
 21
184.4883072321999
 31
0.0
 11
131.4530337908998
 21
184.5617176299999
 31
0.0
 11
131.3864634964999
 21
184.6431170025999
 31
0.0
 11
131.3248816391997
 21
184.7320343398999
 31
0.0
 11
131.2685958509
 21
184.8275906004999
 31
0.0
 11
131.2179961363999
 21
184.9285052205999
 31
0.0
 11
131.1732777224999
 21
185.0335035478998
 31
0.0
 11
131.134330131
 21
185.1417964614999
 31
0.0
 11
131.1009485482999
 21
185.2528950060998
 31
0.0
 11
131.0729181938999
 21
185.3665276662999
 31
0.0
 11
131.0500275296998
 21
185.4827510587998
 31
0.0
 11
131.0321497023997
 21
185.6017391757999
 31
0.0
 11
131.0192548998998
 21
185.7237001444999
 31
0.0
 11
131.011403419
 21
185.8488552557998
 31
0.0
 11
131.0087397243997
 21
185.9774659803998
 31
0.0
  0
SPLINE
  5
19013
330
20
100
AcDbEntity
  8
0
  6
Continuous
 62
     7
100
AcDbSpline
210
0.0
220
0.0
230
1.0
 70
     8
 71
     3
 72
    20
 73
    16
 74
    14
 42
0.0000000001
 43
0.0000000001
 44
0.0000000001
 12
-0.0689734728754952
 22
0.997618494234892
 32
0.0
 13
0.9198826840793216
 23
0.3921936352505266
 33
0.0
 40
0.0
 40
0.0
 40
0.0
 40
0.0
 40
0.0944128587974495
 40
0.1880508573545037
 40
0.2806784475087806
 40
0.3720895065235723
 40
0.4621145355924472
 40
0.5506274614512398
 40
0.6375518085391784
 40
0.7228659203743472
 40
0.8066068026572066
 40
0.8888720703487859
 40
0.9698194224989647
 40
1.049663104364231
 40
1.128666975205277
 40
1.128666975205277
 40
1.128666975205277
 40
1.128666975205277
 10
132.2436904013999
 20
184.2727992402999
 30
0.0
 10
132.2415197404814
 20
184.3041952449765
 30
0.0
 10
132.2396596578673
 20
184.3669293805775
 30
0.0
 10
132.2443846683325
 20
184.4604667576321
 30
0.0
 10
132.256591500269
 20
184.552324661586
 30
0.0
 10
132.2761738224013
 20
184.6416676248047
 30
0.0
 10
132.3029590906483
 20
184.7276918823751
 30
0.0
 10
132.3367109150864
 20
184.8096200863399
 30
0.0
 10
132.377130858645
 20
184.8867110755674
 30
0.0
 10
132.423860716767
 20
184.958265171496
 30
0.0
 10
132.4764855355003
 20
185.0236304347426
 30
0.0
 10
132.5345348716707
 20
185.0822075736938
 30
0.0
 10
132.597491527338
 20
185.1334578873072
 30
0.0
 10
132.6647743183596
 20
185.1769001224263
 30
0.0
 10
132.7123277243459
 20
185.2004934771319
 30
0.0
 10
132.7365524885999
 20
185.2108217488999
 30
0.0
 11
132.2436904013999
 21
184.2727992402999
 31
0.0
 11
132.2409188133997
 21
184.3671714088999
 31
0.0
 11
132.2456785957999
 21
184.4606883551998
 31
0.0
 11
132.2579266141999
 21
184.5525026051998
 31
0.0
 11
132.2775518739998
 21
184.6417821150999
 31
0.0
 11
132.3043765260998
 21
184.7277178113999
 31
0.0
 11
132.3381574787999
 21
184.8095309232999
 31
0.0
 11
132.3785886005
 21
184.8864800396999
 31
0.0
 11
132.4253034943
 21
184.9578678283999
 31
0.0
 11
132.4778788179
 21
185.0230473551998
 31
0.0
 11
132.5358381205998
 21
185.0814279469998
 31
0.0
 11
132.5986561606
 21
185.1324805440999
 31
0.0
 11
132.6657636649999
 21
185.1757424948999
 31
0.0
 11
132.7365524885999
 21
185.2108217488999
 31
0.0
  0
LINE
  5
19014
330
20
100
AcDbEntity
  8
0
  6
Continuous
 62
     7
100
AcDbLine
 10
131.0087397243997
 20
185.9774659803998
 30
0.0
 11
131.8370387035999
 21
185.9774659803998
 31
0.0
  0
SPLINE
  5
19015
330
20
100
AcDbEntity
  8
0
  6
Continuous
 62
     7
100
AcDbSpline
210
0.0
220
0.0
230
1.0
 70
     8
 71
     3
 72
    20
 73
    16
 74
    14
 42
0.0000000001
 43
0.0000000001
 44
0.0000000001
 12
-0.0689733131946438
 22
-0.9976185052749141
 32
0.0
 13
0.9198827190375762
 23
-0.3921935532565979
 33
0.0
 40
0.0
 40
0.0
 40
0.0
 40
0.0
 40
0.0944128557700074
 40
0.1880508505986399
 40
0.2806784362138928
 40
0.3720894898884026
 40
0.4621145129705358
 40
0.5506274322679681
 40
0.6375517723775462
 40
0.7228658766799018
 40
0.8066067514204725
 40
0.8888720113059845
 40
0.9698193555580674
 40
1.049663029657229
 40
1.128666892965535
 40
1.128666892965535
 40
1.128666892965535
 40
1.128666892965535
 10
132.2436903771998
 20
199.4817207097999
 30
0.0
 10
132.2415197213763
 20
199.4503247057826
 30
0.0
 10
132.2396596484509
 20
199.3875905721736
 30
0.0
 10
132.2443846720184
 20
199.294053199582
 30
0.0
 10
132.2565915153121
 20
199.2021953017487
 30
0.0
 10
132.2761738470879
 20
199.1128523460816
 30
0.0
 10
132.3029591234854
 20
199.0268280973204
 30
0.0
 10
132.3367109542052
 20
198.9448999030154
 30
0.0
 10
132.3771309023132
 20
198.8678089241275
 30
0.0
 10
132.423860763439
 20
198.7962548389656
 30
0.0
 10
132.476485583606
 20
198.7308895866888
 30
0.0
 10
132.5345349198292
 20
198.6723124587226
 30
0.0
 10
132.5974915741648
 20
198.6210621559006
 30
0.0
 10
132.6647743626069
 20
198.5776199310766
 30
0.0
 10
132.7123277661349
 20
198.5540265829238
 30
0.0
 10
132.7365525289998
 20
198.5436983142998
 30
0.0
 11
132.2436903771998
 21
199.4817207097999
 31
0.0
 11
132.2409188037999
 21
199.3873485437999
 31
0.0
 11
132.2456785992997
 21
199.2938316018999
 31
0.0
 11
132.2579266290998
 21
199.2020173579999
 31
0.0
 11
132.2775518985999
 21
199.1127378556999
 31
0.0
 11
132.3043765587997
 21
199.0268021681998
 31
0.0
 11
132.3381575177999
 21
198.9449890659999
 31
0.0
 11
132.3785886441
 21
198.8680399598998
 31
0.0
 11
132.4253035407999
 21
198.7966521820999
 31
0.0
 11
132.4778788658999
 21
198.7314726661999
 31
0.0
 11
132.5358381686
 21
198.6730920853999
 31
0.0
 11
132.5986562071999
 21
198.6220394990999
 31
0.0
 11
132.6657637089998
 21
198.5787775585998
 31
0.0
 11
132.7365525289998
 21
198.5436983142998
 31
0.0
  0
SPLINE
  5
19016
330
20
100
AcDbEntity
  8
0
  6
Continuous
 62
     7
100
AcDbSpline
210
0.0
220
0.0
230
1.0
 70
     8
 71
     3
 72
    29
 73
    25
 74
    23
 42
0.0000000001
 43
0.0000000001
 44
0.0000000001
 12
-0.2179584929094289
 22
0.975958039758191
 32
0.0
 13
0.9635213267383607
 23
-0.2676315618912484
 33
0.0
 40
0.0
 40
0.0
 40
0.0
 40
0.0
 40
0.0688481769735105
 40
0.1343008727798916
 40
0.1970873190414467
 40
0.2578507990863337
 40
0.3172003613644123
 40
0.3757241860731618
 40
0.4339728772001896
 40
0.4923710002060606
 40
0.5512852953644854
 40
0.6109775343264232
 40
0.6714520974958957
 40
0.7326670586186798
 40
0.7947889181928604
 40
0.8582999580932128
 40
0.9236819550632802
 40
0.9912769381986603
 40
1.061424709214823
 40
1.134488829947779
 40
1.210805246747854
 40
1.290668495006055
 40
1.374314942736698
 40
1.461885848807155
 40
1.461885848807155
 40
1.461885848807155
 40
1.461885848807155
 10
131.8370397263999
 20
197.7770482182999
 30
0.0
 10
131.8320377114356
 20
197.7994458622465
 30
0.0
 10
131.8239394616415
 20
197.8435310289543
 30
0.0
 10
131.8173375097294
 20
197.908965574502
 30
0.0
 10
131.8162716230086
 20
197.9720338093873
 30
0.0
 10
131.8204944264406
 20
198.0329312027412
 30
0.0
 10
131.8298609108341
 20
198.0918163390287
 30
0.0
 10
131.8443328720808
 20
198.1487977367308
 30
0.0
 10
131.8639597885505
 20
198.2038833856428
 30
0.0
 10
131.8888448308517
 20
198.2569514838355
 30
0.0
 10
131.9190918343749
 20
198.3077246731438
 30
0.0
 10
131.9547269014862
 20
198.3557444641016
 30
0.0
 10
131.9956267739977
 20
198.400418365827
 30
0.0
 10
132.0415394685362
 20
198.4411565114907
 30
0.0
 10
132.0922449494014
 20
198.4775146881818
 30
0.0
 10
132.1476323963892
 20
198.5091468990791
 30
0.0
 10
132.2076323418447
 20
198.5356908233239
 30
0.0
 10
132.2721091252641
 20
198.5567273654918
 30
0.0
 10
132.3408536964105
 20
198.5718192466167
 30
0.0
 10
132.4136198482962
 20
198.5805418890844
 30
0.0
 10
132.490117297709
 20
198.5824946382152
 30
0.0
 10
132.5699965995502
 20
198.5773155121896
 30
0.0
 10
132.6528310600192
 20
198.5647079801746
 30
0.0
 10
132.7084296309662
 20
198.5515098504225
 30
0.0
 10
132.7365551094997
 20
198.5436976042999
 30
0.0
 11
131.8370397263999
 21
197.7770482182999
 31
0.0
 11
131.8246806672999
 21
197.8447780132999
 31
0.0
 11
131.8181788446999
 21
197.9099069752999
 31
0.0
 11
131.8171768343999
 21
197.9726854254999
 31
0.0
 11
131.8214291178998
 21
198.0332999335999
 31
0.0
 11
131.8307928262999
 21
198.0919061747999
 31
0.0
 11
131.8452317245
 21
198.1486208666999
 31
0.0
 11
131.8648069653999
 21
198.2034817813999
 31
0.0
 11
131.8896186886999
 21
198.2563468847999
 31
0.0
 11
131.9197813867999
 21
198.3069542539998
 31
0.0
 11
131.9553570636
 21
198.3548868588999
 31
0.0
 11
131.9961898466999
 21
198.3994946677999
 31
0.0
 11
132.0419689448999
 21
198.4401338807998
 31
0.0
 11
132.0924390296999
 21
198.4763539853999
 31
0.0
 11
132.1475717546998
 21
198.5078823031999
 31
0.0
 11
132.2073443594999
 21
198.5343783640999
 31
0.0
 11
132.2715866527
 21
198.5554023862999
 31
0.0
 11
132.3400869662999
 21
198.5705158509999
 31
0.0
 11
132.4126214744
 21
198.5792971306999
 31
0.0
 11
132.4889105054998
 21
198.5813414415999
 31
0.0
 11
132.5686132615997
 21
198.5762808988999
 31
0.0
 11
132.6513243808999
 21
198.5638069675998
 31
0.0
 11
132.7365551094997
 21
198.5436976042999
 31
0.0
  0
SPLINE
  5
19017
330
20
100
AcDbEntity
  8
0
  6
Continuous
 62
     7
100
AcDbSpline
210
0.0
220
0.0
230
1.0
 70
     8
 71
     3
 72
    29
 73
    25
 74
    23
 42
0.0000000001
 43
0.0000000001
 44
0.0000000001
 12
0.0000155229533173
 22
0.9999999998795189
 32
0.0
 13
0.976596236102701
 23
-0.2150808955487156
 33
0.0
 40
0.0
 40
0.0
 40
0.0
 40
0.0
 40
0.1286397474660624
 40
0.2540409121738043
 40
0.3766807675752227
 40
0.4970031647473879
 40
0.6154581722039269
 40
0.732496485993713
 40
0.8485021484888232
 40
0.9635867290386293
 40
1.077711687755852
 40
1.190600972642545
 40
1.301500382917496
 40
1.409657316808416
 40
1.514807170814882
 40
1.617300808973161
 40
1.717534361779158
 40
1.815783511040265
 40
1.912476193567948
 40
2.008252328253847
 40
2.103903088134521
 40
2.200347187303377
 40
2.298578991797032
 40
2.399556272493058
 40
2.399556272493058
 40
2.399556272493058
 40
2.399556272493058
 10
131.0087397243997
 20
197.7770539696998
 30
0.0
 10
131.0087403900227
 20
197.8199338855167
 30
0.0
 10
131.01047166144
 20
197.9046254227471
 30
0.0
 10
131.0182994630796
 20
198.0299770505813
 30
0.0
 10
131.0311730744779
 20
198.1521268221094
 30
0.0
 10
131.0490333230339
 20
198.2713079062167
 30
0.0
 10
131.0719089636135
 20
198.3877291718522
 30
0.0
 10
131.099921085436
 20
198.501544931823
 30
0.0
 10
131.1332588954785
 20
198.6127493577953
 30
0.0
 10
131.1721415876747
 20
198.7211146899666
 30
0.0
 10
131.2167573236612
 20
198.8261303370993
 30
0.0
 10
131.2671729568398
 20
198.9269431296019
 30
0.0
 10
131.3232589202391
 20
199.0224293636281
 30
0.0
 10
131.3847229922674
 20
199.1114446047555
 30
0.0
 10
131.4513121828704
 20
199.1931295769365
 30
0.0
 10
131.5229053756568
 20
199.2668540745934
 30
0.0
 10
131.5994284192328
 20
199.3319879996791
 30
0.0
 10
131.680706098217
 20
199.3877783553744
 30
0.0
 10
131.7664433424532
 20
199.4334129523406
 30
0.0
 10
131.8562684399197
 20
199.4680930913672
 30
0.0
 10
131.9497144844029
 20
199.491059022867
 30
0.0
 10
132.0462015218568
 20
199.5016261030194
 30
0.0
 10
132.1450005470009
 20
199.499250337018
 30
0.0
 10
132.2108190340132
 20
199.4889601377873
 30
0.0
 10
132.2436903780998
 20
199.4817207097999
 30
0.0
 11
131.0087397243997
 21
197.7770539696998
 31
0.0
 11
131.0114034794
 21
197.9056661348998
 31
0.0
 11
131.0192550219998
 21
198.0308212601999
 31
0.0
 11
131.032149774
 21
198.1527813335999
 31
0.0
 11
131.0500274063999
 21
198.2717681795999
 31
0.0
 11
131.0729177908999
 21
198.3879904626999
 31
0.0
 11
131.1009479275998
 21
198.5016226690999
 31
0.0
 11
131.1343295245998
 21
198.6127216461999
 31
0.0
 11
131.1732773174
 21
198.7210153676999
 31
0.0
 11
131.2179958926998
 21
198.8260142020999
 31
0.0
 11
131.2685953596998
 21
198.9269284457999
 31
0.0
 11
131.324880091
 21
199.0224831851998
 31
0.0
 11
131.3864598331998
 21
199.1113980753999
 31
0.0
 11
131.4530266632999
 21
199.1927943217998
 31
0.0
 11
131.5245559609999
 21
199.2662007617999
 31
0.0
 11
131.6010012159999
 21
199.3310304470999
 31
0.0
 11
131.6821033091999
 21
199.3864862475999
 31
0.0
 11
131.7675320512
 21
199.4317786850999
 31
0.0
 11
131.8569231759999
 21
199.4661631987998
 31
0.0
 11
131.9498250606999
 21
199.4889295705999
 31
0.0
 11
132.0456949503999
 21
199.4994380677999
 31
0.0
 11
132.1439003248999
 21
199.4971595082999
 31
0.0
 11
132.2436903780998
 21
199.4817207097999
 31
0.0
  0
LINE
  5
19018
330
20
100
AcDbEntity
  8
0
  6
Continuous
 62
     7
100
AcDbLine
 10
131.0087397243997
 20
197.7770539696998
 30
0.0
 11
131.8370387035999
 21
197.7770539696998
 31
0.0
  0
SPLINE
  5
19019
330
20
100
AcDbEntity
  8
0
  6
Continuous
 62
     7
100
AcDbSpline
210
0.0
220
0.0
230
1.0
 70
     8
 71
     3
 72
    13
 73
     9
 74
     7
 42
0.0000000001
 43
0.0000000001
 44
0.0000000001
 12
-0.8017432304689428
 22
-0.5976686309295678
 32
0.0
 13
-0.0517258721552377
 23
-0.9986613210442168
 33
0.0
 40
0.0
 40
0.0
 40
0.0
 40
0.0
 40
0.0553526790333351
 40
0.1051985813414223
 40
0.1495775690334057
 40
0.1887596411798715
 40
0.2233413024450093
 40
0.2543646544583214
 40
0.2543646544583214
 40
0.2543646544583214
 40
0.2543646544583214
 10
138.1928145707999
 20
193.6380902268999
 30
0.0
 10
138.1780216922321
 20
193.6270627069345
 30
0.0
 10
138.150574235182
 20
193.6051777399147
 30
0.0
 10
138.1142555936187
 20
193.5709178702262
 30
0.0
 10
138.0851669850762
 20
193.5371525958916
 30
0.0
 10
138.0635307976814
 20
193.5040690064267
 30
0.0
 10
138.0495543227829
 20
193.4718413884227
 30
0.0
 10
138.0453913713132
 20
193.4501101459014
 30
0.0
 10
138.0448564679998
 20
193.4397828719998
 30
0.0
 11
138.1928145707999
 21
193.6380902268999
 31
0.0
 11
138.1496647037999
 21
193.6034202390999
 31
0.0
 11
138.1135811818
 21
193.5690313830999
 31
0.0
 11
138.0848565962998
 21
193.5352025087999
 31
0.0
 11
138.0637238674
 21
193.5022079251998
 31
0.0
 11
138.0503543546999
 21
193.4703151763999
 31
0.0
 11
138.0448564679998
 21
193.4397828719998
 31
0.0
  0
SPLINE
  5
1901A
330
20
100
AcDbEntity
  8
0
  6
Continuous
 62
     7
100
AcDbSpline
210
0.0
220
0.0
230
1.0
 70
     8
 71
     3
 72
    24
 73
    20
 74
    18
 42
0.0000000001
 43
0.0000000001
 44
0.0000000001
 12
0.3311928308954233
 22
-0.9435630920947868
 32
0.0
 13
-0.3311926692315084
 23
-0.94356314883918
 33
0.0
 40
0.0
 40
0.0
 40
0.0
 40
0.0
 40
0.1754314379403942
 40
0.3610942436488301
 40
0.5572489776819233
 40
0.7639796792828
 40
0.9812699217906518
 40
1.208629962407632
 40
1.441597548509151
 40
1.676367060874223
 40
1.911763619892218
 40
2.14657281688058
 40
2.379581931136546
 40
2.606915204246757
 40
2.824211175243842
 40
3.03098378761084
 40
3.227207296606597
 40
3.412953980578677
 40
3.588470124822201
 40
3.588470124822201
 40
3.588470124822201
 40
3.588470124822201
 10
138.1928139271998
 20
193.6380926834999
 30
0.0
 10
138.2121811387196
 20
193.582915806822
 30
0.0
 10
138.2500929453137
 20
193.4686488235286
 30
0.0
 10
138.3024460582548
 20
193.2903909862441
 30
0.0
 10
138.350894306456
 20
193.1002378901345
 30
0.0
 10
138.3943257727564
 20
192.8980736934015
 30
0.0
 10
138.4314875332821
 20
192.6840899275653
 30
0.0
 10
138.4608773263335
 20
192.4600690462806
 30
0.0
 10
138.4811340930734
 20
192.2291838673581
 30
0.0
 10
138.4914201740636
 20
191.994956788867
 30
0.0
 10
138.4914276173398
 20
191.7598894456256
 30
0.0
 10
138.481154314493
 20
191.5256346747971
 30
0.0
 10
138.4609079740437
 20
191.294730327485
 30
0.0
 10
138.4315286497391
 20
191.0707012040379
 30
0.0
 10
138.3943769771081
 20
190.8567086193197
 30
0.0
 10
138.350947145853
 20
190.6545043508182
 30
0.0
 10
138.302490157607
 20
190.4642865074842
 30
0.0
 10
138.2501190552781
 20
190.2859514410365
 30
0.0
 10
138.2121904761349
 20
190.1716307747114
 30
0.0
 10
138.1928139226999
 20
190.1164272527999
 30
0.0
 11
138.1928139271998
 21
193.6380926834999
 31
0.0
 11
138.2480776074
 21
193.4715930886999
 31
0.0
 11
138.3004102968999
 21
193.2934584007998
 31
0.0
 11
138.3488502383999
 21
193.1033788075999
 31
0.0
 11
138.3922779905998
 21
192.9012609871998
 31
0.0
 11
138.429460596
 21
192.6871757159999
 31
0.0
 11
138.4590361684999
 21
192.4617475154999
 31
0.0
 11
138.4793975128999
 21
192.2296714248999
 31
0.0
 11
138.4896973175999
 21
191.9951279577999
 31
0.0
 11
138.4897047710998
 21
191.7597313988999
 31
0.0
 11
138.4794172117999
 21
191.5251476715999
 31
0.0
 11
138.4590643181998
 21
191.2930291521998
 31
0.0
 11
138.4295036537
 21
191.0676259929999
 31
0.0
 11
138.3923313565997
 21
190.8535331174999
 31
0.0
 11
138.3489045922999
 21
190.6513722177999
 31
0.0
 11
138.3004549492999
 21
190.4612241239999
 31
0.0
 11
138.2481029206998
 21
190.2830076945999
 31
0.0
 11
138.1928139226999
 21
190.1164272527999
 31
0.0
  0
SPLINE
  5
1901B
330
20
100
AcDbEntity
  8
0
  6
Continuous
 62
     7
100
AcDbSpline
210
0.0
220
0.0
230
1.0
 70
     8
 71
     3
 72
    13
 73
     9
 74
     7
 42
0.0000000001
 43
0.0000000001
 44
0.0000000001
 12
-0.8017434883961195
 22
0.597668284932722
 32
0.0
 13
-0.0517263936172874
 23
0.9986612940348443
 33
0.0
 40
0.0
 40
0.0
 40
0.0
 40
0.0
 40
0.0553527019552468
 40
0.1051986247623304
 40
0.1495776299142983
 40
0.1887597161709378
 40
0.223341387884088
 40
0.2543647464610336
 40
0.2543647464610336
 40
0.2543647464610336
 40
0.2543647464610336
 10
138.1928147302
 20
190.1164297231999
 30
0.0
 10
138.1780218407474
 20
190.1274572413479
 30
0.0
 10
138.1505743628128
 20
190.1493422053891
 30
0.0
 10
138.1142556907359
 20
190.1836020722845
 30
0.0
 10
138.0851670543887
 20
190.2173673455704
 30
0.0
 10
138.0635308423355
 20
190.2504509356278
 30
0.0
 10
138.0495543456012
 20
190.2826785554722
 30
0.0
 10
138.0453913811189
 20
190.3044098013926
 30
0.0
 10
138.0448564722999
 20
190.3147370771998
 30
0.0
 11
138.1928147302
 21
190.1164297231999
 31
0.0
 11
138.1496648300998
 21
190.1510997063999
 31
0.0
 11
138.1135812773998
 21
190.1854885598999
 31
0.0
 11
138.0848566640999
 21
190.2193174334998
 31
0.0
 11
138.0637239105998
 21
190.2523120180999
 31
0.0
 11
138.0503543766
 21
190.2842047692999
 31
0.0
 11
138.0448564722999
 21
190.3147370771998
 31
0.0
  0
SPLINE
  5
1901C
330
20
100
AcDbEntity
  8
0
  6
Continuous
 62
     7
100
AcDbSpline
210
0.0
220
0.0
230
1.0
 70
     8
 71
     3
 72
    24
 73
    20
 74
    18
 42
0.0000000001
 43
0.0000000001
 44
0.0000000001
 12
0.2314961915196647
 22
-0.9728358100480731
 32
0.0
 13
-0.2314961885704716
 23
-0.9728358107498637
 33
0.0
 40
0.0
 40
0.0
 40
0.0
 40
0.0
 40
0.1513411214063492
 40
0.3124443896388849
 40
0.4835678578700803
 40
0.6647948307714458
 40
0.8560873411365406
 40
1.056946203582508
 40
1.26329793281751
 40
1.471579281167579
 40
1.68052936921523
 40
1.88884622842455
 40
2.095235260896192
 40
2.296071231333402
 40
2.487369750781293
 40
2.668634496199568
 40
2.839818867971787
 40
3.00099552871249
 40
3.152409931252867
 40
3.152409931252867
 40
3.152409931252867
 40
3.152409931252867
 10
138.0448565266999
 20
193.4397828838999
 30
0.0
 10
138.0565348244418
 20
193.3907061964209
 30
0.0
 10
138.0793690695169
 20
193.2890793554735
 30
0.0
 10
138.1107819208912
 20
193.1309639960097
 30
0.0
 10
138.1398288410274
 20
192.9622758024041
 30
0.0
 10
138.165849963206
 20
192.7829174015479
 30
0.0
 10
138.1881014133961
 20
192.5930659940667
 30
0.0
 10
138.2056899721965
 20
192.3943138194697
 30
0.0
 10
138.2178081911807
 20
192.1894782938901
 30
0.0
 10
138.2239604098135
 20
191.9816780066309
 30
0.0
 10
138.2239648612756
 20
191.7731314218221
 30
0.0
 10
138.2178202887133
 20
191.5653066125955
 30
0.0
 10
138.2057083112149
 20
191.3604540337866
 30
0.0
 10
138.1881260166413
 20
191.1616944797904
 30
0.0
 10
138.1658806344496
 20
190.9718353484972
 30
0.0
 10
138.1398605361062
 20
190.7924415266195
 30
0.0
 10
138.1108084295807
 20
190.62369600605
 30
0.0
 10
138.0793848273824
 20
190.4655122163155
 30
0.0
 10
138.0565404790608
 20
190.3638375172181
 30
0.0
 10
138.0448565266999
 20
190.3147370661999
 30
0.0
 11
138.0448565266999
 21
193.4397828838999
 31
0.0
 11
138.0780602326999
 21
193.2921290693999
 31
0.0
 11
138.1094756406999
 21
193.1341185153998
 31
0.0
 11
138.1385336217998
 21
192.9654802186999
 31
0.0
 11
138.1645696944999
 21
192.7861332403999
 31
0.0
 11
138.1868511536999
 21
192.5961428166999
 31
0.0
 11
138.2045676331999
 21
192.3960668086999
 31
0.0
 11
138.2167614445999
 21
192.1900756750999
 31
0.0
 11
138.2229287556999
 21
191.9818856552999
 31
0.0
 11
138.2229332183998
 21
191.7729355672999
 31
0.0
 11
138.2167732403999
 21
191.5647098039999
 31
0.0
 11
138.2045844933998
 21
191.3586810021998
 31
0.0
 11
138.1868769490999
 21
191.1586271846998
 31
0.0
 11
138.1646016791997
 21
190.9686299849999
 31
0.0
 11
138.1385662156997
 21
190.7892447498998
 31
0.0
 11
138.1095024345998
 21
190.6205456515999
 31
0.0
 11
138.0780754346998
 21
190.4624625732999
 31
0.0
 11
138.0448565266999
 21
190.3147370661999
 31
0.0
  0
LINE
  5
19065
330
20
100
AcDbEntity
  8
0
100
AcDbLine
 10
220.5124533559996
 20
167.1922848488998
 30
0.0
 11
220.5124533559996
 21
190.1164295241581
 31
0.0
  0
SPLINE
  5
19080
330
20
100
AcDbEntity
  8
0
  6
Continuous
 62
     7
100
AcDbSpline
210
0.0
220
0.0
230
1.0
 70
     8
 71
     3
 72
    29
 73
    25
 74
    23
 42
0.0000000001
 43
0.0000000001
 44
0.0000000001
 12
-0.0000155229533173
 22
-0.9999999998795189
 32
0.0
 13
-0.976596236102701
 23
0.2150808955487156
 33
0.0
 40
0.0
 40
0.0
 40
0.0
 40
0.0
 40
0.1286397474660582
 40
0.2540409121800784
 40
0.3766807675709509
 40
0.4970031647579907
 40
0.615458172195214
 40
0.7324964858878876
 40
0.8485021484787916
 40
0.9635867290285283
 40
1.077711687745836
 40
1.190600972677359
 40
1.301500382901419
 40
1.409657316849445
 40
1.514807170792433
 40
1.61730080895089
 40
1.717534361756785
 40
1.815783511017752
 40
1.912476193545409
 40
2.008252328231515
 40
2.103903088112106
 40
2.200347187281128
 40
2.298578991774669
 40
2.399556272470845
 40
2.399556272470845
 40
2.399556272470845
 40
2.399556272470845
 10
227.6965283555
 20
185.9774659803998
 30
0.0
 10
227.696527689877
 20
185.934586064583
 30
0.0
 10
227.6947964185153
 20
185.8498945273462
 30
0.0
 10
227.6869686166335
 20
185.7245428995324
 30
0.0
 10
227.6740950055134
 20
185.6023931279698
 30
0.0
 10
227.6562347566814
 20
185.4832120439086
 30
0.0
 10
227.6333591163503
 20
185.3667907782612
 30
0.0
 10
227.6053469944149
 20
185.2529750183225
 30
0.0
 10
227.5720091844496
 20
185.1417705923291
 30
0.0
 10
227.5331264922107
 20
185.0334052601396
 30
0.0
 10
227.4885107562728
 20
184.9283896129657
 30
0.0
 10
227.4380951229096
 20
184.8275768205628
 30
0.0
 10
227.3820091597073
 20
184.732090586399
 30
0.0
 10
227.3205450875007
 20
184.6430753454166
 30
0.0
 10
227.253955897045
 20
184.5613903731244
 30
0.0
 10
227.182362704235
 20
184.4876658755125
 30
0.0
 10
227.1058396606691
 20
184.4225319504191
 30
0.0
 10
227.0245619816823
 20
184.3667415947257
 30
0.0
 10
226.9388247374468
 20
184.321106997759
 30
0.0
 10
226.84899963998
 20
184.2864268587326
 30
0.0
 10
226.7555535954969
 20
184.2634609272326
 30
0.0
 10
226.6590665580429
 20
184.2528938470804
 30
0.0
 10
226.5602675328988
 20
184.2552696130816
 30
0.0
 10
226.4944490458864
 20
184.2655598123125
 30
0.0
 10
226.4615777017998
 20
184.2727992402999
 30
0.0
 11
227.6965283555
 21
185.9774659803998
 31
0.0
 11
227.6938646004999
 21
185.8488538151999
 31
0.0
 11
227.6860130577999
 21
185.7236986898998
 31
0.0
 11
227.6731183059
 21
185.6017386164998
 31
0.0
 11
227.6552406733998
 21
185.4827517704999
 31
0.0
 11
227.6323502889999
 21
185.3665294873999
 31
0.0
 11
227.6043201522999
 21
185.2528972810999
 31
0.0
 11
227.5709385552999
 21
185.1417983038999
 31
0.0
 11
227.5319907625
 21
185.0335045823999
 31
0.0
 11
227.4872721871998
 21
184.9285057479999
 31
0.0
 11
227.4366727200999
 21
184.8275915042998
 31
0.0
 11
227.3803879888999
 21
184.7320367648999
 31
0.0
 11
227.3188082465998
 21
184.6431218746998
 31
0.0
 11
227.2522414166
 21
184.5617256282999
 31
0.0
 11
227.1807121188998
 21
184.4883191882999
 31
0.0
 11
227.1042668638999
 21
184.4234895029999
 31
0.0
 11
227.0231647706999
 21
184.3680337024999
 31
0.0
 11
226.9377360286999
 21
184.3227412649999
 31
0.0
 11
226.8483449038999
 21
184.2883567512998
 31
0.0
 11
226.7554430191999
 21
184.2655903794998
 31
0.0
 11
226.6595731294998
 21
184.2550818822999
 31
0.0
 11
226.5613677549999
 21
184.2573604417998
 31
0.0
 11
226.4615777017998
 21
184.2727992402999
 31
0.0
  0
LINE
  5
19081
330
20
100
AcDbEntity
  8
0
  6
Continuous
 62
     7
100
AcDbLine
 10
227.6965283555
 20
185.9774659803998
 30
0.0
 11
226.8682293762998
 21
185.9774659803998
 31
0.0
  0
SPLINE
  5
19082
330
20
100
AcDbEntity
  8
0
  6
Continuous
 62
     7
100
AcDbSpline
210
0.0
220
0.0
230
1.0
 70
     8
 71
     3
 72
    29
 73
    25
 74
    23
 42
0.0000000001
 43
0.0000000001
 44
0.0000000001
 12
0.9765962286100974
 22
0.2150809295696261
 32
0.0
 13
0.0000155291625864
 23
-0.9999999998794224
 33
0.0
 40
0.0
 40
0.0
 40
0.0
 40
0.0
 40
0.1009271418137881
 40
0.1991389706115885
 40
0.2955820007827701
 40
0.391241368478616
 40
0.4870276108664494
 40
0.5837290536959242
 40
0.681993221259619
 40
0.7822380118021365
 40
0.8847384298066746
 40
0.9898928969940609
 40
1.098053046869418
 40
1.208954304321327
 40
1.321844036570415
 40
1.435968465534951
 40
1.55105221769765
 40
1.667057461871328
 40
1.784096268416484
 40
1.902552418392545
 40
2.022876101415372
 40
2.145516852474437
 40
2.27091799934654
 40
2.399556305270791
 40
2.399556305270791
 40
2.399556305270791
 40
2.399556305270791
 10
226.4615777017998
 20
199.4817207097999
 30
0.0
 10
226.4944327238197
 20
199.4889565442933
 30
0.0
 10
226.5602274962346
 20
199.4992451098088
 30
0.0
 10
226.6590024227696
 20
199.5016283113183
 30
0.0
 10
226.7554863484799
 20
199.4910710976097
 30
0.0
 10
226.8489402732255
 20
199.4681122475521
 30
0.0
 10
226.938776588933
 20
199.4334354727303
 30
0.0
 10
227.0245265166554
 20
199.3878004917767
 30
0.0
 10
227.1058161010555
 20
199.3320066801895
 30
0.0
 10
227.1823490457447
 20
199.2668673030733
 30
0.0
 10
227.2539484232677
 20
199.1931382507401
 30
0.0
 10
227.3205412351511
 20
199.111449924541
 30
0.0
 10
227.3820074217113
 20
199.0224322114515
 30
0.0
 10
227.4380944329129
 20
198.9269444570792
 30
0.0
 10
227.4885103755431
 20
198.8261311604586
 30
0.0
 10
227.5331260395885
 20
198.721115813455
 30
0.0
 10
227.5720086113245
 20
198.6127510682811
 30
0.0
 10
227.6053464555438
 20
198.5015469152905
 30
0.0
 10
227.6333587738095
 20
198.3877307851962
 30
0.0
 10
227.6562346599434
 20
198.2713085742371
 30
0.0
 10
227.674095076146
 20
198.1521263936196
 30
0.0
 10
227.6869687183993
 20
198.0299758993907
 30
0.0
 10
227.6947964486861
 20
197.9046244554093
 30
0.0
 10
227.6965276896182
 20
197.8199334050028
 30
0.0
 10
227.6965283555
 20
197.7770539696998
 30
0.0
 11
226.4615777017998
 21
199.4817207097999
 31
0.0
 11
226.5613177083
 21
199.4971550564999
 31
0.0
 11
226.6595029279
 21
199.4994410940999
 31
0.0
 11
226.7553727734999
 21
199.4889420096999
 31
0.0
 11
226.8482850815
 21
199.4661820085999
 31
0.0
 11
226.9376882032998
 21
199.4318005303999
 31
0.0
 11
227.0231273140999
 21
199.3865089484999
 31
0.0
 11
227.1042440217998
 21
199.3310479138999
 31
0.0
 11
227.1806993381
 21
199.2662127178999
 31
0.0
 11
227.2522342888999
 21
199.1928023200999
 31
0.0
 11
227.3188045833998
 21
199.1114029474999
 31
0.0
 11
227.3803864406999
 21
199.0224856101998
 31
0.0
 11
227.436672229
 21
198.9269293495999
 31
0.0
 11
227.4872719433997
 21
198.8260147294998
 31
0.0
 11
227.5319903573999
 21
198.7210164021998
 31
0.0
 11
227.5709379488
 21
198.6127234885999
 31
0.0
 11
227.6043195315
 21
198.5016249439999
 31
0.0
 11
227.6323498859997
 21
198.3879922837998
 31
0.0
 11
227.6552405500999
 21
198.2717688912998
 31
0.0
 11
227.6731183773998
 21
198.1527807742999
 31
0.0
 11
227.6860131799998
 21
198.0308198055998
 31
0.0
 11
227.6938646609
 21
197.9056646942999
 31
0.0
 11
227.6965283555
 21
197.7770539696998
 31
0.0
  0
LINE
  5
19083
330
20
100
AcDbEntity
  8
0
  6
Continuous
 62
     7
100
AcDbLine
 10
227.6965283555
 20
197.7770539696998
 30
0.0
 11
226.8682293762998
 21
197.7770539696998
 31
0.0
  0
SPLINE
  5
19084
330
20
100
AcDbEntity
  8
0
  6
Continuous
 62
     7
100
AcDbSpline
210
0.0
220
0.0
230
1.0
 70
     8
 71
     3
 72
    13
 73
     9
 74
     7
 42
0.0000000001
 43
0.0000000001
 44
0.0000000001
 12
0.8017434950751828
 22
-0.5976682759730771
 32
0.0
 13
0.0517264364340863
 23
-0.9986612918171157
 33
0.0
 40
0.0
 40
0.0
 40
0.0
 40
0.0
 40
0.0553527033122282
 40
0.1051986273432988
 40
0.149577633771071
 40
0.1887597210051426
 40
0.2233413934054304
 40
0.2543647524095079
 40
0.2543647524095079
 40
0.2543647524095079
 40
0.2543647524095079
 10
220.5124533484999
 20
193.6380902268999
 30
0.0
 10
220.5272462384384
 20
193.6270627086468
 30
0.0
 10
220.5546937172877
 20
193.6051777443861
 30
0.0
 10
220.5910123909761
 20
193.5709178773184
 30
0.0
 10
220.6201010286347
 20
193.5371526036512
 30
0.0
 10
220.6417372422919
 20
193.5040690134806
 30
0.0
 10
220.6557137402802
 20
193.4718413934245
 30
0.0
 10
220.6598767057306
 20
193.4501101473264
 30
0.0
 10
220.6604116149998
 20
193.4397828713999
 30
0.0
 11
220.5124533484999
 21
193.6380902268999
 31
0.0
 11
220.5556032500998
 21
193.6034202433999
 31
0.0
 11
220.5916868042999
 21
193.5690313896999
 31
0.0
 11
220.6204114190999
 21
193.5352025156999
 31
0.0
 11
220.6415441741
 21
193.5022079308999
 31
0.0
 11
220.6549137094
 21
193.4703151794998
 31
0.0
 11
220.6604116149998
 21
193.4397828713999
 31
0.0
  0
SPLINE
  5
19085
330
20
100
AcDbEntity
  8
0
  6
Continuous
 62
     7
100
AcDbSpline
210
0.0
220
0.0
230
1.0
 70
     8
 71
     3
 72
    24
 73
    20
 74
    18
 42
0.0000000001
 43
0.0000000001
 44
0.0000000001
 12
-0.3311928218349713
 22
0.9435630952750265
 32
0.0
 13
0.3311926601549695
 23
0.9435631520250645
 33
0.0
 40
0.0
 40
0.0
 40
0.0
 40
0.0
 40
0.1754316080723716
 40
0.3610944137807803
 40
0.5572491478861423
 40
0.7639798494870249
 40
0.9812700918963106
 40
1.208630132513356
 40
1.441597718614801
 40
1.676367230979928
 40
1.911763789997922
 40
2.146572986986261
 40
2.379582101242191
 40
2.606915374352495
 40
2.8242113453495
 40
3.030983957716549
 40
3.227207466809149
 40
3.412954150685296
 40
3.58847046563035
 40
3.58847046563035
 40
3.58847046563035
 40
3.58847046563035
 10
220.5124542052
 20
190.1164271047999
 30
0.0
 10
220.4930869754278
 20
190.1716040351738
 30
0.0
 10
220.4551751511569
 20
190.285871072361
 30
0.0
 10
220.4028220213013
 20
190.4641289638072
 30
0.0
 10
220.3543737735507
 20
190.6542820600709
 30
0.0
 10
220.3109423071255
 20
190.8564462567585
 30
0.0
 10
220.2737805466154
 20
191.0704300225683
 30
0.0
 10
220.2443907535654
 20
191.2944509038187
 30
0.0
 10
220.2241339868266
 20
191.5253360827416
 30
0.0
 10
220.2138479058365
 20
191.7595631612328
 30
0.0
 10
220.2138404625595
 20
191.9946305044742
 30
0.0
 10
220.2241137654074
 20
192.2288852753025
 30
0.0
 10
220.2443601058539
 20
192.4597896226153
 30
0.0
 10
220.2737394301675
 20
192.6838187460597
 30
0.0
 10
220.3108911027689
 20
192.8978113307869
 30
0.0
 10
220.3543209341312
 20
193.1000155992895
 30
0.0
 10
220.4027779220339
 20
193.2902334427286
 30
0.0
 10
220.4551490414443
 20
193.4685685634564
 30
0.0
 10
220.4930776380508
 20
193.5828892839127
 30
0.0
 10
220.5124542097999
 20
193.6380928596999
 30
0.0
 11
220.5124542052
 21
190.1164271047999
 31
0.0
 11
220.4571904723998
 21
190.2829268613999
 31
0.0
 11
220.4048577828999
 21
190.4610615492998
 31
0.0
 11
220.3564178414998
 21
190.6511411425999
 31
0.0
 11
220.3129900892998
 21
190.8532589629999
 31
0.0
 11
220.2758074839
 21
191.0673442340999
 31
0.0
 11
220.2462319113998
 21
191.2927724345999
 31
0.0
 11
220.225870567
 21
191.5248485251998
 31
0.0
 11
220.2155707623
 21
191.7593919922999
 31
0.0
 11
220.2155633087998
 21
191.9947885511999
 31
0.0
 11
220.2258508680999
 21
192.2293722784999
 31
0.0
 11
220.2462037616998
 21
192.4614907978998
 31
0.0
 11
220.2757644261999
 21
192.6868939570999
 31
0.0
 11
220.3129367232999
 21
192.9009868325999
 31
0.0
 11
220.3563634875999
 21
193.1031477322999
 31
0.0
 11
220.4048131305998
 21
193.2932958261999
 31
0.0
 11
220.4571651591999
 21
193.4715122554998
 31
0.0
 11
220.5124542097999
 21
193.6380928596999
 31
0.0
  0
ARC
  5
19086
330
20
100
AcDbEntity
  8
0
  6
Continuous
 62
     7
100
AcDbCircle
 10
228.3526340399
 20
191.8772599750999
 30
0.0
 40
7.079863524099999
100
AcDbArc
 50
109.6770621850992
 51
250.3229377172984
  0
ARC
  5
19087
330
20
100
AcDbEntity
  8
0
  6
Continuous
 62
     7
100
AcDbCircle
 10
228.3526340399
 20
191.8772599750999
 30
0.0
 40
6.083668826
100
AcDbArc
 50
104.1226549005032
 51
255.8773450940023
  0
LINE
  5
19088
330
20
100
AcDbEntity
  8
0
  6
Continuous
 62
     7
100
AcDbLine
 10
226.8682293762998
 20
197.7770484803999
 30
0.0
 11
226.8682293762998
 21
185.9774714720999
 31
0.0
  0
SPLINE
  5
19089
330
20
100
AcDbEntity
  8
0
  6
Continuous
 62
     7
100
AcDbSpline
210
0.0
220
0.0
230
1.0
 70
     8
 71
     3
 72
    28
 73
    24
 74
    22
 42
0.0000000001
 43
0.0000000001
 44
0.0000000001
 12
0.2314995822276114
 22
0.9728350031883318
 32
0.0
 13
0.9802273057134309
 23
0.1978747814497543
 33
0.0
 40
0.0
 40
0.0
 40
0.0
 40
0.0
 40
0.2606997622591967
 40
0.5271487278483768
 40
0.801006273665896
 40
1.083590499979233
 40
1.375933374732797
 40
1.678736201244192
 40
1.992513763579917
 40
2.318069396430059
 40
2.656075607325581
 40
3.007073556483911
 40
3.37168841267443
 40
3.750359532562674
 40
4.143334056813348
 40
4.550778911030167
 40
4.972741545580662
 40
5.409203198935474
 40
5.859308871201898
 40
6.321265799990387
 40
6.794349680641059
 40
7.27898497950441
 40
7.775748481647146
 40
7.775748481647146
 40
7.775748481647146
 40
7.775748481647146
 10
220.6604115531999
 20
193.4397828838999
 30
0.0
 10
220.6805288485498
 20
193.5243221685827
 30
0.0
 10
220.7245100808461
 20
193.6944982824886
 30
0.0
 10
220.8013685908539
 20
193.9502678744311
 30
0.0
 10
220.890761103385
 20
194.2096698219804
 30
0.0
 10
220.9938891738884
 20
194.473221233507
 30
0.0
 10
221.1120078705608
 20
194.7409940194729
 30
0.0
 10
221.2463824066153
 20
195.0126519565691
 30
0.0
 10
221.3983221085203
 20
195.2876230742576
 30
0.0
 10
221.5691954841243
 20
195.5651407497559
 30
0.0
 10
221.7604293312811
 20
195.844235752378
 30
0.0
 10
221.9734469566732
 20
196.1236614262607
 30
0.0
 10
222.2096250723821
 20
196.4018657616331
 30
0.0
 10
222.4702398109822
 20
196.6769683103573
 30
0.0
 10
222.7563740110699
 20
196.9467278598424
 30
0.0
 10
223.0688719406837
 20
197.2085778747342
 30
0.0
 10
223.408314277882
 20
197.459677669822
 30
0.0
 10
223.774753890487
 20
197.6968032590606
 30
0.0
 10
224.1673810066479
 20
197.9163273040344
 30
0.0
 10
224.5847341991496
 20
198.1146112588998
 30
0.0
 10
225.0253107776446
 20
198.2883681074392
 30
0.0
 10
225.4879433911443
 20
198.4346402208031
 30
0.0
 10
225.8064004862726
 20
198.510932386627
 30
0.0
 10
225.9687142026999
 20
198.5436980430998
 30
0.0
 11
220.6604115531999
 21
193.4397828838999
 31
0.0
 11
220.7256446115999
 21
193.6921893301999
 31
0.0
 11
220.8023238236
 21
193.9473664249999
 31
0.0
 11
220.8915475466
 21
194.2062816285998
 31
0.0
 11
220.9945191202999
 21
194.4694369058999
 31
0.0
 11
221.1125053185998
 21
194.7369132850999
 31
0.0
 11
221.2467573751999
 21
195.0083279807999
 31
0.0
 11
221.3985114358999
 21
195.2829678607999
 31
0.0
 11
221.5691995872
 21
195.5601898387998
 31
0.0
 11
221.7602501555998
 21
195.8390229051999
 31
0.0
 11
221.9730442224999
 21
196.1181613034998
 31
0.0
 11
222.2090118105998
 21
196.3961240540999
 31
0.0
 11
222.4694328476
 21
196.6710289476998
 31
0.0
 11
222.7553653990999
 21
196.9406055651998
 31
0.0
 11
223.0676630597999
 21
197.2022952293999
 31
0.0
 11
223.4068924692997
 21
197.4532451699999
 31
0.0
 11
223.7733211279
 21
197.6903713241999
 31
0.0
 11
224.1661857475998
 21
197.9100358565999
 31
0.0
 11
224.5834424502999
 21
198.1082807760999
 31
0.0
 11
225.0235341639998
 21
198.2818539354999
 31
0.0
 11
225.4856220413
 21
198.4279572090999
 31
0.0
 11
225.9687142026999
 21
198.5436980430998
 31
0.0
  0
SPLINE
  5
1908A
330
20
100
AcDbEntity
  8
0
  6
Continuous
 62
     7
100
AcDbSpline
210
0.0
220
0.0
230
1.0
 70
     8
 71
     3
 72
    29
 73
    25
 74
    23
 42
0.0000000001
 43
0.0000000001
 44
0.0000000001
 12
0.2179584929094289
 22
-0.975958039758191
 32
0.0
 13
-0.963521326725621
 23
0.2676315619371142
 33
0.0
 40
0.0
 40
0.0
 40
0.0
 40
0.0
 40
0.0688481769735411
 40
0.1343008727699219
 40
0.1970873190330984
 40
0.2578507989782431
 40
0.3172003613550199
 40
0.3757241860637339
 40
0.4339728771908572
 40
0.4923710001967283
 40
0.5512852953551337
 40
0.6109775343168903
 40
0.671452097486518
 40
0.7326670586093211
 40
0.7947889182647121
 40
0.8582999580783765
 40
0.9236819550484439
 40
0.9912769381835627
 40
1.061424709178176
 40
1.134488829923174
 40
1.210805246723505
 40
1.290668494988069
 40
1.37431494280267
 40
1.461885848873121
 40
1.461885848873121
 40
1.461885848873121
 40
1.461885848873121
 10
226.8682283534999
 20
185.9774717317998
 30
0.0
 10
226.8732303684641
 20
185.9550740878532
 30
0.0
 10
226.8813286183114
 20
185.910988921153
 30
0.0
 10
226.8879305699954
 20
185.84555437559
 30
0.0
 10
226.8889964569399
 20
185.7824861407472
 30
0.0
 10
226.8847736534319
 20
185.7215887473936
 30
0.0
 10
226.8754071690816
 20
185.6627036111024
 30
0.0
 10
226.8609352078172
 20
185.605722213369
 30
0.0
 10
226.8413082913496
 20
185.5506365644568
 30
0.0
 10
226.8164232490479
 20
185.4975684662643
 30
0.0
 10
226.7861762455246
 20
185.4467952769563
 30
0.0
 10
226.7505411784147
 20
185.3987754859966
 30
0.0
 10
226.7096413058984
 20
185.3541015842781
 30
0.0
 10
226.6637286113571
 20
185.3133634385707
 30
0.0
 10
226.6130231304238
 20
185.277005261982
 30
0.0
 10
226.5576356834979
 20
185.2453730509838
 30
0.0
 10
226.4976357380491
 20
185.2188291267928
 30
0.0
 10
226.4331589546522
 20
185.1977925845667
 30
0.0
 10
226.3644143834655
 20
185.1827007036498
 30
0.0
 10
226.2916482316156
 20
185.1739780609783
 30
0.0
 10
226.2151507821828
 20
185.1720253118538
 30
0.0
 10
226.1352714803326
 20
185.1772044380866
 30
0.0
 10
226.0524370198
 20
185.1898119698628
 30
0.0
 10
225.9968384488331
 20
185.2030100996759
 30
0.0
 10
225.9687129702999
 20
185.2108223457999
 30
0.0
 11
226.8682283534999
 21
185.9774717317998
 31
0.0
 11
226.8805874125999
 21
185.9097419367999
 31
0.0
 11
226.8870892350999
 21
185.8446129747999
 31
0.0
 11
226.8880912454998
 21
185.7818345245999
 31
0.0
 11
226.8838389619999
 21
185.7212200165999
 31
0.0
 11
226.8744752535998
 21
185.6626137752999
 31
0.0
 11
226.8600363553999
 21
185.6058990833999
 31
0.0
 11
226.8404611144998
 21
185.5510381686999
 31
0.0
 11
226.8156493911998
 21
185.4981730652999
 31
0.0
 11
226.7854866930999
 21
185.4475656960999
 31
0.0
 11
226.7499110163
 21
185.3996330911999
 31
0.0
 11
226.7090782331999
 21
185.3550252822999
 31
0.0
 11
226.6632991349999
 21
185.3143860692999
 31
0.0
 11
226.6128290500999
 21
185.2781659646998
 31
0.0
 11
226.5576963251998
 21
185.2466376468998
 31
0.0
 11
226.4979237203998
 21
185.2201415859999
 31
0.0
 11
226.4336814272
 21
185.1991175637999
 31
0.0
 11
226.3651811136
 21
185.1840040991999
 31
0.0
 11
226.2926466054999
 21
185.1752228193999
 31
0.0
 11
226.2163575743999
 21
185.1731785084999
 31
0.0
 11
226.1366548182999
 21
185.1782390512999
 31
0.0
 11
226.0539436988998
 21
185.1907129824999
 31
0.0
 11
225.9687129702999
 21
185.2108223457999
 31
0.0
  0
SPLINE
  5
1908B
330
20
100
AcDbEntity
  8
0
  6
Continuous
 62
     7
100
AcDbSpline
210
0.0
220
0.0
230
1.0
 70
     8
 71
     3
 72
    28
 73
    24
 74
    22
 42
0.0000000001
 43
0.0000000001
 44
0.0000000001
 12
-0.980227303396458
 22
0.1978747929275185
 32
0.0
 13
-0.2314995865684053
 23
0.9728350021553795
 33
0.0
 40
0.0
 40
0.0
 40
0.0
 40
0.0
 40
0.4967038494814508
 40
0.9813124333224884
 40
1.454395283243285
 40
1.916365260971952
 40
2.366472620901109
 40
2.802924194880629
 40
3.224883869555569
 40
3.63232932036212
 40
4.025305272277428
 40
4.403976480098008
 40
4.768589213887806
 40
5.119586252712348
 40
5.457592440826298
 40
5.783146537066988
 40
6.096924860602753
 40
6.399725170606482
 40
6.692060468759761
 40
6.974641260260883
 40
7.248508535296661
 40
7.514988562659001
 40
7.775748508143722
 40
7.775748508143722
 40
7.775748508143722
 40
7.775748508143722
 10
225.9687141906999
 20
185.2108219093999
 30
0.0
 10
225.8064199657119
 20
185.2435836331873
 30
0.0
 10
225.4879906489019
 20
185.319867688565
 30
0.0
 10
225.0253843222768
 20
185.4661261048386
 30
0.0
 10
224.5848101164148
 20
185.6398755982794
 30
0.0
 10
224.1674504440307
 20
185.8381566196884
 30
0.0
 10
223.7748196224218
 20
186.0576772249943
 30
0.0
 10
223.4083805171681
 20
186.2947966001844
 30
0.0
 10
223.068938433167
 20
186.545889753605
 30
0.0
 10
222.7564374744325
 20
186.80773566842
 30
0.0
 10
222.4702994289259
 20
187.0774921682249
 30
0.0
 10
222.2096814575265
 20
187.3525913756793
 30
0.0
 10
221.9735005228579
 20
187.6307920265685
 30
0.0
 10
221.7604799779556
 20
187.9102141923621
 30
0.0
 10
221.5692430391224
 20
188.1893060783093
 30
0.0
 10
221.3983662310183
 20
188.4668213259109
 30
0.0
 10
221.2464235001326
 20
188.7417895166204
 30
0.0
 10
221.1120467895356
 20
189.0134429046926
 30
0.0
 10
220.9939262090711
 20
189.2812099240683
 30
0.0
 10
220.8907944296331
 20
189.5447594226299
 30
0.0
 10
220.8013941709058
 20
189.8041718809491
 30
0.0
 10
220.7245231019499
 20
190.0599728672696
 30
0.0
 10
220.6805334930576
 20
190.2301782654906
 30
0.0
 10
220.6604115531999
 20
190.3147370661999
 30
0.0
 11
225.9687141906999
 21
185.2108219093999
 31
0.0
 11
225.4856795403998
 21
185.3265467584999
 31
0.0
 11
225.0236155888998
 21
185.4726370875999
 31
0.0
 11
224.5835226454999
 21
185.6462043196999
 31
0.0
 11
224.1662518267998
 21
185.8444499354999
 31
0.0
 11
223.7733833847
 21
186.0641110896999
 31
0.0
 11
223.4069605034997
 21
186.3012276191998
 31
0.0
 11
223.0677303894998
 21
186.5521716304998
 31
0.0
 11
222.7554290055998
 21
186.8138577802999
 31
0.0
 11
222.4694920859
 21
187.0834318456999
 31
0.0
 11
222.2090676188999
 21
187.3583336110998
 31
0.0
 11
221.9730979512998
 21
187.6362918122999
 31
0.0
 11
221.7603009020999
 21
187.9154267923999
 31
0.0
 11
221.5692467927999
 21
188.1942574049999
 31
0.0
 11
221.3985558781
 21
188.4714758769998
 31
0.0
 11
221.2467978940998
 21
188.7461144587998
 31
0.0
 11
221.1125434014999
 21
189.0175251419998
 31
0.0
 11
220.9945565586999
 21
189.2849929558999
 31
0.0
 11
220.8915823771
 21
189.5481435242998
 31
0.0
 11
220.8023518048999
 21
189.8070666582999
 31
0.0
 11
220.7256607951998
 21
190.0622726417998
 31
0.0
 11
220.6604115531999
 21
190.3147370661999
 31
0.0
  0
SPLINE
  5
1908C
330
20
100
AcDbEntity
  8
0
  6
Continuous
 62
     7
100
AcDbSpline
210
0.0
220
0.0
230
1.0
 70
     8
 71
     3
 72
    28
 73
    24
 74
    22
 42
0.0000000001
 43
0.0000000001
 44
0.0000000001
 12
-0.9765953066092068
 22
0.2150851159631216
 32
0.0
 13
-0.2278625804944571
 23
0.97369330099904
 33
0.0
 40
0.0
 40
0.0
 40
0.0
 40
0.0
 40
0.5649226457251199
 40
1.115503478472981
 40
1.652465660433148
 40
2.176347310349069
 40
2.686362780240507
 40
3.180542248479501
 40
3.65799815842133
 40
4.118759147781886
 40
4.562923659510631
 40
4.990720151460727
 40
5.402463804105179
 40
5.798686745981478
 40
6.180121987421226
 40
6.547401068211117
 40
6.901307188349435
 40
7.242757349553179
 40
7.572344401227121
 40
7.890881795635356
 40
8.19955350084361
 40
8.499863000439569
 40
8.793686613477563
 40
8.793686613477563
 40
8.793686613477563
 40
8.793686613477563
 10
226.4615777017998
 20
184.2727992402999
 30
0.0
 10
226.2776774336624
 20
184.3133013912219
 30
0.0
 10
225.9172673846975
 20
184.406280867215
 30
0.0
 10
225.3945375210557
 20
184.5812784644904
 30
0.0
 10
224.8977323204385
 20
184.7866015926407
 30
0.0
 10
224.4280036488387
 20
185.0188411467473
 30
0.0
 10
223.9868837149205
 20
185.2742302855567
 30
0.0
 10
223.5758526940876
 20
185.5486317615437
 30
0.0
 10
223.1956616974092
 20
185.8379578025064
 30
0.0
 10
222.8461102367676
 20
186.1386063724698
 30
0.0
 10
222.5264300333557
 20
186.4474209096301
 30
0.0
 10
222.2355742340548
 20
186.7615636795598
 30
0.0
 10
221.972244189818
 20
187.0785711871723
 30
0.0
 10
221.73494055389
 20
187.3963899398338
 30
0.0
 10
221.5220661979961
 20
187.7133356860307
 30
0.0
 10
221.3319841508174
 20
188.0280658248821
 30
0.0
 10
221.1630650779866
 20
188.33954481772
 30
0.0
 10
221.0137530340924
 20
188.6469605567224
 30
0.0
 10
220.8825642525117
 20
188.9497170821868
 30
0.0
 10
220.7680682820539
 20
189.2474845260353
 30
0.0
 10
220.6688514995682
 20
189.5403925474974
 30
0.0
 10
220.5835654906873
 20
189.8290644573826
 30
0.0
 10
220.534771340759
 20
190.0210616876364
 30
0.0
 10
220.5124542052
 20
190.1164263821998
 30
0.0
 11
226.4615777017998
 21
184.2727992402999
 31
0.0
 11
225.9145672355999
 21
184.4139273576999
 31
0.0
 11
225.3924681487998
 21
184.5887180809999
 31
0.0
 11
224.8962205096999
 21
184.7938196790999
 31
0.0
 11
224.4266047359999
 21
185.0260114278999
 31
0.0
 11
223.9852295124
 21
185.2815572975998
 31
0.0
 11
223.5742272366998
 21
185.5559483983999
 31
0.0
 11
223.1942825583
 21
185.8450957436999
 31
0.0
 11
222.8449615418998
 21
186.1455545874999
 31
0.0
 11
222.5255117991999
 21
186.4541546123998
 31
0.0
 11
222.2348764711
 21
186.7680669322999
 31
0.0
 11
221.9717854566999
 21
187.0847938708999
 31
0.0
 11
221.7347334033999
 21
187.4022823646998
 31
0.0
 11
221.5220644508999
 21
187.7189284763999
 31
0.0
 11
221.3321905537998
 21
188.0333196759998
 31
0.0
 11
221.1634778120998
 21
188.3444234410999
 31
0.0
 11
221.0143021683999
 21
188.6515632136999
 31
0.0
 11
220.8832622872
 21
188.9539804323998
 31
0.0
 11
220.7689415558999
 21
189.2512964965999
 31
0.0
 11
220.6699130421998
 21
189.5436517172999
 31
0.0
 11
220.5848261017998
 21
189.8316552035998
 31
0.0
 11
220.5124542052
 21
190.1164263821998
 31
0.0
  0
SPLINE
  5
1908D
330
20
100
AcDbEntity
  8
0
  6
Continuous
 62
     7
100
AcDbSpline
210
0.0
220
0.0
230
1.0
 70
     8
 71
     3
 72
    20
 73
    16
 74
    14
 42
0.0000000001
 43
0.0000000001
 44
0.0000000001
 12
0.0689733131946438
 22
0.9976185052749141
 32
0.0
 13
-0.9198827190375762
 23
0.3921935532565979
 33
0.0
 40
0.0
 40
0.0
 40
0.0
 40
0.0
 40
0.0944128557699515
 40
0.1880508505986181
 40
0.2806784362138841
 40
0.3720894899098572
 40
0.4621145129622056
 40
0.5506274322596426
 40
0.637551772369025
 40
0.7228658768098977
 40
0.806606751409997
 40
0.8888720112952682
 40
0.9698193555473913
 40
1.049663029646681
 40
1.128666892955063
 40
1.128666892955063
 40
1.128666892955063
 40
1.128666892955063
 10
226.4615777026998
 20
184.2727992402999
 30
0.0
 10
226.4637483585234
 20
184.3041952443172
 30
0.0
 10
226.4656084314525
 20
184.3669293779271
 30
0.0
 10
226.4608834078688
 20
184.4604667505148
 30
0.0
 10
226.4486765646314
 20
184.5523246483688
 30
0.0
 10
226.4290942326475
 20
184.6416676039833
 30
0.0
 10
226.402308956453
 20
184.7276918528012
 30
0.0
 10
226.3685571256811
 20
184.8096200470795
 30
0.0
 10
226.3281371775768
 20
184.8867110260199
 30
0.0
 10
226.2814073164017
 20
184.9582651111496
 30
0.0
 10
226.2287824962687
 20
185.0236303634503
 30
0.0
 10
226.1707331600685
 20
185.0822074913756
 30
0.0
 10
226.1077765057357
 20
185.1334577941996
 30
0.0
 10
226.0404937172927
 20
185.1769000190229
 30
0.0
 10
225.9929403137647
 20
185.2004933671759
 30
0.0
 10
225.9687155508999
 20
185.2108216357999
 30
0.0
 11
226.4615777026998
 21
184.2727992402999
 31
0.0
 11
226.4643492760999
 21
184.3671714062999
 31
0.0
 11
226.4595894805998
 21
184.4606883481999
 31
0.0
 11
226.4473414507999
 21
184.5525025920999
 31
0.0
 11
226.4277161811997
 21
184.6417820943998
 31
0.0
 11
226.4008915210999
 21
184.7277177818999
 31
0.0
 11
226.3671105620998
 21
184.8095308840999
 31
0.0
 11
226.3266794358
 21
184.8864799901998
 31
0.0
 11
226.2799645389999
 21
184.9578677680998
 31
0.0
 11
226.2273892139998
 21
185.0230472838999
 31
0.0
 11
226.1694299113
 21
185.0814278646998
 31
0.0
 11
226.1066118727
 21
185.1324804509999
 31
0.0
 11
226.0395043708999
 21
185.1757423914999
 31
0.0
 11
225.9687155508999
 21
185.2108216357999
 31
0.0
  0
SPLINE
  5
1908E
330
20
100
AcDbEntity
  8
0
  6
Continuous
 62
     7
100
AcDbSpline
210
0.0
220
0.0
230
1.0
 70
     8
 71
     3
 72
    13
 73
     9
 74
     7
 42
0.0000000001
 43
0.0000000001
 44
0.0000000001
 12
0.8017432304689428
 22
0.5976686309295678
 32
0.0
 13
0.0517258721552377
 23
0.9986613210442168
 33
0.0
 40
0.0
 40
0.0
 40
0.0
 40
0.0
 40
0.05535267903318
 40
0.105198581413856
 40
0.1495775691056187
 40
0.1887596412522531
 40
0.2233413025173292
 40
0.2543646545305982
 40
0.2543646545305982
 40
0.2543646545305982
 40
0.2543646545305982
 10
220.5124535089999
 20
190.1164297231999
 30
0.0
 10
220.5272463875677
 20
190.1274572431652
 30
0.0
 10
220.5546938446148
 20
190.1493422102232
 30
0.0
 10
220.5910124862806
 20
190.1836020798391
 30
0.0
 10
220.6201010948199
 20
190.2173673542118
 30
0.0
 10
220.6417372822194
 20
190.2504509436721
 30
0.0
 10
220.6557137571166
 20
190.2826785616772
 30
0.0
 10
220.6598767085864
 20
190.3044098041983
 30
0.0
 10
220.6604116118997
 20
190.3147370780999
 30
0.0
 11
220.5124535089999
 21
190.1164297231999
 31
0.0
 11
220.5556033759997
 21
190.1510997109999
 31
0.0
 11
220.5916868981
 21
190.1854885669998
 31
0.0
 11
220.6204114835998
 21
190.2193174412998
 31
0.0
 11
220.6415442124999
 21
190.2523120248999
 31
0.0
 11
220.6549137251998
 21
190.2842047736999
 31
0.0
 11
220.6604116118997
 21
190.3147370780999
 31
0.0
  0
SPLINE
  5
1908F
330
20
100
AcDbEntity
  8
0
  6
Continuous
 62
     7
100
AcDbSpline
210
0.0
220
0.0
230
1.0
 70
     8
 71
     3
 72
    24
 73
    20
 74
    18
 42
0.0000000001
 43
0.0000000001
 44
0.0000000001
 12
-0.2314961915196647
 22
0.9728358100480731
 32
0.0
 13
0.2314961885704716
 23
0.9728358107498637
 33
0.0
 40
0.0
 40
0.0
 40
0.0
 40
0.0
 40
0.1513411214063832
 40
0.3124443896583386
 40
0.4835678578726308
 40
0.664794830773936
 40
0.8560873411390872
 40
1.056946203585034
 40
1.263297932820038
 40
1.471579281170131
 40
1.680529369217782
 40
1.888846228427046
 40
2.095235260898689
 40
2.296071231335906
 40
2.487369750783821
 40
2.668634496202056
 40
2.839818867974303
 40
3.000995528695483
 40
3.152409931257849
 40
3.152409931257849
 40
3.152409931257849
 40
3.152409931257849
 10
220.6604115531999
 20
190.3147370661999
 30
0.0
 10
220.6487332554579
 20
190.3638137536789
 30
0.0
 10
220.6258990104251
 20
190.4654405946411
 30
0.0
 10
220.5944861588391
 20
190.6235559540647
 30
0.0
 10
220.5654392389208
 20
190.79224414771
 30
0.0
 10
220.5394181166793
 20
190.9716025485493
 30
0.0
 10
220.5171666665077
 20
191.1614539560338
 30
0.0
 10
220.499578107702
 20
191.3602061306298
 30
0.0
 10
220.4874598887192
 20
191.5650416562097
 30
0.0
 10
220.4813076700862
 20
191.7728419434688
 30
0.0
 10
220.481303218624
 20
191.9813885282777
 30
0.0
 10
220.4874477911861
 20
192.1892133375042
 30
0.0
 10
220.4995597686852
 20
192.3940659163131
 30
0.0
 10
220.517142063257
 20
192.5928254703095
 30
0.0
 10
220.5393874454546
 20
192.7826846016017
 30
0.0
 10
220.565407543778
 20
192.9620784234833
 30
0.0
 10
220.5944596503701
 20
193.1308239440326
 30
0.0
 10
220.6258832523379
 20
193.2890077338152
 30
0.0
 10
220.6487276008372
 20
193.3906824328746
 30
0.0
 10
220.6604115531999
 20
193.4397828838999
 30
0.0
 11
220.6604115531999
 21
190.3147370661999
 31
0.0
 11
220.6272078471998
 21
190.4623908806999
 31
0.0
 11
220.5957924390999
 21
190.6204014346998
 31
0.0
 11
220.5667344580998
 21
190.7890397313999
 31
0.0
 11
220.5406983853999
 21
190.9683867096999
 31
0.0
 11
220.5184169261999
 21
191.1583771333999
 31
0.0
 11
220.5007004466998
 21
191.3584531413999
 31
0.0
 11
220.4885066352997
 21
191.5644442749999
 31
0.0
 11
220.4823393241999
 21
191.7726342947999
 31
0.0
 11
220.4823348614999
 21
191.9815843827999
 31
0.0
 11
220.4884948394998
 21
192.1898101460998
 31
0.0
 11
220.5006835864998
 21
192.3958389478999
 31
0.0
 11
220.5183911307999
 21
192.5958927653999
 31
0.0
 11
220.5406664007
 21
192.7858899650999
 31
0.0
 11
220.5667018641999
 21
192.9652752001999
 31
0.0
 11
220.5957656452997
 21
193.1339742984999
 31
0.0
 11
220.6271926450999
 21
193.2920573767998
 31
0.0
 11
220.6604115531999
 21
193.4397828838999
 31
0.0
  0
SPLINE
  5
19090
330
20
100
AcDbEntity
  8
0
  6
Continuous
 62
     7
100
AcDbSpline
210
0.0
220
0.0
230
1.0
 70
     8
 71
     3
 72
    28
 73
    24
 74
    22
 42
0.0000000001
 43
0.0000000001
 44
0.0000000001
 12
0.2278625794558568
 22
0.9736933012420919
 32
0.0
 13
0.9765953113807782
 23
0.2150850942977715
 33
0.0
 40
0.0
 40
0.0
 40
0.0
 40
0.0
 40
0.2937557697391714
 40
0.5940302536710417
 40
0.9026909793573134
 40
1.221232229860999
 40
1.550827808358048
 40
1.892280787215897
 40
2.246186023867706
 40
2.613466813178578
 40
2.994902050283502
 40
3.39112598614397
 40
3.802871999074731
 40
4.230668350079315
 40
4.674831200736575
 40
5.135591461562428
 40
5.613050660950031
 40
6.10724148201845
 40
6.617254975545509
 40
7.141121749099179
 40
7.678085009724853
 40
8.228696110892983
 40
8.793686551264048
 40
8.793686551264048
 40
8.793686551264048
 40
8.793686551264048
 10
220.5124542097999
 20
193.6380935860999
 30
0.0
 10
220.5347661922742
 20
193.7334362611652
 30
0.0
 10
220.5835510456009
 20
193.9254004398192
 30
0.0
 10
220.6688231144697
 20
194.2140368749708
 30
0.0
 10
220.7680312882434
 20
194.5069329717071
 30
0.0
 10
220.8825231277842
 20
194.804702508024
 30
0.0
 10
221.0137097992691
 20
195.1074654775363
 30
0.0
 10
221.163019405345
 20
195.4148862803343
 30
0.0
 10
221.3319350839714
 20
195.726368494637
 30
0.0
 10
221.5220132805293
 20
196.0411012807249
 30
0.0
 10
221.7348841554538
 20
196.3580504485435
 30
0.0
 10
221.9721844921934
 20
196.6758730599081
 30
0.0
 10
222.2355113378441
 20
196.992884620878
 30
0.0
 10
222.5263634633753
 20
197.3070310457942
 30
0.0
 10
222.8460392927131
 20
197.6158488935936
 30
0.0
 10
223.1955872733929
 20
197.9165019687046
 30
0.0
 10
223.5757784510501
 20
198.2058354407998
 30
0.0
 10
223.9868099271615
 20
198.4802438744496
 30
0.0
 10
224.427925567913
 20
198.7356367621485
 30
0.0
 10
224.8976467970564
 20
198.9678794411806
 30
0.0
 10
225.3944545113477
 20
199.1732108803652
 30
0.0
 10
225.9172139390347
 20
199.3482244784121
 30
0.0
 10
226.2776553634527
 20
199.4412137024184
 30
0.0
 10
226.4615777017998
 20
199.4817207097999
 30
0.0
 11
220.5124542097999
 21
193.6380935860999
 31
0.0
 11
220.5848081472999
 21
193.9227993288999
 31
0.0
 11
220.6698819919998
 21
194.2107701722999
 31
0.0
 11
220.7689028926998
 21
194.5031163793998
 31
0.0
 11
220.8832207142998
 21
194.8004376936999
 31
0.0
 11
221.0142598628999
 21
195.1028645226998
 31
0.0
 11
221.1634327784998
 21
195.4100087526999
 31
0.0
 11
221.3321411311997
 21
195.7211138928999
 31
0.0
 11
221.5220119226998
 21
196.0355089639998
 31
0.0
 11
221.7346768941999
 21
196.3521577441998
 31
0.0
 11
221.9717255780998
 21
196.6696499941999
 31
0.0
 11
222.2348142190998
 21
196.9863819725999
 31
0.0
 11
222.5254456540997
 21
197.3002977047999
 31
0.0
 11
222.8448904388999
 21
197.6089004710999
 31
0.0
 11
223.1942071983998
 21
197.9093631467998
 31
0.0
 11
223.5741509817998
 21
198.1985170997999
 31
0.0
 11
223.9851596267
 21
198.4729191067998
 31
0.0
 11
224.4265304346999
 21
198.7284686585999
 31
0.0
 11
224.8961301701998
 21
198.9606592803998
 31
0.0
 11
225.3923762422
 21
199.1657674939999
 31
0.0
 11
225.9145021958999
 21
199.3405733096999
 31
0.0
 11
226.4615777017998
 21
199.4817207097999
 31
0.0
  0
SPLINE
  5
19091
330
20
100
AcDbEntity
  8
0
  6
Continuous
 62
     7
100
AcDbSpline
210
0.0
220
0.0
230
1.0
 70
     8
 71
     3
 72
    20
 73
    16
 74
    14
 42
0.0000000001
 43
0.0000000001
 44
0.0000000001
 12
0.0689734728754952
 22
-0.997618494234892
 32
0.0
 13
-0.9198826840656936
 23
-0.392193635282491
 33
0.0
 40
0.0
 40
0.0
 40
0.0
 40
0.0
 40
0.0944128587974687
 40
0.1880508573494557
 40
0.2806784475037364
 40
0.372089506518497
 40
0.4621145355873652
 40
0.5506274614461577
 40
0.6375518085340422
 40
0.722865920369156
 40
0.8066068027148489
 40
0.8888720704066283
 40
0.9698194225565506
 40
1.049663104337952
 40
1.128666975179012
 40
1.128666975179012
 40
1.128666975179012
 40
1.128666975179012
 10
226.4615776784
 20
199.4817207097999
 30
0.0
 10
226.4637483393184
 20
199.4503247051232
 30
0.0
 10
226.4656084218925
 20
199.3875905695259
 30
0.0
 10
226.4608834116039
 20
199.294053192464
 30
0.0
 10
226.4486765796211
 20
199.2021952885142
 30
0.0
 10
226.4290942575008
 20
199.1128523252949
 30
0.0
 10
226.4023089892504
 20
199.0268280677251
 30
0.0
 10
226.3685571648152
 20
198.9448998637585
 30
0.0
 10
226.3281372212487
 20
198.8678088745373
 30
0.0
 10
226.2814073631439
 20
198.796254778568
 30
0.0
 10
226.2287825442914
 20
198.7308895153912
 30
0.0
 10
226.1707332081377
 20
198.6723123763968
 30
0.0
 10
226.1077765524714
 20
198.6210620628279
 30
0.0
 10
226.0404937615275
 20
198.5776198276416
 30
0.0
 10
225.9929403555535
 20
198.5540264729687
 30
0.0
 10
225.9687155912998
 20
198.5436982011998
 30
0.0
 11
226.4615776784
 21
199.4817207097999
 31
0.0
 11
226.4643492663998
 21
199.3873485411999
 31
0.0
 11
226.4595894840999
 21
199.2938315948999
 31
0.0
 11
226.4473414656999
 21
199.2020173448999
 31
0.0
 11
226.4277162058998
 21
199.1127378349999
 31
0.0
 11
226.4008915537999
 21
199.0268021386999
 31
0.0
 11
226.3671106010999
 21
198.9449890267999
 31
0.0
 11
226.3266794793999
 21
198.8680399103999
 31
0.0
 11
226.2799645856
 21
198.7966521216998
 31
0.0
 11
226.2273892619
 21
198.7314725948999
 31
0.0
 11
226.1694299591999
 21
198.6730920030998
 31
0.0
 11
226.1066119191999
 21
198.6220394059999
 31
0.0
 11
226.0395044148999
 21
198.5787774551998
 31
0.0
 11
225.9687155912998
 21
198.5436982011998
 31
0.0
  0
SPLINE
  5
19092
330
20
100
AcDbEntity
  8
0
  6
Continuous
 62
     7
100
AcDbSpline
210
0.0
220
0.0
230
1.0
 70
     8
 71
     3
 72
    29
 73
    25
 74
    23
 42
0.0000000001
 43
0.0000000001
 44
0.0000000001
 12
0.9635213226901949
 22
0.2676315764653669
 32
0.0
 13
-0.2179579461588561
 23
-0.975958161862594
 33
0.0
 40
0.0
 40
0.0
 40
0.0
 40
0.0
 40
0.0875276521648832
 40
0.1711582862405065
 40
0.2510225764621587
 40
0.3273480817710709
 40
0.4004220313415122
 40
0.4705779704192777
 40
0.5381846354225814
 40
0.603574760417513
 40
0.6670904358654455
 40
0.7292152466201306
 40
0.7904321302942459
 40
0.8509077373258122
 40
0.9106002244343141
 40
0.9695142540531049
 40
1.027911966492271
 40
1.086160454866409
 40
1.144684526413464
 40
1.204034657677555
 40
1.264798786686056
 40
1.327585700329245
 40
1.3930384042949
 40
1.461885816482144
 40
1.461885816482144
 40
1.461885816482144
 40
1.461885816482144
 10
225.968712993
 20
198.5436976104999
 30
0.0
 10
225.9968245793952
 20
198.5515059983443
 30
0.0
 10
226.0524036476129
 20
198.5647005912658
 30
0.0
 10
226.1352182758869
 20
198.5773094341014
 30
0.0
 10
226.2150953371351
 20
198.5824936051924
 30
0.0
 10
226.2915995869092
 20
198.5805456362299
 30
0.0
 10
226.3643752401247
 20
198.5718261102349
 30
0.0
 10
226.4331302477672
 20
198.5567354780161
 30
0.0
 10
226.4976167346372
 20
198.5356984413427
 30
0.0
 10
226.5576247991266
 20
198.5091526298073
 30
0.0
 10
226.6130172677136
 20
198.4775185998826
 30
0.0
 10
226.6637256406036
 20
198.4411589897699
 30
0.0
 10
226.7096399950885
 20
198.4004197272462
 30
0.0
 10
226.750540676765
 20
198.3557451059191
 30
0.0
 10
226.7861759833058
 20
198.3077250648048
 30
0.0
 10
226.8164229507772
 20
198.2569520214371
 30
0.0
 10
226.8413079365955
 20
198.2038842222624
 30
0.0
 10
226.8609349087522
 20
198.1487987236616
 30
0.0
 10
226.8754070153637
 20
198.0918171507966
 30
0.0
 10
226.8847736331089
 20
198.0329315390951
 30
0.0
 10
226.8889964801217
 20
197.9720335829858
 30
0.0
 10
226.8879305362905
 20
197.9089649731742
 30
0.0
 10
226.8813285451515
 20
197.8435305277759
 30
0.0
 10
226.8732303008527
 20
197.799445618849
 30
0.0
 10
226.8682283539998
 20
197.7770482208999
 30
0.0
 11
225.968712993
 21
198.5436976104999
 31
0.0
 11
226.0539012209
 21
198.5637987477999
 31
0.0
 11
226.1365960590998
 21
198.5762745920999
 31
0.0
 11
226.2162995272999
 21
198.5813403604999
 31
0.0
 11
226.2925977751998
 21
198.5793007212999
 31
0.0
 11
226.3651425441999
 21
198.5705224186999
 31
0.0
 11
226.4336515722999
 21
198.5554105406999
 31
0.0
 11
226.4979057477997
 21
198.5343852681999
 31
0.0
 11
226.5576864074
 21
198.5078873213999
 31
0.0
 11
226.6128236034997
 21
198.4763574841998
 31
0.0
 11
226.6632963861999
 21
198.4401360772999
 31
0.0
 11
226.7090770976998
 21
198.3994957856999
 31
0.0
 11
226.7499106670999
 21
198.3548872813999
 31
0.0
 11
226.7854865265
 21
198.3069545029999
 31
0.0
 11
226.8156491258999
 21
198.2563473840999
 31
0.0
 11
226.8404607427997
 21
198.2034826842999
 31
0.0
 11
226.8600360118
 21
198.1486219948999
 31
0.0
 11
226.8744750651998
 21
198.0919070877999
 31
0.0
 11
226.8838389207
 21
198.0333002938999
 31
0.0
 11
226.8880912534999
 21
197.9726851386999
 31
0.0
 11
226.8870891905
 21
197.9099062218999
 31
0.0
 11
226.8805873077997
 21
197.8447772576998
 31
0.0
 11
226.8682283539998
 21
197.7770482208999
 31
0.0
  0
LINE
  5
19093
330
20
100
AcDbEntity
  8
0
  6
Continuous
 62
     7
100
AcDbLine
 10
227.6965283555
 20
197.7770539696998
 30
0.0
 11
227.6965283555
 21
185.9774659803998
 31
0.0
  0
LINE
  5
19094
330
20
100
AcDbEntity
  8
0
100
AcDbLine
 10
269.4362186064072
 20
167.1922848488998
 30
0.0
 11
269.4362186064072
 21
190.1164295236848
 31
0.0
  0
SPLINE
  5
1909E
330
20
100
AcDbEntity
  8
0
  6
Continuous
 62
     7
100
AcDbSpline
210
0.0
220
0.0
230
1.0
 70
     8
 71
     3
 72
    28
 73
    24
 74
    22
 42
0.0000000001
 43
0.0000000001
 44
0.0000000001
 12
-0.9928252985193577
 22
0.1195739378792403
 32
0.0
 13
-0.3634801517266552
 23
0.931601942516635
 33
0.0
 40
0.0
 40
0.0
 40
0.0
 40
0.0
 40
0.8169107382277839
 40
1.602457833630789
 40
2.356336126626975
 40
3.078341012425738
 40
3.766828105316919
 40
4.419060261942512
 40
5.034258439791448
 40
5.613194644507842
 40
6.156975625032678
 40
6.667053079304464
 40
7.145106863311076
 40
7.593134398693163
 40
8.013364580216148
 40
8.407880434863187
 40
8.778872500860979
 40
9.128585363039793
 40
9.458839430588962
 40
9.771587653019896
 40
10.06903340091017
 40
10.35355563422551
 40
10.62775663280648
 40
10.62775663280648
 40
10.62775663280648
 40
10.62775663280648
 10
278.7042311494071
 20
185.2108219093999
 30
0.0
 10
278.4338812668922
 20
185.2433823206884
 30
0.0
 10
277.9048834607221
 20
185.3189244925276
 30
0.0
 10
277.1328403836363
 20
185.4647677833399
 30
0.0
 10
276.39895282534
 20
185.6380738862674
 30
0.0
 10
275.7048857666448
 20
185.8359104391926
 30
0.0
 10
275.0528896781275
 20
186.0550175457173
 30
0.0
 10
274.4451617652561
 20
186.2917816968059
 30
0.0
 10
273.8828636164419
 20
186.5425856423083
 30
0.0
 10
273.3657396738566
 20
186.8042122972822
 30
0.0
 10
272.8926840758262
 20
187.0738234513467
 30
0.0
 10
272.4621779927752
 20
187.3488511819359
 30
0.0
 10
272.072329116562
 20
187.6270500455692
 30
0.0
 10
271.7209462332973
 20
187.9065319533374
 30
0.0
 10
271.4056857271637
 20
188.1857379397717
 30
0.0
 10
271.1241413048834
 20
188.4634141081043
 30
0.0
 10
270.873916643683
 20
188.7385797180121
 30
0.0
 10
270.652716711071
 20
189.0104609976029
 30
0.0
 10
270.4583522068245
 20
189.2784800457117
 30
0.0
 10
270.288714611942
 20
189.5422931428365
 30
0.0
 10
270.1417148967591
 20
189.8019724684045
 30
0.0
 10
270.0153599885925
 20
190.0580291839234
 30
0.0
 10
269.942571426863
 20
190.2295883385605
 30
0.0
 10
269.909349220007
 20
190.3147370661999
 30
0.0
 11
278.7042311494071
 21
185.2108219093999
 31
0.0
 11
277.8955588341072
 21
185.3265467584999
 31
0.0
 11
277.1237156798073
 21
185.4726370875999
 31
0.0
 11
276.3900898238071
 21
185.6462043196999
 31
0.0
 11
275.695835021207
 21
185.8444499354999
 31
0.0
 11
275.0433295006071
 21
186.0641110896999
 31
0.0
 11
274.435725569107
 21
186.3012276191998
 31
0.0
 11
273.8740353509073
 21
186.5521716304998
 31
0.0
 11
273.3576174115071
 21
186.8138577802999
 31
0.0
 11
272.8853594544072
 21
187.0834318456999
 31
0.0
 11
272.4556990900071
 21
187.3583336110998
 31
0.0
 11
272.0667586591071
 21
187.6362918122999
 31
0.0
 11
271.7163127498071
 21
187.9154267923999
 31
0.0
 11
271.4019134894073
 21
188.1942574049999
 31
0.0
 11
271.1212131539072
 21
188.4714758769998
 31
0.0
 11
270.871796309207
 21
188.7461144587998
 31
0.0
 11
270.6512621236071
 21
189.0175251419998
 31
0.0
 11
270.457538821807
 21
189.2849929558999
 31
0.0
 11
270.2885322273071
 21
189.5481435242998
 31
0.0
 11
270.1421328297072
 21
189.8070666582999
 31
0.0
 11
270.0163440892072
 21
190.0622726417998
 31
0.0
 11
269.909349220007
 21
190.3147370661999
 31
0.0
  0
SPLINE
  5
1909F
330
20
100
AcDbEntity
  8
0
  6
Continuous
 62
     7
100
AcDbSpline
210
0.0
220
0.0
230
1.0
 70
     8
 71
     3
 72
    28
 73
    24
 74
    22
 42
0.0000000001
 43
0.0000000001
 44
0.0000000001
 12
0.3634801319949115
 22
0.9316019502153062
 32
0.0
 13
0.9928252992982223
 23
0.1195739314123084
 33
0.0
 40
0.0
 40
0.0
 40
0.0
 40
0.0
 40
0.2741372601326853
 40
0.5586250221395738
 40
0.8560583275767561
 40
1.168808187488652
 40
1.499068555667061
 40
1.84878198864265
 40
2.21977065466136
 40
2.614285705640429
 40
3.034513112874462
 40
3.482538881891602
 40
3.96059245606767
 40
4.470666748517329
 40
5.014442628968218
 40
5.593374808925682
 40
6.208574197936637
 40
6.860818623746446
 40
7.549300607634783
 40
8.271282503941982
 40
9.025159906768617
 40
9.810748433548738
 40
10.62775663804777
 40
10.62775663804777
 40
10.62775663804777
 40
10.62775663804777
 10
269.909349220007
 20
193.4397828838999
 30
0.0
 10
269.9425637025063
 20
193.5249118192886
 30
0.0
 10
270.0153382822625
 20
193.6964412595978
 30
0.0
 10
270.1416726829662
 20
193.9524669122237
 30
0.0
 10
270.2886597996562
 20
194.2121360089947
 30
0.0
 10
270.458291390202
 20
194.4759511922429
 30
0.0
 10
270.6526527866102
 20
194.743976016821
 30
0.0
 10
270.8738490577469
 20
195.015861777298
 30
0.0
 10
271.124068698091
 20
195.2910303202022
 30
0.0
 10
271.4056074460872
 20
195.5687089384409
 30
0.0
 10
271.7208628109085
 20
195.8479180493251
 30
0.0
 10
272.0722408601227
 20
196.1274035001576
 30
0.0
 10
272.4620850128415
 20
196.4056060470035
 30
0.0
 10
272.8925856299166
 20
196.6806370950657
 30
0.0
 10
273.3656347735297
 20
196.9502513061948
 30
0.0
 10
273.8827536667738
 20
197.2118821056979
 30
0.0
 10
274.4450522814789
 20
197.4626927663851
 30
0.0
 10
275.0527808085509
 20
197.6994630777791
 30
0.0
 10
275.7047702151046
 20
197.918573501851
 30
0.0
 10
276.3988263625845
 20
198.1164130253455
 30
0.0
 10
277.1327181766237
 20
198.2897265968566
 30
0.0
 10
277.9048055164949
 20
198.4355836354106
 30
0.0
 10
278.43384903092
 20
198.5111337487638
 30
0.0
 10
278.704231169307
 20
198.5436980430998
 30
0.0
 11
269.909349220007
 21
193.4397828838999
 31
0.0
 11
270.0163175483069
 21
193.6921893301999
 31
0.0
 11
270.1420869286071
 21
193.9473664249999
 31
0.0
 11
270.2884750720071
 21
194.2062816285998
 31
0.0
 11
270.457477364607
 21
194.4694369058999
 31
0.0
 11
270.6511995816071
 21
194.7369132850999
 31
0.0
 11
270.871729734107
 21
195.0083279807999
 31
0.0
 11
271.1211400920073
 21
195.2829678607999
 31
0.0
 11
271.4018358354071
 21
195.5601898387998
 31
0.0
 11
271.716229211407
 21
195.8390229051999
 31
0.0
 11
272.0666701398071
 21
196.1181613034998
 31
0.0
 11
272.4556070615069
 21
196.3961240540999
 31
0.0
 11
272.8852616708071
 21
196.6710289476998
 31
0.0
 11
273.3575122986069
 21
196.9406055651998
 31
0.0
 11
273.8739239451073
 21
197.2022952293999
 31
0.0
 11
274.4356128408069
 21
197.4532451699999
 31
0.0
 11
275.043226186607
 21
197.6903713241999
 31
0.0
 11
275.6957251792072
 21
197.9100358565999
 31
0.0
 11
276.3899562722071
 21
198.1082807760999
 31
0.0
 11
277.1235798111073
 21
198.2818539354999
 31
0.0
 11
277.8954626823073
 21
198.4279572090999
 31
0.0
 11
278.704231169307
 21
198.5436980430998
 31
0.0
  0
SPLINE
  5
190A0
330
20
100
AcDbEntity
  8
0
  6
Continuous
 62
     7
100
AcDbSpline
210
0.0
220
0.0
230
1.0
 70
     8
 71
     3
 72
    28
 73
    24
 74
    22
 42
0.0000000001
 43
0.0000000001
 44
0.0000000001
 12
-0.9890843249739212
 22
0.1473505958280544
 32
0.0
 13
-0.3269486438899159
 23
0.9450421071352034
 33
0.0
 40
0.0
 40
0.0
 40
0.0
 40
0.0
 40
0.82089492601869
 40
1.612283752495342
 40
2.374042113991891
 40
3.106097202622418
 40
3.806860209225979
 40
4.473549233698125
 40
5.105295177633834
 40
5.702759475015184
 40
6.266906530607293
 40
6.799024125735914
 40
7.300612218609977
 40
7.773487645271726
 40
8.219706759661436
 40
8.641173592628678
 40
9.039914210735361
 40
9.418027898252416
 40
9.77717225427636
 40
10.11916620667331
 40
10.44612823234607
 40
10.76040308891007
 40
11.06460974072459
 40
11.06460974072459
 40
11.06460974072459
 40
11.06460974072459
 10
278.2311028046072
 20
184.2727992402999
 30
0.0
 10
277.9604580366819
 20
184.3131190257869
 30
0.0
 10
277.4307472069512
 20
184.4054259032642
 30
0.0
 10
276.6585854124418
 20
184.5800388252066
 30
0.0
 10
275.9245977839607
 20
184.7849528375896
 30
0.0
 10
275.2304561865443
 20
185.0167864721117
 30
0.0
 10
274.5784157843656
 20
185.2718039419314
 30
0.0
 10
273.970675086316
 20
185.5458938110718
 30
0.0
 10
273.4083897770498
 20
185.8349752909539
 30
0.0
 10
272.8913001526209
 20
186.1354491067771
 30
0.0
 10
272.4182979836428
 20
186.4441608204998
 30
0.0
 10
271.9878617414436
 20
186.7582707133325
 30
0.0
 10
271.5980958709765
 20
187.0753093446969
 30
0.0
 10
271.2468054100874
 20
187.3932137612529
 30
0.0
 10
270.9316438263488
 20
187.7102912913798
 30
0.0
 10
270.6502019935444
 20
188.0251908430799
 30
0.0
 10
270.4000803362681
 20
188.3368664333833
 30
0.0
 10
270.1789818025893
 20
188.6444995905944
 30
0.0
 10
269.984715036113
 20
188.9474881187249
 30
0.0
 10
269.8151684754154
 20
189.2454913088855
 30
0.0
 10
269.6682516323138
 20
189.5386320679351
 30
0.0
 10
269.5419703603282
 20
189.8275224584217
 30
0.0
 10
269.4693731790314
 20
190.0205970171214
 30
0.0
 10
269.436219861607
 20
190.1164263821998
 30
0.0
 11
278.2311028046072
 21
184.2727992402999
 31
0.0
 11
277.4224302293071
 21
184.4139273576999
 31
0.0
 11
276.650585375907
 21
184.5887180809999
 31
0.0
 11
275.916957993807
 21
184.7938196790999
 31
0.0
 11
275.222701813007
 21
185.0260114278999
 31
0.0
 11
274.5701950315071
 21
185.2815572975998
 31
0.0
 11
273.962590078307
 21
185.5559483983999
 31
0.0
 11
273.4008991042072
 21
185.8450957436999
 31
0.0
 11
272.884480601607
 21
186.1455545874999
 31
0.0
 11
272.4122222772072
 21
186.4541546123998
 31
0.0
 11
271.9825617246073
 21
186.7680669322999
 31
0.0
 11
271.593621290507
 21
187.0847938708999
 31
0.0
 11
271.2431755380072
 21
187.4022823646998
 31
0.0
 11
270.9287765272072
 21
187.7189284763999
 31
0.0
 11
270.648076571907
 21
188.0333196759998
 31
0.0
 11
270.3986601974071
 21
188.3444234410999
 31
0.0
 11
270.178126479407
 21
188.6515632136999
 31
0.0
 11
269.9844037541071
 21
188.9539804323998
 31
0.0
 11
269.8153977736073
 21
189.2512964965999
 31
0.0
 11
269.6689990333071
 21
189.5436517172999
 31
0.0
 11
269.5432108091071
 21
189.8316552035998
 31
0.0
 11
269.436219861607
 21
190.1164263821998
 31
0.0
  0
SPLINE
  5
190A1
330
20
100
AcDbEntity
  8
0
  6
Continuous
 62
     7
100
AcDbSpline
210
0.0
220
0.0
230
1.0
 70
     8
 71
     3
 72
    28
 73
    24
 74
    22
 42
0.0000000001
 43
0.0000000001
 44
0.0000000001
 12
0.3269486442096539
 22
0.9450421070245859
 32
0.0
 13
0.9890843272597445
 23
0.1473505804845655
 33
0.0
 40
0.0
 40
0.0
 40
0.0
 40
0.0
 40
0.3041360589230781
 40
0.6183732525775019
 40
0.9453221793932758
 40
1.287318570371231
 40
1.646470434513495
 40
2.024585390621766
 40
2.423323023085946
 40
2.844789686117547
 40
3.291006547620534
 40
3.763880804616241
 40
4.265469359113892
 40
4.797584320237457
 40
5.36172673963449
 40
5.959187524718011
 40
6.590935316533479
 40
7.257637411253452
 40
7.958395682252227
 40
8.690427927693013
 40
9.452185839282577
 40
10.24361673689395
 40
11.06460969779144
 40
11.06460969779144
 40
11.06460969779144
 40
11.06460969779144
 10
269.436219868407
 20
193.6380935860999
 30
0.0
 10
269.4693654924471
 20
193.7339007134155
 30
0.0
 10
269.5419487552007
 20
193.9269418759503
 30
0.0
 10
269.668209487147
 20
194.2157970488132
 30
0.0
 10
269.8151136916925
 20
194.5089261067399
 30
0.0
 10
269.9846542191398
 20
194.806931529142
 30
0.0
 10
270.1789178740077
 20
195.1099265101896
 30
0.0
 10
270.4000127604912
 20
195.4175646746031
 30
0.0
 10
270.6501293957249
 20
195.7292434913228
 30
0.0
 10
270.9315655481735
 20
196.0441457094304
 30
0.0
 10
271.2467219882323
 20
196.3612266685199
 30
0.0
 10
271.5980076044753
 20
196.6791349753077
 30
0.0
 10
271.9877687502942
 20
196.99617766077
 30
0.0
 10
272.4181995340799
 20
197.3102911888714
 30
0.0
 10
272.8911952461982
 20
197.6190062215234
 30
0.0
 10
273.4082798030084
 20
197.9194845839924
 30
0.0
 10
273.9705655421062
 20
198.2085735639188
 30
0.0
 10
274.5783068692225
 20
198.4826703440135
 30
0.0
 10
275.2303406541015
 20
198.7376914523628
 30
0.0
 10
275.9244713250088
 20
198.9695282459172
 30
0.0
 10
276.6584631117359
 20
199.1744506735793
 30
0.0
 10
277.4306690587012
 20
199.3490796406345
 30
0.0
 10
277.960425714469
 20
199.4413961133459
 30
0.0
 10
278.2311028046072
 20
199.4817207097999
 30
0.0
 11
269.436219868407
 21
193.6380935860999
 31
0.0
 11
269.5431842660072
 21
193.9227993288999
 31
0.0
 11
269.668953130307
 21
194.2107701722999
 31
0.0
 11
269.8153406159069
 21
194.5031163793998
 31
0.0
 11
269.984342294907
 21
194.8004376936999
 31
0.0
 11
270.178063937007
 21
195.1028645226998
 31
0.0
 11
270.3985936221073
 21
195.4100087526999
 31
0.0
 11
270.648003508207
 21
195.7211138928999
 31
0.0
 11
270.9286988721071
 21
196.0355089639998
 31
0.0
 11
271.2430919978071
 21
196.3521577441998
 31
0.0
 11
271.5935327690071
 21
196.6696499941999
 31
0.0
 11
271.9824696943071
 21
196.9863819725999
 31
0.0
 11
272.4121244917071
 21
197.3002977047999
 31
0.0
 11
272.8843754864072
 21
197.6089004710999
 31
0.0
 11
273.400787696007
 21
197.9093631467998
 31
0.0
 11
273.962477346907
 21
198.1985170997999
 31
0.0
 11
274.5700917161071
 21
198.4729191067998
 31
0.0
 11
275.2225919697071
 21
198.7284686585999
 31
0.0
 11
275.9168244405072
 21
198.9606592803998
 31
0.0
 11
276.6504495059071
 21
199.1657674939999
 31
0.0
 11
277.4223340779069
 21
199.3405733096999
 31
0.0
 11
278.2311028046072
 21
199.4817207097999
 31
0.0
  0
SPLINE
  5
190A3
330
20
100
AcDbEntity
  8
0
  6
Continuous
 62
     7
100
AcDbSpline
210
0.0
220
0.0
230
1.0
 70
     8
 71
     3
 72
    24
 73
    20
 74
    18
 42
0.0000000001
 43
0.0000000001
 44
0.0000000001
 12
-0.4605957325846463
 22
0.8876100332492942
 32
0.0
 13
0.4605955356312411
 23
0.8876101354516915
 33
0.0
 40
0.0
 40
0.0
 40
0.0
 40
0.0
 40
0.1842640627577446
 40
0.3756877084716568
 40
0.5753964976883691
 40
0.7841609625589263
 40
1.002501760707292
 40
1.230329959765223
 40
1.463460480065142
 40
1.698263422160525
 40
1.93365998119462
 40
2.168502515948612
 40
2.401674350481656
 40
2.629475194708075
 40
2.847820694762968
 40
3.056625822545733
 40
3.256402547375442
 40
3.447910702627853
 40
3.632262793051025
 40
3.632262793051025
 40
3.632262793051025
 40
3.632262793051025
 10
269.436219861607
 20
190.1164271047999
 30
0.0
 10
269.4079294479487
 20
190.1709453150902
 30
0.0
 10
269.3543811060732
 20
190.2842856407444
 30
0.0
 10
269.2843438320634
 20
190.4629764764155
 30
0.0
 10
269.2231805367791
 20
190.6534896869128
 30
0.0
 10
269.1710557124406
 20
190.8559363786894
 30
0.0
 10
269.1283273562605
 20
191.0701319409284
 30
0.0
 10
269.0956851699236
 20
191.294299938502
 30
0.0
 10
269.0737498410477
 20
191.5252737064543
 30
0.0
 10
269.0627807723856
 20
191.759547270126
 30
0.0
 10
269.0627728763583
 20
191.9946463504015
 30
0.0
 10
269.0737281546077
 20
192.2289475900369
 30
0.0
 10
269.0956516276537
 20
192.4599404485027
 30
0.0
 10
269.1282810340876
 20
192.6841165456827
 30
0.0
 10
269.1709956696076
 20
192.8983209468936
 30
0.0
 10
269.2231155199489
 20
193.1008079500755
 30
0.0
 10
269.2842864748247
 20
193.2913864064899
 30
0.0
 10
269.3543449678758
 20
193.4701551745206
 30
0.0
 10
269.407915951796
 20
193.5835485983828
 30
0.0
 10
269.436219868407
 20
193.6380928596999
 30
0.0
 11
269.436219861607
 21
190.1164271047999
 31
0.0
 11
269.3572826975071
 21
190.2829268613999
 31
0.0
 11
269.2872038483073
 21
190.4610615492998
 31
0.0
 11
269.2259392688072
 21
190.6511411425999
 31
0.0
 11
269.1736804086069
 21
190.8532589629999
 31
0.0
 11
269.1307828465072
 21
191.0673442340999
 31
0.0
 11
269.0978008104071
 21
191.2927724345999
 31
0.0
 11
269.0756529512071
 21
191.5248485251998
 31
0.0
 11
269.0646173879071
 21
191.7593919922999
 31
0.0
 11
269.064609442207
 21
191.9947885511999
 31
0.0
 11
269.075631738507
 21
192.2293722784999
 31
0.0
 11
269.097769881407
 21
192.4614907978998
 31
0.0
 11
269.1307341113073
 21
192.6868939570999
 31
0.0
 11
269.1736176519071
 21
192.9009868325999
 31
0.0
 11
269.2258723361071
 21
193.1031477322999
 31
0.0
 11
269.2871458391071
 21
193.2932958261999
 31
0.0
 11
269.3572477496071
 21
193.4715122554998
 31
0.0
 11
269.436219868407
 21
193.6380928596999
 31
0.0
  0
SPLINE
  5
190A4
330
20
100
AcDbEntity
  8
0
  6
Continuous
 62
     7
100
AcDbSpline
210
0.0
220
0.0
230
1.0
 70
     8
 71
     3
 72
    13
 73
     9
 74
     7
 42
0.0000000001
 43
0.0000000001
 44
0.0000000001
 12
0.8929033022472754
 22
-0.4502484789934452
 32
0.0
 13
0.9437989836470755
 23
-0.3305200122031148
 33
0.0
 40
0.0
 40
0.0
 40
0.0
 40
0.0
 40
0.0790368329560748
 40
0.1615396333529613
 40
0.2468838275029444
 40
0.3344174874540634
 40
0.4234679814511987
 40
0.5133485020592921
 40
0.5133485020592921
 40
0.5133485020592921
 40
0.5133485020592921
 10
269.4362186115071
 20
193.6380902268999
 30
0.0
 10
269.4597426945556
 20
193.6262281556255
 30
0.0
 10
269.5081524528037
 20
193.6026340601733
 30
0.0
 10
269.5829786036361
 20
193.5683620909023
 30
0.0
 10
269.6611492770197
 20
193.5346415325389
 30
0.0
 10
269.7420315651181
 20
193.501746697833
 30
0.0
 10
269.8249706576512
 20
193.4699447701513
 30
0.0
 10
269.8810728330739
 20
193.4496853083226
 30
0.0
 10
269.909349214407
 20
193.4397828713999
 30
0.0
 11
269.4362186115071
 21
193.6380902268999
 31
0.0
 11
269.5072454600071
 21
193.6034202433999
 31
0.0
 11
269.5822395852071
 21
193.5690313896999
 31
0.0
 11
269.6605928797071
 21
193.5352025156999
 31
0.0
 11
269.7416699973071
 21
193.5022079308999
 31
0.0
 11
269.8248135051069
 21
193.4703151794998
 31
0.0
 11
269.909349214407
 21
193.4397828713999
 31
0.0
  0
SPLINE
  5
190A5
330
20
100
AcDbEntity
  8
0
  6
Continuous
 62
     7
100
AcDbSpline
210
0.0
220
0.0
230
1.0
 70
     8
 71
     3
 72
    13
 73
     9
 74
     7
 42
0.0000000001
 43
0.0000000001
 44
0.0000000001
 12
0.8929033378479573
 22
0.450248408392497
 32
0.0
 13
0.9437990135577177
 23
0.3305199267933466
 33
0.0
 40
0.0
 40
0.0
 40
0.0
 40
0.0
 40
0.0790368556914165
 40
0.1615396763172414
 40
0.2468838879380683
 40
0.3344175632755393
 40
0.4234680705333309
 40
0.5133486024875334
 40
0.5133486024875334
 40
0.5133486024875334
 40
0.5133486024875334
 10
269.4362185028069
 20
190.1164297231999
 30
0.0
 10
269.4597425935603
 20
190.1282917960264
 30
0.0
 10
269.5081523665667
 20
190.1518858938921
 30
0.0
 10
269.5829785385029
 20
190.1861578654721
 30
0.0
 10
269.6611492309985
 20
190.2198784242123
 30
0.0
 10
269.7420315361664
 20
190.2527732577586
 30
0.0
 10
269.8249706439725
 20
190.2845751828483
 30
0.0
 10
269.8810728289081
 20
190.304834642486
 30
0.0
 10
269.909349214707
 20
190.3147370780999
 30
0.0
 11
269.4362185028069
 21
190.1164297231999
 31
0.0
 11
269.5072453745073
 21
190.1510997109999
 31
0.0
 11
269.582239520907
 21
190.1854885669998
 31
0.0
 11
269.6605928343071
 21
190.2193174412998
 31
0.0
 11
269.741669969007
 21
190.2523120248999
 31
0.0
 11
269.824813492007
 21
190.2842047736999
 31
0.0
 11
269.909349214707
 21
190.3147370780999
 31
0.0
  0
SPLINE
  5
190A6
330
20
100
AcDbEntity
  8
0
  6
Continuous
 62
     7
100
AcDbSpline
210
0.0
220
0.0
230
1.0
 70
     8
 71
     3
 72
    24
 73
    20
 74
    18
 42
0.0000000001
 43
0.0000000001
 44
0.0000000001
 12
-0.3634803415758637
 22
0.931601868443754
 32
0.0
 13
0.3634803437077472
 23
0.9316018676119634
 33
0.0
 40
0.0
 40
0.0
 40
0.0
 40
0.0
 40
0.1567516827662992
 40
0.3215242394794286
 40
0.4950379657835536
 40
0.6777374201436312
 40
0.8698681401669803
 40
1.071148715057434
 40
1.27766833896914
 40
1.485988307973094
 40
1.694938396040232
 40
1.903293774145581
 40
2.109850506915178
 40
2.311107727817044
 40
2.503243757281418
 40
2.685980235855038
 40
2.859554455608438
 40
3.024400919156564
 40
3.181227955524798
 40
3.181227955524798
 40
3.181227955524798
 40
3.181227955524798
 10
269.909349220007
 20
190.3147370661999
 30
0.0
 10
269.8903571682755
 20
190.3634137863821
 30
0.0
 10
269.8545013815941
 20
190.4644883577088
 30
0.0
 10
269.8078974495678
 20
190.6228552139731
 30
0.0
 10
269.7671885185097
 20
190.7917469165054
 30
0.0
 10
269.7324883542934
 20
190.9712632227315
 30
0.0
 10
269.704039039111
 20
191.1612354181952
 30
0.0
 10
269.682303347472
 20
191.3600781034661
 30
0.0
 10
269.6676958579696
 20
191.5649779723768
 30
0.0
 10
269.6603905709454
 20
191.7728230322597
 30
0.0
 10
269.6603853120188
 20
191.9814073880419
 30
0.0
 10
269.667681413415
 20
192.1892769740268
 30
0.0
 10
269.6822810090889
 20
192.3941938519085
 30
0.0
 10
269.7040082075367
 20
192.5930438337545
 30
0.0
 10
269.7324483746439
 20
192.7830237852277
 30
0.0
 10
269.7671451871238
 20
192.962575664255
 30
0.0
 10
269.8078591380927
 20
193.1315249852015
 30
0.0
 10
269.8544770887865
 20
193.2899606770581
 30
0.0
 10
269.8903480383131
 20
193.3910827639089
 30
0.0
 10
269.909349220007
 20
193.4397828838999
 30
0.0
 11
269.909349220007
 21
190.3147370661999
 31
0.0
 11
269.856723740307
 21
190.4623908806999
 31
0.0
 11
269.8100047905071
 21
190.6204014346998
 31
0.0
 11
269.7691619441071
 21
190.7890397313999
 31
0.0
 11
269.734323000407
 21
190.9683867096999
 31
0.0
 11
269.705724880207
 21
191.1583771333999
 31
0.0
 11
269.6837371370071
 21
191.3584531413999
 31
0.0
 11
269.668972045107
 21
191.5644442749999
 31
0.0
 11
269.661615066007
 21
191.7726342947999
 31
0.0
 11
269.6616097689071
 21
191.9815843827999
 31
0.0
 11
269.6689579036071
 21
192.1898101460998
 31
0.0
 11
269.6837165174073
 21
192.3958389478999
 31
0.0
 11
269.7056923921071
 21
192.5958927653999
 31
0.0
 11
269.734281164807
 21
192.7858899650999
 31
0.0
 11
269.769117324607
 21
192.9652752001999
 31
0.0
 11
269.809966118907
 21
193.1339742984999
 31
0.0
 11
269.8567004414069
 21
193.2920573767998
 31
0.0
 11
269.909349220007
 21
193.4397828838999
 31
0.0
  0
LINE
  5
190A7
330
20
100
AcDbEntity
  8
0
  6
Continuous
 62
     7
100
AcDbLine
 10
280.0567913191071
 20
197.7770539696998
 30
0.0
 11
280.0567913191071
 21
185.9774659803998
 31
0.0
  0
LINE
  5
190A8
330
20
100
AcDbEntity
  8
0
  6
Continuous
 62
     7
100
AcDbLine
 10
279.617077675507
 20
197.7770484803999
 30
0.0
 11
279.617077675507
 21
185.9774714720999
 31
0.0
  0
LINE
  5
190A9
330
20
100
AcDbEntity
  8
0
  6
Continuous
 62
     7
100
AcDbLine
 10
278.7042311494071
 20
185.2108219093999
 30
0.0
 11
278.704231169307
 21
198.5436980430998
 31
0.0
  0
SPLINE
  5
190AA
330
20
100
AcDbEntity
  8
0
  6
Continuous
 62
     7
100
AcDbSpline
210
0.0
220
0.0
230
1.0
 70
     8
 71
     3
 72
    29
 73
    25
 74
    23
 42
0.0000000001
 43
0.0000000001
 44
0.0000000001
 12
-0.0000073413921223
 22
-0.9999999999730519
 32
0.0
 13
-0.9515168745527647
 23
0.3075965497877668
 33
0.0
 40
0.0
 40
0.0
 40
0.0
 40
0.0
 40
0.0677525687374039
 40
0.1331396233462367
 40
0.1966375445507371
 40
0.2586758236699199
 40
0.3196756464250522
 40
0.3800564365713233
 40
0.4402109283335041
 40
0.5004066374696315
 40
0.5608524248091058
 40
0.6216502918876065
 40
0.6826479512721888
 40
0.7436675281154582
 40
0.8047649671751738
 40
0.8663235700077713
 40
0.9287329849269145
 40
0.9922606746197832
 40
1.05719031178757
 40
1.123846485695975
 40
1.192547428168807
 40
1.263592339086109
 40
1.337247665176181
 40
1.413710008636869
 40
1.413710008636869
 40
1.413710008636869
 40
1.413710008636869
 10
279.6170776754071
 20
185.9774658785999
 30
0.0
 10
279.6170775096077
 20
185.9548816890213
 30
0.0
 10
279.6158176947851
 20
185.9104895135898
 30
0.0
 10
279.6100390778787
 20
185.8451601662783
 30
0.0
 10
279.6005197766627
 20
185.7821922554578
 30
0.0
 10
279.5873036085533
 20
185.7213895385009
 30
0.0
 10
279.5703680933876
 20
185.6625936454395
 30
0.0
 10
279.5496217856033
 20
185.6056959000182
 30
0.0
 10
279.5249219633684
 20
185.550688040808
 30
0.0
 10
279.4961035722408
 20
185.4976903231754
 30
0.0
 10
279.4630250113517
 20
185.4469773417566
 30
0.0
 10
279.4256376068499
 20
185.3990031508176
 30
0.0
 10
279.3840431314228
 20
185.3543556984859
 30
0.0
 10
279.3384653400288
 20
185.3136238375721
 30
0.0
 10
279.2890968604692
 20
185.2772545964963
 30
0.0
 10
279.2360356019656
 20
185.2455968282663
 30
0.0
 10
279.1793556395544
 20
185.2190147049346
 30
0.0
 10
279.1192113996095
 20
185.1979306572849
 30
0.0
 10
279.0558431603333
 20
185.1827868856652
 30
0.0
 10
278.9895409446234
 20
185.1740131274546
 30
0.0
 10
278.9206501457455
 20
185.1720148194639
 30
0.0
 10
278.8495818259824
 20
185.1771580686549
 30
0.0
 10
278.7768289363885
 20
185.1897411142691
 30
0.0
 10
278.7284828860974
 20
185.2029824947875
 30
0.0
 10
278.7042311494071
 20
185.2108223457999
 30
0.0
 11
279.6170776754071
 21
185.9774658785999
 31
0.0
 11
279.615108341107
 21
185.9097419367999
 31
0.0
 11
279.609304444207
 21
185.8446129747999
 31
0.0
 11
279.5997728028071
 21
185.7818345245999
 31
0.0
 11
279.5865580574071
 21
185.7212200165999
 31
0.0
 11
279.5696380439069
 21
185.6626137752999
 31
0.0
 11
279.548918885107
 21
185.6058990833999
 31
0.0
 11
279.524244142607
 21
185.5510381686999
 31
0.0
 11
279.495455182207
 21
185.4981730652999
 31
0.0
 11
279.4624008725071
 21
185.4475656960999
 31
0.0
 11
279.4249997224071
 21
185.3996330911999
 31
0.0
 11
279.3833961428071
 21
185.3550252822999
 31
0.0
 11
279.3378786393071
 21
185.3143860692999
 31
0.0
 11
279.2886749699071
 21
185.2781659646998
 31
0.0
 11
279.235803174407
 21
185.2466376468998
 31
0.0
 11
279.1792974771073
 21
185.2201415859999
 31
0.0
 11
279.119349517607
 21
185.1991175637999
 31
0.0
 11
279.056203330307
 21
185.1840040991999
 31
0.0
 11
278.990128110707
 21
185.1752228193999
 31
0.0
 11
278.921457590907
 21
185.1731785084999
 31
0.0
 11
278.850593140907
 21
185.1782390512999
 31
0.0
 11
278.7780017633071
 21
185.1907129824999
 31
0.0
 11
278.7042311494071
 21
185.2108223457999
 31
0.0
  0
SPLINE
  5
190AB
330
20
100
AcDbEntity
  8
0
  6
Continuous
 62
     7
100
AcDbSpline
210
0.0
220
0.0
230
1.0
 70
     8
 71
     3
 72
    29
 73
    25
 74
    23
 42
0.0000000001
 43
0.0000000001
 44
0.0000000001
 12
-0.0000120144564252
 22
-0.9999999999278264
 32
0.0
 13
-0.989084771361704
 23
0.1473475994387619
 33
0.0
 40
0.0
 40
0.0
 40
0.0
 40
0.0
 40
0.128672439047103
 40
0.2543646637008564
 40
0.3778055625213993
 40
0.4996923214293146
 40
0.620740921975099
 40
0.7416930360516841
 40
0.8632593633938444
 40
0.9859084865946446
 40
1.109986061756649
 40
1.23560165242583
 40
1.362307461927772
 40
1.489561062551983
 40
1.617270444707847
 40
1.745997179275805
 40
1.87628447614853
 40
2.008385540077719
 40
2.142555058711605
 40
2.279106383144186
 40
2.41832196930655
 40
2.560440201610372
 40
2.705639933958292
 40
2.853970149468757
 40
2.853970149468757
 40
2.853970149468757
 40
2.853970149468757
 10
280.0567913191071
 20
185.9774659803998
 30
0.0
 10
280.0567908037973
 20
185.9345751673872
 30
0.0
 10
280.0542245423088
 20
185.8497624387793
 30
0.0
 10
280.0426285785495
 20
185.7242846177221
 30
0.0
 10
280.0235562541643
 20
185.6020070612365
 30
0.0
 10
279.9970939985344
 20
185.4826977484849
 30
0.0
 10
279.9631964390687
 20
185.3661444716138
 30
0.0
 10
279.9216804994414
 20
185.2521912506961
 30
0.0
 10
279.8722619690212
 20
185.1408449754739
 30
0.0
 10
279.8146132783065
 20
185.0323383376041
 30
0.0
 10
279.7484551405599
 20
184.9271908413232
 30
0.0
 10
279.6736960567082
 20
184.8262734817852
 30
0.0
 10
279.5905449646638
 20
184.7307303701957
 30
0.0
 10
279.4994513611444
 20
184.6417151189471
 30
0.0
 10
279.400800625506
 20
184.5600847360251
 30
0.0
 10
279.2947897020054
 20
184.4864701917368
 30
0.0
 10
279.1815666769666
 20
184.4215074445954
 30
0.0
 10
279.0614361948121
 20
184.3659436467672
 30
0.0
 10
278.9348714022795
 20
184.3205671916942
 30
0.0
 10
278.8024426238183
 20
184.2861383211497
 30
0.0
 10
278.6648289789952
 20
184.263369463183
 30
0.0
 10
278.5228414915321
 20
184.2529010897305
 30
0.0
 10
278.3774600279117
 20
184.255255244149
 30
0.0
 10
278.2800065237052
 20
184.26551387324
 30
0.0
 10
278.2311028046072
 20
184.2727992402999
 30
0.0
 11
280.0567913191071
 21
185.9774659803998
 31
0.0
 11
280.0528533586072
 21
185.8488538151999
 31
0.0
 11
280.0412460355071
 21
185.7236986898998
 31
0.0
 11
280.0221830872071
 21
185.6017386164998
 31
0.0
 11
279.9957537006071
 21
185.4827517704999
 31
0.0
 11
279.961913715307
 21
185.3665294873999
 31
0.0
 11
279.920475380507
 21
185.2528972810999
 31
0.0
 11
279.8711257178073
 21
185.1417983038999
 31
0.0
 11
279.8135472730072
 21
185.0335045823999
 31
0.0
 11
279.7474375957071
 21
184.9285057479999
 31
0.0
 11
279.672633905707
 21
184.8275915042998
 31
0.0
 11
279.5894254089068
 21
184.7320367648999
 31
0.0
 11
279.498389036107
 21
184.6431218746998
 31
0.0
 11
279.3999800052073
 21
184.5617256282999
 31
0.0
 11
279.2942347133071
 21
184.4883191882999
 31
0.0
 11
279.181221919207
 21
184.4234895029999
 31
0.0
 11
279.0613246912069
 21
184.3680337024999
 31
0.0
 11
278.9350311647071
 21
184.3227412649999
 31
0.0
 11
278.802879852107
 21
184.2883567512998
 31
0.0
 11
278.6655384099069
 21
184.2655903794998
 31
0.0
 11
278.5238092194071
 21
184.2550818822999
 31
0.0
 11
278.3786273664071
 21
184.2573604417998
 31
0.0
 11
278.2311028046072
 21
184.2727992402999
 31
0.0
  0
SPLINE
  5
190AC
330
20
100
AcDbEntity
  8
0
  6
Continuous
 62
     7
100
AcDbSpline
210
0.0
220
0.0
230
1.0
 70
     8
 71
     3
 72
    20
 73
    16
 74
    14
 42
0.0000000001
 43
0.0000000001
 44
0.0000000001
 12
0.1016803220299604
 22
0.994817124959097
 32
0.0
 13
0.8664594870391443
 23
0.4992473908994048
 33
0.0
 40
0.0
 40
0.0
 40
0.0
 40
0.0
 40
0.0951554941284318
 40
0.1902322737932372
 40
0.2846369106002316
 40
0.3777878551880475
 40
0.4691261674278072
 40
0.5581267095712855
 40
0.6443100822564413
 40
0.7272556554920631
 40
0.8066161298364294
 40
0.8821341339089032
 40
0.953661357527112
 40
1.021180487468431
 40
1.084829467497883
 40
1.084829467497883
 40
1.084829467497883
 40
1.084829467497883
 10
278.2311028040069
 20
184.2727992402999
 30
0.0
 10
278.2343279511022
 20
184.3043533453309
 30
0.0
 10
278.2424557897953
 20
184.3672764138593
 30
0.0
 10
278.2595696411693
 20
184.4606420196495
 30
0.0
 10
278.2814731224042
 20
184.5523184044495
 30
0.0
 10
278.3079685440835
 20
184.6414764388421
 30
0.0
 10
278.3388175348096
 20
184.7273146795302
 30
0.0
 10
278.3737428801106
 20
184.8090611801699
 30
0.0
 10
278.4124316659275
 20
184.8859821341619
 30
0.0
 10
278.4545385670658
 20
184.9573880955722
 30
0.0
 10
278.4996904396123
 20
185.0226404208152
 30
0.0
 10
278.5474890827138
 20
185.0811553641006
 30
0.0
 10
278.5975227164815
 20
185.1324112819323
 30
0.0
 10
278.6493488936248
 20
185.1759383816988
 30
0.0
 10
278.6858503305782
 20
185.2002294400621
 30
0.0
 10
278.7042334181072
 20
185.2108216357999
 30
0.0
 11
278.2311028040069
 21
184.2727992402999
 31
0.0
 11
278.243287316607
 21
184.3671714062999
 31
0.0
 11
278.2604388649073
 21
184.4606883481999
 31
0.0
 11
278.2824020174071
 21
184.5525025920999
 31
0.0
 11
278.3089777384071
 21
184.6417820943998
 31
0.0
 11
278.3399251922072
 21
184.7277177818999
 31
0.0
 11
278.3749639252071
 21
184.8095308840999
 31
0.0
 11
278.413776407707
 21
184.8864799901998
 31
0.0
 11
278.4560109112069
 21
184.9578677680998
 31
0.0
 11
278.5012846962071
 21
185.0230472838999
 31
0.0
 11
278.5491874803073
 21
185.0814278646998
 31
0.0
 11
278.5992851564071
 21
185.1324804509999
 31
0.0
 11
278.651123727107
 21
185.1757423914999
 31
0.0
 11
278.7042334181072
 21
185.2108216357999
 31
0.0
  0
LINE
  5
190AD
330
20
100
AcDbEntity
  8
0
  6
Continuous
 62
     7
100
AcDbLine
 10
280.0567913191071
 20
185.9774659803998
 30
0.0
 11
279.617077675507
 21
185.9774659803998
 31
0.0
  0
SPLINE
  5
190AE
330
20
100
AcDbEntity
  8
0
  6
Continuous
 62
     7
100
AcDbSpline
210
0.0
220
0.0
230
1.0
 70
     8
 71
     3
 72
    29
 73
    25
 74
    23
 42
0.0000000001
 43
0.0000000001
 44
0.0000000001
 12
0.9515168522537752
 22
0.3075966187672862
 32
0.0
 13
0.0000073382091035
 23
-0.9999999999730754
 33
0.0
 40
0.0
 40
0.0
 40
0.0
 40
0.0
 40
0.0764244364755021
 40
0.1500654146351112
 40
0.2211106777155871
 40
0.2898191926325555
 40
0.3564837724971988
 40
0.4214204869297308
 40
0.4849587913109299
 40
0.5473757407576829
 40
0.6089387090906239
 40
0.6700389817555957
 40
0.7310604427939955
 40
0.792059143546344
 40
0.8528572596798992
 40
0.9133027717835064
 40
0.9734980549705943
 40
1.033652336747054
 40
1.094033384170132
 40
1.155033795148009
 40
1.21707273730869
 40
1.280571125455434
 40
1.34595817818147
 40
1.413709990341756
 40
1.413709990341756
 40
1.413709990341756
 40
1.413709990341756
 10
278.704231169307
 20
198.5436976104999
 30
0.0
 10
278.7284708823838
 20
198.5515335765836
 30
0.0
 10
278.7767997158002
 20
198.5647714031772
 30
0.0
 10
278.8495347335627
 20
198.5773558158478
 30
0.0
 10
278.9206005264017
 20
198.5825041297788
 30
0.0
 10
278.9894969385987
 20
198.580510595577
 30
0.0
 10
279.0558073567061
 20
198.5717399390433
 30
0.0
 10
279.1191848706865
 20
198.5565973934406
 30
0.0
 10
279.1793378942317
 20
198.5355128237083
 30
0.0
 10
279.2360253038567
 20
198.5089288155606
 30
0.0
 10
279.2890912274902
 20
198.4772692379576
 30
0.0
 10
279.3384624338692
 20
198.4408985706202
 30
0.0
 10
279.3840418195108
 20
198.4001656000816
 30
0.0
 10
279.4256370894337
 20
198.3555174357706
 30
0.0
 10
279.463024731589
 20
198.3075429997254
 30
0.0
 10
279.4961032405043
 20
198.2568301652901
 30
0.0
 10
279.5249215408059
 20
198.2038327452644
 30
0.0
 10
279.5496213867225
 20
198.1488250355015
 30
0.0
 10
279.5703678397539
 20
198.091927116774
 30
0.0
 10
279.5873035372231
 20
198.0331307515179
 30
0.0
 10
279.600519829518
 20
197.9723274740478
 30
0.0
 10
279.610039153577
 20
197.9093591855478
 30
0.0
 10
279.6158177162268
 20
197.8440299310686
 30
0.0
 10
279.6170775096814
 20
197.799638008886
 30
0.0
 10
279.6170776754071
 20
197.7770540714999
 30
0.0
 11
278.704231169307
 21
198.5436976104999
 31
0.0
 11
278.7779647354071
 21
198.5637987477999
 31
0.0
 11
278.8505412259072
 21
198.5762745920999
 31
0.0
 11
278.921405655607
 21
198.5813403604999
 31
0.0
 11
278.990083890107
 21
198.5793007212999
 31
0.0
 11
279.0561679851072
 21
198.5705224186999
 31
0.0
 11
279.1193218292071
 21
198.5554105406999
 31
0.0
 11
279.179280598707
 21
198.5343852681999
 31
0.0
 11
279.235793733407
 21
198.5078873213999
 31
0.0
 11
279.2886697056071
 21
198.4763574841998
 31
0.0
 11
279.3378759349071
 21
198.4401360772999
 31
0.0
 11
279.3833950013071
 21
198.3994957856999
 31
0.0
 11
279.4249993621073
 21
198.3548872813999
 31
0.0
 11
279.4624006947072
 21
198.3069545029999
 31
0.0
 11
279.4954548843071
 21
198.2563473840999
 31
0.0
 11
279.5242436952069
 21
198.2034826842999
 31
0.0
 11
279.548918426707
 21
198.1486219948999
 31
0.0
 11
279.569637746207
 21
198.0919070877999
 31
0.0
 11
279.5865579663071
 21
198.0333002938999
 31
0.0
 11
279.5997728558071
 21
197.9726851386999
 31
0.0
 11
279.6093045347071
 21
197.9099062218999
 31
0.0
 11
279.615108385707
 21
197.8447772576998
 31
0.0
 11
279.6170776754071
 21
197.7770540714999
 31
0.0
  0
SPLINE
  5
190AF
330
20
100
AcDbEntity
  8
0
  6
Continuous
 62
     7
100
AcDbSpline
210
0.0
220
0.0
230
1.0
 70
     8
 71
     3
 72
    29
 73
    25
 74
    23
 42
0.0000000001
 43
0.0000000001
 44
0.0000000001
 12
0.9890847674995205
 22
0.1473476253640339
 32
0.0
 13
0.0000120169791921
 23
-0.9999999999277962
 33
0.0
 40
0.0
 40
0.0
 40
0.0
 40
0.0
 40
0.1482561674428417
 40
0.2934262251277482
 40
0.4355436968191249
 40
0.5747734432962816
 40
0.7113411677837494
 40
0.8455248265986126
 40
0.9776476972113513
 40
1.107950638243803
 40
1.236686494954812
 40
1.364401816242535
 40
1.491659363602059
 40
1.618367346480711
 40
1.743983457306897
 40
1.868060476321274
 40
1.990708746378098
 40
2.112274669803552
 40
2.233227320593961
 40
2.354277101903777
 40
2.4761651640426
 40
2.599606958974267
 40
2.725299161256538
 40
2.853970157645499
 40
2.853970157645499
 40
2.853970157645499
 40
2.853970157645499
 10
278.2311028046072
 20
199.4817207097999
 30
0.0
 10
278.2799821102423
 20
199.489002441206
 30
0.0
 10
278.3774007984523
 20
199.4992595192283
 30
0.0
 10
278.5227471896186
 20
199.5016210449614
 30
0.0
 10
278.6647299394291
 20
199.491162452605
 30
0.0
 10
278.8023548752688
 20
199.4684006877928
 30
0.0
 10
278.9348000055075
 20
199.4339752459857
 30
0.0
 10
279.0613833028898
 20
199.388598532794
 30
0.0
 10
279.1815312867041
 20
199.3330314130357
 30
0.0
 10
279.2947691346399
 20
199.2680631877728
 30
0.0
 10
279.4007893585849
 20
199.1944440316691
 30
0.0
 10
279.4994455376759
 20
199.1128102549954
 30
0.0
 10
279.5905423281912
 20
199.0237924943612
 30
0.0
 10
279.6736950123338
 20
198.9282478247622
 30
0.0
 10
279.7484545769236
 20
198.8273299325815
 30
0.0
 10
279.8146126145501
 20
198.7221827250446
 30
0.0
 10
279.8722611239538
 20
198.6136766774911
 30
0.0
 10
279.9216797002587
 20
198.5023306861965
 30
0.0
 10
279.9631959282848
 20
198.3883771029647
 30
0.0
 10
279.9970938524463
 20
198.2718228809562
 30
0.0
 10
280.0235563577682
 20
198.1525124668166
 30
0.0
 10
280.0426287290743
 20
198.0302341816054
 30
0.0
 10
280.0542245870594
 20
197.9047565412954
 30
0.0
 10
280.0567908036949
 20
197.8199443018264
 30
0.0
 10
280.0567913191071
 20
197.7770539696998
 30
0.0
 11
278.2311028046072
 21
199.4817207097999
 31
0.0
 11
278.3785533798071
 21
199.4971550564999
 31
0.0
 11
278.523705436907
 21
199.4994410940999
 31
0.0
 11
278.6654345623072
 21
199.4889420096999
 31
0.0
 11
278.8027914138073
 21
199.4661820085999
 31
0.0
 11
278.9349604621071
 21
199.4318005303999
 31
0.0
 11
279.0612693173071
 21
199.3865089484999
 31
0.0
 11
279.1811881506071
 21
199.3310479138999
 31
0.0
 11
279.2942158189072
 21
199.2662127178999
 31
0.0
 11
279.3999694680072
 21
199.1928023200999
 31
0.0
 11
279.4983836206071
 21
199.1114029474999
 31
0.0
 11
279.5894231202071
 21
199.0224856101998
 31
0.0
 11
279.672633179607
 21
198.9269293495999
 31
0.0
 11
279.747437235307
 21
198.8260147294998
 31
0.0
 11
279.8135466742071
 21
198.7210164021998
 31
0.0
 11
279.8711248212072
 21
198.6127234885999
 31
0.0
 11
279.9204744628072
 21
198.5016249439999
 31
0.0
 11
279.9619131195071
 21
198.3879922837998
 31
0.0
 11
279.9957535183072
 21
198.2717688912998
 31
0.0
 11
280.0221831930072
 21
198.1527807742999
 31
0.0
 11
280.0412462161072
 21
198.0308198055998
 31
0.0
 11
280.052853447907
 21
197.9056646942999
 31
0.0
 11
280.0567913191071
 21
197.7770539696998
 31
0.0
  0
SPLINE
  5
190B0
330
20
100
AcDbEntity
  8
0
  6
Continuous
 62
     7
100
AcDbSpline
210
0.0
220
0.0
230
1.0
 70
     8
 71
     3
 72
    20
 73
    16
 74
    14
 42
0.0000000001
 43
0.0000000001
 44
0.0000000001
 12
0.1016802325893579
 22
-0.9948171341008226
 32
0.0
 13
0.8664594360090028
 23
-0.4992474794638032
 33
0.0
 40
0.0
 40
0.0
 40
0.0
 40
0.0
 40
0.0951554956826981
 40
0.1902322784124537
 40
0.2846369197329748
 40
0.3777878702069759
 40
0.4691261893708817
 40
0.5581267392893072
 40
0.6443101203152963
 40
0.7272557024386997
 40
0.8066161858744871
 40
0.8821341990214664
 40
0.9536614316791485
 40
1.021180570139362
 40
1.084829558268293
 40
1.084829558268293
 40
1.084829558268293
 40
1.084829558268293
 10
278.2311028204069
 20
199.4817207097999
 30
0.0
 10
278.234327964718
 20
199.4501666039635
 30
0.0
 10
278.2424557981233
 20
199.3872435331883
 30
0.0
 10
278.2595696426281
 20
199.2938779230377
 30
0.0
 10
278.2814731176898
 20
199.2022015321383
 30
0.0
 10
278.3079685345942
 20
199.1130434902957
 30
0.0
 10
278.3388175212411
 20
199.0272052408475
 30
0.0
 10
278.3737428636682
 20
198.9454587306208
 30
0.0
 10
278.4124316475725
 20
198.8685377663341
 30
0.0
 10
278.4545385478875
 20
198.7971317942469
 30
0.0
 10
278.4996904205113
 20
198.7318794580964
 30
0.0
 10
278.5474890644453
 20
198.6733645037759
 30
0.0
 10
278.5975227000306
 20
198.6221085753116
 30
0.0
 10
278.649348879623
 20
198.5785814651616
 30
0.0
 10
278.6858503188215
 20
198.5542904001644
 30
0.0
 10
278.704233407607
 20
198.5436982011998
 30
0.0
 11
278.2311028204069
 21
199.4817207097999
 31
0.0
 11
278.243287325007
 21
199.3873485411999
 31
0.0
 11
278.2604388663069
 21
199.2938315948999
 31
0.0
 11
278.2824020127071
 21
199.2020173448999
 31
0.0
 11
278.3089777288072
 21
199.1127378349999
 31
0.0
 11
278.339925178607
 21
199.0268021386999
 31
0.0
 11
278.374963908707
 21
198.9449890267999
 31
0.0
 11
278.413776389307
 21
198.8680399103999
 31
0.0
 11
278.4560108920071
 21
198.7966521216998
 31
0.0
 11
278.5012846771071
 21
198.7314725948999
 31
0.0
 11
278.5491874621071
 21
198.6730920030998
 31
0.0
 11
278.5992851401073
 21
198.6220394059999
 31
0.0
 11
278.651123713307
 21
198.5787774551998
 31
0.0
 11
278.704233407607
 21
198.5436982011998
 31
0.0
  0
LINE
  5
190B1
330
20
100
AcDbEntity
  8
0
  6
Continuous
 62
     7
100
AcDbLine
 10
280.0567913191071
 20
197.7770539696998
 30
0.0
 11
279.617077675507
 21
197.7770539696998
 31
0.0
  0
ENDSEC
  0
SECTION
  2
OBJECTS
  0
DICTIONARY
  5
C
330
0
100
AcDbDictionary
281
     1
  3
ACAD_COLOR
350
1B
  3
ACAD_GROUP
350
D
  3
ACAD_LAYOUT
350
19
  3
ACAD_MATERIAL
350
1A
  3
ACAD_MLINESTYLE
350
16
  3
ACAD_PLOTSETTINGS
350
18
  3
ACAD_PLOTSTYLENAME
350
E
  3
AcadDim
350
DD2D
  3
AcDbVariableDictionary
350
187BB
  0
DICTIONARY
  5
187C7
330
11B0E
100
AcDbDictionary
280
     1
281
     1
  3
ACAD_MTEXT_RT
360
187C8
  0
DICTIONARY
  5
1B
102
{ACAD_REACTORS
330
C
102
}
330
C
100
AcDbDictionary
281
     1
  0
DICTIONARY
  5
D
102
{ACAD_REACTORS
330
C
102
}
330
C
100
AcDbDictionary
281
     1
  0
DICTIONARY
  5
19
102
{ACAD_REACTORS
330
C
102
}
330
C
100
AcDbDictionary
281
     1
  3
Model
350
23
  3
レイアウト1
350
11858
  0
DICTIONARY
  5
1A
102
{ACAD_REACTORS
330
C
102
}
330
C
100
AcDbDictionary
281
     1
  0
DICTIONARY
  5
16
102
{ACAD_REACTORS
330
C
102
}
330
C
100
AcDbDictionary
281
     1
  3
Standard
350
17
  0
DICTIONARY
  5
18
102
{ACAD_REACTORS
330
C
102
}
330
C
100
AcDbDictionary
281
     1
  0
ACDBDICTIONARYWDFLT
  5
E
102
{ACAD_REACTORS
330
C
102
}
330
C
100
AcDbDictionary
281
     1
  3
Normal
350
F
100
AcDbDictionaryWithDefault
340
F
  0
XRECORD
  5
DD2D
102
{ACAD_REACTORS
330
C
102
}
330
C
100
AcDbXrecord
280
     1
 90
   990106
  3

 60
     0
 61
     0
 62
     4
 63
     4
 64
     1
 65
     0
 66
     0
 67
     3
 68
     1
 69
     0
 70
     0
 71
     0
 72
     0
 40
0.0
170
     1
340
0
  0
DICTIONARY
  5
187BB
102
{ACAD_REACTORS
330
C
102
}
330
C
100
AcDbDictionary
281
     1
  3
DIMASSOC
350
187BD
  3
HIDETEXT
350
187BC
  3
PROJECTNAME
350
187BE
  0
XRECORD
  5
187C8
102
{ACAD_REACTORS
330
187C7
102
}
330
187C7
100
AcDbXrecord
280
     1
 40
69011.0
  1
駐）　１　ＰＣ\P　　　２　ＰＣ\P　　　　一般公差　%%p1.0\P　　　　表面アラサ　\U+25BD\U+25BD\U+25BD
  0
LAYOUT
  5
23
102
{ACAD_XDICTIONARY
360
187C3
102
}
102
{ACAD_REACTORS
330
19
102
}
330
19
100
AcDbPlotSettings
  1

  2
いきなりPDF Professional 3
  4
A4
  6

 40
3.174999952316284
 41
3.174999952316284
 42
3.175003051757812
 43
3.17498779296875
 44
210.0156707763671
 45
297.0106506347656
 46
-3.189999999999999
 47
-3.2
 48
0.0
 49
0.0
140
0.0
141
0.0
142
1.0
143
1.0
 70
 11956
 72
     1
 73
     1
 74
     1
  7
monochrome.ctb
 75
    16
147
1.0
148
-82.28045802176984
149
-63.46527204786582
100
AcDbLayout
  1
Model
 70
     1
 71
     0
 10
0.0
 20
0.0
 11
12.0
 21
9.0
 12
0.0
 22
0.0
 32
0.0
 14
0.0
 24
0.0
 34
0.0
 15
0.0
 25
0.0
 35
0.0
146
0.0
 13
0.0
 23
0.0
 33
0.0
 16
1.0
 26
0.0
 36
0.0
 17
0.0
 27
1.0
 37
0.0
 76
     0
330
20
  0
LAYOUT
  5
11858
102
{ACAD_XDICTIONARY
360
187C5
102
}
102
{ACAD_REACTORS
330
19
102
}
330
19
100
AcDbPlotSettings
  1

  2
京セラ LS-6700S
  4

  6

 40
0.0
 41
0.0
 42
0.0
 43
0.0
 44
0.0
 45
0.0
 46
0.0
 47
0.0
 48
0.0
 49
0.0
140
0.0
141
0.0
142
1.0
143
1.0
 70
   688
 72
     0
 73
     0
 74
     5
  7
monochrome.ctb
 75
    16
147
1.0
148
0.0
149
0.0
100
AcDbLayout
  1
レイアウト1
 70
     1
 71
     1
 10
0.0
 20
0.0
 11
12.0
 21
9.0
 12
0.0
 22
0.0
 32
0.0
 14
0.0
 24
0.0
 34
0.0
 15
0.0
 25
0.0
 35
0.0
146
0.0
 13
0.0
 23
0.0
 33
0.0
 16
1.0
 26
0.0
 36
0.0
 17
0.0
 27
1.0
 37
0.0
 76
     0
330
11857
  0
MLINESTYLE
  5
17
102
{ACAD_REACTORS
330
16
102
}
330
16
100
AcDbMlineStyle
  2
STANDARD
 70
     0
  3

 62
   256
 51
90.0
 52
90.0
 71
     2
 49
0.5
 62
   256
  6
BYLAYER
 49
-0.5
 62
   256
  6
BYLAYER
  0
ACDBPLACEHOLDER
  5
F
102
{ACAD_REACTORS
330
E
102
}
330
E
  0
DICTIONARYVAR
  5
187BD
102
{ACAD_REACTORS
330
187BB
102
}
330
187BB
100
DictionaryVariables
280
     0
  1
2
  0
DICTIONARYVAR
  5
187BC
102
{ACAD_REACTORS
330
187BB
102
}
330
187BB
100
DictionaryVariables
280
     0
  1
1
  0
DICTIONARYVAR
  5
187BE
102
{ACAD_REACTORS
330
187BB
102
}
330
187BB
100
DictionaryVariables
280
     0
  1

  0
DICTIONARY
  5
187C3
330
23
100
AcDbDictionary
280
     1
281
     1
  3
ACAD_XREC_ROUNDTRIP
360
187C4
  0
DICTIONARY
  5
187C5
330
11858
100
AcDbDictionary
280
     1
281
     1
  3
ACAD_XREC_ROUNDTRIP
360
187C6
  0
XRECORD
  5
187C4
102
{ACAD_REACTORS
330
187C3
102
}
330
187C3
100
AcDbXrecord
280
     1
102
SHADEPLOT
 70
     0
102
SHADEPLOTRESLEVEL
 70
     2
102
SHADEPLOTCUSTOMDPI
 70
   180
  0
XRECORD
  5
187C6
102
{ACAD_REACTORS
330
187C5
102
}
330
187C5
100
AcDbXrecord
280
     1
102
SHADEPLOT
 70
     0
102
SHADEPLOTRESLEVEL
 70
     2
102
SHADEPLOTCUSTOMDPI
 70
   300
  0
ENDSEC
  0
EOF
