  0
SECTION
  2
HEADER
  9
$ACADVER
  1
AC1015
  9
$ACADMAINTVER
 70
    20
  9
$DWGCODEPAGE
  3
ANSI_932
  9
$INSBASE
 10
0.0
 20
0.0
 30
0.0
  9
$EXTMIN
 10
31.82999160825181
 20
575.210931340518
 30
0.0
  9
$EXTMAX
 10
328.8299916082518
 20
785.210931340518
 30
0.0
  9
$LIMMIN
 10
0.0
 20
0.0
  9
$LIMMAX
 10
420.0
 20
297.0
  9
$ORTHOMODE
 70
     0
  9
$REGENMODE
 70
     1
  9
$FILLMODE
 70
     1
  9
$QTEXTMODE
 70
     0
  9
$MIRRTEXT
 70
     0
  9
$LTSCALE
 40
0.25
  9
$ATTMODE
 70
     1
  9
$TEXTSIZE
 40
4.0
  9
$TRACEWID
 40
1.0
  9
$TEXTSTYLE
  7
STANDARD
  9
$CLAYER
  8
3
  9
$CELTYPE
  6
BYLAYER
  9
$CECOLOR
 62
   256
  9
$CELTSCALE
 40
1.0
  9
$DISPSILH
 70
     0
  9
$DIMSCALE
 40
1.0
  9
$DIMASZ
 40
3.0
  9
$DIMEXO
 40
0.5
  9
$DIMDLI
 40
4.0
  9
$DIMRND
 40
0.0
  9
$DIMDLE
 40
0.0
  9
$DIMEXE
 40
1.0
  9
$DIMTP
 40
0.0
  9
$DIMTM
 40
0.0
  9
$DIMTXT
 40
3.0
  9
$DIMCEN
 40
0.0
  9
$DIMTSZ
 40
0.0
  9
$DIMTOL
 70
     0
  9
$DIMLIM
 70
     0
  9
$DIMTIH
 70
     0
  9
$DIMTOH
 70
     0
  9
$DIMSE1
 70
     0
  9
$DIMSE2
 70
     0
  9
$DIMTAD
 70
     1
  9
$DIMZIN
 70
     9
  9
$DIMBLK
  1

  9
$DIMASO
 70
     1
  9
$DIMSHO
 70
     1
  9
$DIMPOST
  1

  9
$DIMAPOST
  1

  9
$DIMALT
 70
     0
  9
$DIMALTD
 70
     4
  9
$DIMALTF
 40
0.0394
  9
$DIMLFAC
 40
1.0
  9
$DIMTOFL
 70
     0
  9
$DIMTVP
 40
0.0
  9
$DIMTIX
 70
     0
  9
$DIMSOXD
 70
     0
  9
$DIMSAH
 70
     1
  9
$DIMBLK1
  1
OPEN
  9
$DIMBLK2
  1
OPEN
  9
$DIMSTYLE
  2
STD01
  9
$DIMCLRD
 70
     7
  9
$DIMCLRE
 70
     7
  9
$DIMCLRT
 70
     0
  9
$DIMTFAC
 40
1.0
  9
$DIMGAP
 40
0.5
  9
$DIMJUST
 70
     0
  9
$DIMSD1
 70
     0
  9
$DIMSD2
 70
     0
  9
$DIMTOLJ
 70
     1
  9
$DIMTZIN
 70
     9
  9
$DIMALTZ
 70
     0
  9
$DIMALTTZ
 70
     0
  9
$DIMUPT
 70
     0
  9
$DIMDEC
 70
     3
  9
$DIMTDEC
 70
     3
  9
$DIMALTU
 70
     8
  9
$DIMALTTD
 70
     4
  9
$DIMTXSTY
  7
STANDARD
  9
$DIMAUNIT
 70
     0
  9
$DIMADEC
 70
     3
  9
$DIMALTRND
 40
0.0
  9
$DIMAZIN
 70
     2
  9
$DIMDSEP
 70
    46
  9
$DIMATFIT
 70
     3
  9
$DIMFRAC
 70
     0
  9
$DIMLDRBLK
  1
OPEN
  9
$DIMLUNIT
 70
     2
  9
$DIMLWD
 70
    -2
  9
$DIMLWE
 70
    -2
  9
$DIMTMOVE
 70
     0
  9
$LUNITS
 70
     2
  9
$LUPREC
 70
     4
  9
$SKETCHINC
 40
1.0
  9
$FILLETRAD
 40
1.5
  9
$AUNITS
 70
     0
  9
$AUPREC
 70
     0
  9
$MENU
  1
acad
  9
$ELEVATION
 40
0.0
  9
$PELEVATION
 40
0.0
  9
$THICKNESS
 40
0.0
  9
$LIMCHECK
 70
     0
  9
$CHAMFERA
 40
1.5
  9
$CHAMFERB
 40
1.5
  9
$CHAMFERC
 40
20.0
  9
$CHAMFERD
 40
0.0
  9
$SKPOLY
 70
     0
  9
$TDCREATE
 40
2452227.535780706
  9
$TDUCREATE
 40
2452227.160780706
  9
$TDUPDATE
 40
2460028.387954954
  9
$TDUUPDATE
 40
2460028.012954954
  9
$TDINDWG
 40
0.0845274769
  9
$TDUSRTIMER
 40
0.0845250810
  9
$USRTIMER
 70
     1
  9
$ANGBASE
 50
0.0
  9
$ANGDIR
 70
     0
  9
$PDMODE
 70
     0
  9
$PDSIZE
 40
0.0
  9
$PLINEWID
 40
0.0
  9
$SPLFRAME
 70
     0
  9
$SPLINETYPE
 70
     6
  9
$SPLINESEGS
 70
     8
  9
$HANDSEED
  5
2FB1
  9
$SURFTAB1
 70
     6
  9
$SURFTAB2
 70
     6
  9
$SURFTYPE
 70
     6
  9
$SURFU
 70
     6
  9
$SURFV
 70
     6
  9
$UCSBASE
  2

  9
$UCSNAME
  2

  9
$UCSORG
 10
0.0
 20
0.0
 30
0.0
  9
$UCSXDIR
 10
1.0
 20
0.0
 30
0.0
  9
$UCSYDIR
 10
0.0
 20
1.0
 30
0.0
  9
$UCSORTHOREF
  2

  9
$UCSORTHOVIEW
 70
     0
  9
$UCSORGTOP
 10
0.0
 20
0.0
 30
0.0
  9
$UCSORGBOTTOM
 10
0.0
 20
0.0
 30
0.0
  9
$UCSORGLEFT
 10
0.0
 20
0.0
 30
0.0
  9
$UCSORGRIGHT
 10
0.0
 20
0.0
 30
0.0
  9
$UCSORGFRONT
 10
0.0
 20
0.0
 30
0.0
  9
$UCSORGBACK
 10
0.0
 20
0.0
 30
0.0
  9
$PUCSBASE
  2

  9
$PUCSNAME
  2

  9
$PUCSORG
 10
0.0
 20
0.0
 30
0.0
  9
$PUCSXDIR
 10
1.0
 20
0.0
 30
0.0
  9
$PUCSYDIR
 10
0.0
 20
1.0
 30
0.0
  9
$PUCSORTHOREF
  2

  9
$PUCSORTHOVIEW
 70
     0
  9
$PUCSORGTOP
 10
0.0
 20
0.0
 30
0.0
  9
$PUCSORGBOTTOM
 10
0.0
 20
0.0
 30
0.0
  9
$PUCSORGLEFT
 10
0.0
 20
0.0
 30
0.0
  9
$PUCSORGRIGHT
 10
0.0
 20
0.0
 30
0.0
  9
$PUCSORGFRONT
 10
0.0
 20
0.0
 30
0.0
  9
$PUCSORGBACK
 10
0.0
 20
0.0
 30
0.0
  9
$USERI1
 70
     0
  9
$USERI2
 70
     0
  9
$USERI3
 70
     0
  9
$USERI4
 70
     0
  9
$USERI5
 70
     0
  9
$USERR1
 40
0.0
  9
$USERR2
 40
0.0
  9
$USERR3
 40
0.0
  9
$USERR4
 40
0.0
  9
$USERR5
 40
0.0
  9
$WORLDVIEW
 70
     1
  9
$SHADEDGE
 70
     3
  9
$SHADEDIF
 70
    70
  9
$TILEMODE
 70
     1
  9
$MAXACTVP
 70
    48
  9
$PINSBASE
 10
0.0
 20
0.0
 30
0.0
  9
$PLIMCHECK
 70
     0
  9
$PEXTMIN
 10
83.09186682701113
 20
55.99853343963622
 30
0.0
  9
$PEXTMAX
 10
747.8268014430998
 20
503.986800956726
 30
0.0
  9
$PLIMMIN
 10
-4.995333194732666
 20
-16.93330574035644
  9
$PLIMMAX
 10
835.9139685630799
 20
576.9186840057371
  9
$UNITMODE
 70
     0
  9
$VISRETAIN
 70
     1
  9
$PLINEGEN
 70
     0
  9
$PSLTSCALE
 70
     0
  9
$TREEDEPTH
 70
  3020
  9
$CMLSTYLE
  2
STANDARD
  9
$CMLJUST
 70
     0
  9
$CMLSCALE
 40
20.0
  9
$PROXYGRAPHICS
 70
     1
  9
$MEASUREMENT
 70
     1
  9
$CELWEIGHT
370
    -1
  9
$ENDCAPS
280
     0
  9
$JOINSTYLE
280
     0
  9
$LWDISPLAY
290
     0
  9
$INSUNITS
 70
     0
  9
$HYPERLINKBASE
  1

  9
$STYLESHEET
  1
MONOCHROME.CTB
  9
$XEDIT
290
     1
  9
$CEPSNTYPE
380
     0
  9
$PSTYLEMODE
290
     1
  9
$FINGERPRINTGUID
  2
{357C0802-013E-11D5-8976-00004C990E2D}
  9
$VERSIONGUID
  2
{CDC5368C-0E0F-4FFF-9E93-1C32167DEC1D}
  9
$EXTNAMES
290
     1
  9
$PSVPSCALE
 40
0.0
  9
$OLESTARTUP
290
     0
  0
ENDSEC
  0
SECTION
  2
CLASSES
  0
CLASS
  1
ACDBDICTIONARYWDFLT
  2
AcDbDictionaryWithDefault
  3
ObjectDBX Classes
 90
        0
280
     0
281
     0
  0
CLASS
  1
ACDBPLACEHOLDER
  2
AcDbPlaceHolder
  3
ObjectDBX Classes
 90
        0
280
     0
281
     0
  0
CLASS
  1
LAYOUT
  2
AcDbLayout
  3
ObjectDBX Classes
 90
        0
280
     0
281
     0
  0
CLASS
  1
DICTIONARYVAR
  2
AcDbDictionaryVar
  3
ObjectDBX Classes
 90
        0
280
     0
281
     0
  0
CLASS
  1
MATERIAL
  2
AcDbMaterial
  3
ObjectDBX Classes
 90
     1024
280
     0
281
     0
  0
CLASS
  1
VISUALSTYLE
  2
AcDbVisualStyle
  3
ObjectDBX Classes
 90
     4095
280
     0
281
     0
  0
CLASS
  1
TABLESTYLE
  2
AcDbTableStyle
  3
ObjectDBX Classes
 90
     4095
280
     0
281
     0
  0
CLASS
  1
SORTENTSTABLE
  2
AcDbSortentsTable
  3
ObjectDBX Classes
 90
        0
280
     0
281
     0
  0
ENDSEC
  0
SECTION
  2
TABLES
  0
TABLE
  2
VPORT
  5
8
330
0
100
AcDbSymbolTable
 70
     1
  0
VPORT
  5
2F69
330
8
100
AcDbSymbolTableRecord
100
AcDbViewportTableRecord
  2
*Active
 70
     0
 10
0.0
 20
0.0
 11
1.0
 21
1.0
 12
228.5821600884426
 22
682.2367253725786
 13
0.0
 23
0.0
 14
10.0
 24
10.0
 15
10.0
 25
10.0
 16
0.0
 26
0.0
 36
1.0
 17
0.0
 27
0.0
 37
0.0
 40
282.2033385902425
 41
1.867383512544803
 42
50.0
 43
0.0
 44
0.0
 50
0.0
 51
0.0
 71
     0
 72
   100
 73
     1
 74
     1
 75
     0
 76
     0
 77
     0
 78
     0
281
     0
 65
     1
110
0.0
120
0.0
130
0.0
111
1.0
121
0.0
131
0.0
112
0.0
122
1.0
132
0.0
 79
     0
146
0.0
  0
ENDTAB
  0
TABLE
  2
LTYPE
  5
5
330
0
100
AcDbSymbolTable
 70
     9
  0
LTYPE
  5
12
330
5
100
AcDbSymbolTableRecord
100
AcDbLinetypeTableRecord
  2
BYBLOCK
 70
     0
  3

 72
    65
 73
     0
 40
0.0
  0
LTYPE
  5
13
330
5
100
AcDbSymbolTableRecord
100
AcDbLinetypeTableRecord
  2
BYLAYER
 70
     0
  3

 72
    65
 73
     0
 40
0.0
  0
LTYPE
  5
14
330
5
100
AcDbSymbolTableRecord
100
AcDbLinetypeTableRecord
  2
CONTINUOUS
 70
     0
  3
Solid line
 72
    65
 73
     0
 40
0.0
  0
LTYPE
  5
22
330
5
100
AcDbSymbolTableRecord
100
AcDbLinetypeTableRecord
  2
BORDER
 70
     0
  3
Border __ __ . __ __ . __ __ . __ __ . __ __ .
 72
    65
 73
     6
 40
44.45
 49
12.7
 74
     0
 49
-6.349999999999997
 74
     0
 49
12.7
 74
     0
 49
-6.349999999999997
 74
     0
 49
0.0
 74
     0
 49
-6.349999999999997
 74
     0
  0
LTYPE
  5
23
330
5
100
AcDbSymbolTableRecord
100
AcDbLinetypeTableRecord
  2
CENTER
 70
     0
  3
Center ____ _ ____ _ ____ _ ____ _ ____ _ ____
 72
    65
 73
     4
 40
50.8
 49
31.75
 74
     0
 49
-6.349999999999997
 74
     0
 49
6.349999999999997
 74
     0
 49
-6.349999999999997
 74
     0
  0
LTYPE
  5
24
330
5
100
AcDbSymbolTableRecord
100
AcDbLinetypeTableRecord
  2
DASHDOT
 70
     0
  3
Dash dot __ . __ . __ . __ . __ . __ . __ . __
 72
    65
 73
     4
 40
25.4
 49
12.7
 74
     0
 49
-6.349999999999997
 74
     0
 49
0.0
 74
     0
 49
-6.349999999999997
 74
     0
  0
LTYPE
  5
25
330
5
100
AcDbSymbolTableRecord
100
AcDbLinetypeTableRecord
  2
DASHED
 70
     0
  3
Dashed __ __ __ __ __ __ __ __ __ __ __ __ __ _
 72
    65
 73
     2
 40
19.04999999999996
 49
12.7
 74
     0
 49
-6.349999999999997
 74
     0
  0
LTYPE
  5
26
330
5
100
AcDbSymbolTableRecord
100
AcDbLinetypeTableRecord
  2
DIVIDE
 70
     0
  3
Divide ____ . . ____ . . ____ . . ____ . . ____
 72
    65
 73
     6
 40
31.74999999999998
 49
12.7
 74
     0
 49
-6.349999999999997
 74
     0
 49
0.0
 74
     0
 49
-6.349999999999997
 74
     0
 49
0.0
 74
     0
 49
-6.349999999999997
 74
     0
  0
LTYPE
  5
27
330
5
100
AcDbSymbolTableRecord
100
AcDbLinetypeTableRecord
  2
DOT
 70
     0
  3
Dot . . . . . . . . . . . . . . . . . . . . . .
 72
    65
 73
     2
 40
6.349999999999997
 49
0.0
 74
     0
 49
-6.349999999999997
 74
     0
  0
LTYPE
  5
28
330
5
100
AcDbSymbolTableRecord
100
AcDbLinetypeTableRecord
  2
HIDDEN
 70
     0
  3
Hidden __ __ __ __ __ __ __ __ __ __ __ __ __ _
 72
    65
 73
     2
 40
9.524999999999996
 49
6.349999999999997
 74
     0
 49
-3.174999999999998
 74
     0
  0
LTYPE
  5
29
330
5
100
AcDbSymbolTableRecord
100
AcDbLinetypeTableRecord
  2
PHANTOM
 70
     0
  3
Phantom ______  __  __  ______  __  __  ______
 72
    65
 73
     6
 40
63.5
 49
31.75
 74
     0
 49
-6.349999999999997
 74
     0
 49
6.349999999999997
 74
     0
 49
-6.349999999999997
 74
     0
 49
6.349999999999997
 74
     0
 49
-6.349999999999997
 74
     0
  0
ENDTAB
  0
TABLE
  2
LAYER
  5
2
330
0
100
AcDbSymbolTable
 70
    13
  0
LAYER
  5
E
330
2
100
AcDbSymbolTableRecord
100
AcDbLayerTableRecord
  2
0
 70
     0
 62
     7
  6
CONTINUOUS
370
    -3
390
176
  0
LAYER
  5
32
330
2
100
AcDbSymbolTableRecord
100
AcDbLayerTableRecord
  2
SUNPOU
 70
     0
 62
     7
  6
CONTINUOUS
370
    -3
390
176
  0
LAYER
  5
45
330
2
100
AcDbSymbolTableRecord
100
AcDbLayerTableRecord
  2
DEFPOINTS
 70
     0
 62
     7
  6
CONTINUOUS
290
     0
370
    -3
390
176
  0
LAYER
  5
142
330
2
100
AcDbSymbolTableRecord
100
AcDbLayerTableRecord
  2
TMP
 70
     0
 62
     7
  6
CONTINUOUS
370
    -3
390
176
  0
LAYER
  5
222
330
2
100
AcDbSymbolTableRecord
100
AcDbLayerTableRecord
  2
vp
 70
     0
 62
    -1
  6
CONTINUOUS
370
    -3
390
176
  0
LAYER
  5
223
330
2
100
AcDbSymbolTableRecord
100
AcDbLayerTableRecord
  2
vp1
 70
     0
 62
    -1
  6
CONTINUOUS
370
    -3
390
176
  0
LAYER
  5
2406
330
2
100
AcDbSymbolTableRecord
100
AcDbLayerTableRecord
  2
1
 70
     0
 62
     7
  6
CONTINUOUS
370
    -3
390
176
  0
LAYER
  5
2407
330
2
100
AcDbSymbolTableRecord
100
AcDbLayerTableRecord
  2
2
 70
     0
 62
     7
  6
CONTINUOUS
370
    -3
390
176
  0
LAYER
  5
2408
330
2
100
AcDbSymbolTableRecord
100
AcDbLayerTableRecord
  2
3
 70
     0
 62
     7
  6
CONTINUOUS
370
    -3
390
176
  0
LAYER
  5
27C7
330
2
100
AcDbSymbolTableRecord
100
AcDbLayerTableRecord
  2
WAKU
 70
     4
 62
     7
  6
CONTINUOUS
370
    -3
390
176
  0
LAYER
  5
2AE3
330
2
100
AcDbSymbolTableRecord
100
AcDbLayerTableRecord
  2
dim
 70
     0
 62
     7
  6
CONTINUOUS
370
    -3
390
176
  0
LAYER
  5
2B6E
330
2
100
AcDbSymbolTableRecord
100
AcDbLayerTableRecord
  2
pnt
 70
     0
 62
     1
  6
CONTINUOUS
290
     0
370
    -3
390
176
  0
LAYER
  5
2B6F
330
2
100
AcDbSymbolTableRecord
100
AcDbLayerTableRecord
  2
waku1
 70
     0
 62
     7
  6
CONTINUOUS
290
     0
370
    -3
390
176
  0
ENDTAB
  0
TABLE
  2
STYLE
  5
3
330
0
100
AcDbSymbolTable
 70
     3
  0
STYLE
  5
F
330
3
100
AcDbSymbolTableRecord
100
AcDbTextStyleTableRecord
  2
STANDARD
 70
     0
 40
0.0
 41
1.0
 50
0.0
 71
     0
 42
4.0
  3
txt.shx
  4
bigfont.shx
  0
STYLE
  5
21
330
3
100
AcDbSymbolTableRecord
100
AcDbTextStyleTableRecord
  2

 70
     1
 40
0.0
 41
1.0
 50
0.0
 71
     0
 42
2.5
  3
ltypeshp.shx
  4

  0
STYLE
  5
27C8
330
3
100
AcDbSymbolTableRecord
100
AcDbTextStyleTableRecord
  2
STYLE1
 70
     0
 40
0.0
 41
1.0
 50
0.0
 71
     0
 42
2.5
  3

  4

1001
ACAD
1000
MS Mincho
1071
    32785
  0
ENDTAB
  0
TABLE
  2
VIEW
  5
6
330
0
100
AcDbSymbolTable
 70
     0
  0
ENDTAB
  0
TABLE
  2
UCS
  5
7
330
0
100
AcDbSymbolTable
 70
     0
  0
ENDTAB
  0
TABLE
  2
APPID
  5
9
330
0
100
AcDbSymbolTable
 70
     5
  0
APPID
  5
10
330
9
100
AcDbSymbolTableRecord
100
AcDbRegAppTableRecord
  2
ACAD
 70
     0
  0
APPID
  5
3A
330
9
100
AcDbSymbolTableRecord
100
AcDbRegAppTableRecord
  2
CONTENTTABDATA
 70
     0
  0
APPID
  5
3B
330
9
100
AcDbSymbolTableRecord
100
AcDbRegAppTableRecord
  2
CONTENTCURRENTTAB
 70
     0
  0
APPID
  5
46
330
9
100
AcDbSymbolTableRecord
100
AcDbRegAppTableRecord
  2
CONTENTBLOCKICON
 70
     0
  0
APPID
  5
47
330
9
100
AcDbSymbolTableRecord
100
AcDbRegAppTableRecord
  2
CONTENTBLOCKDESCRIPTION
 70
     0
  0
ENDTAB
  0
TABLE
  2
DIMSTYLE
  5
A
330
0
100
AcDbSymbolTable
 70
    19
100
AcDbDimStyleTable
 71
     5
340
187
340
1E2
340
1E1
340
1E0
340
1D
  0
DIMSTYLE
105
1D
330
A
100
AcDbSymbolTableRecord
100
AcDbDimStyleTableRecord
  2
STANDARD
 70
     0
 40
0.0
 41
3.0
 42
0.5
 43
4.0
 44
1.0
 73
     0
 74
     0
 77
     1
 78
     9
140
3.0
141
0.0
143
0.0394
147
0.5
171
     4
173
     1
176
     2
177
     2
179
     3
271
     3
272
     3
273
     8
274
     4
284
     9
340
F
341
2B
343
2B
344
2B
  0
DIMSTYLE
105
187
102
{ACAD_REACTORS
330
285E
330
286B
330
2878
330
28A0
330
28C2
330
28CF
330
28EF
330
28FC
330
2909
330
2916
330
29E8
330
29E9
102
}
330
A
100
AcDbSymbolTableRecord
100
AcDbDimStyleTableRecord
  2
STD01
 70
     0
 41
3.0
 42
0.5
 43
4.0
 44
1.0
 73
     0
 74
     0
 77
     1
 78
     9
 79
     2
140
3.0
141
0.0
143
0.0394
147
0.5
171
     4
173
     1
176
     7
177
     7
179
     3
271
     3
272
     3
273
     8
274
     4
284
     9
340
F
341
2B
343
2B
344
2B
  0
DIMSTYLE
105
1E0
330
A
100
AcDbSymbolTableRecord
100
AcDbDimStyleTableRecord
  2
STD02
 70
     0
 40
0.5
 41
3.0
 42
0.5
 43
4.0
 44
1.0
 73
     0
 74
     0
 77
     1
 78
     9
 79
     2
140
3.0
141
0.0
143
0.0394
147
0.5
171
     4
173
     1
176
     2
177
     2
179
     3
271
     3
272
     3
273
     8
274
     4
284
     9
340
F
341
2B
343
2B
344
2B
  0
DIMSTYLE
105
1E1
330
A
100
AcDbSymbolTableRecord
100
AcDbDimStyleTableRecord
  2
STD05
 70
     0
 40
0.2
 41
3.0
 42
0.5
 43
4.0
 44
1.0
 73
     0
 74
     0
 77
     1
 78
     9
 79
     2
140
3.0
141
0.0
143
0.0394
147
0.5
171
     4
173
     1
176
     2
177
     2
179
     3
271
     3
272
     3
273
     8
274
     4
284
     9
340
F
341
2B
343
2B
344
2B
  0
DIMSTYLE
105
1E2
330
A
100
AcDbSymbolTableRecord
100
AcDbDimStyleTableRecord
  2
STD10
 70
     0
 40
0.1
 41
3.0
 42
0.5
 43
4.0
 44
1.0
 73
     0
 74
     0
 77
     1
 78
     9
 79
     2
140
3.0
141
0.0
143
0.0394
147
0.5
171
     4
173
     1
176
     2
177
     2
179
     3
271
     3
272
     3
273
     8
274
     4
284
     9
340
F
341
2B
343
2B
344
2B
  0
DIMSTYLE
105
202
102
{ACAD_REACTORS
330
2950
330
295A
102
}
330
A
100
AcDbSymbolTableRecord
100
AcDbDimStyleTableRecord
  2
STD01$4
 70
     0
 41
3.0
 42
0.5
 43
4.0
 44
1.0
 73
     0
 77
     1
 78
     9
 79
     2
140
3.0
141
0.0
143
0.0394
147
0.5
171
     4
173
     1
176
     7
177
     7
179
     3
271
     3
272
     3
273
     8
274
     4
284
     9
340
F
341
2B
343
2B
344
2B
  0
DIMSTYLE
105
203
330
A
100
AcDbSymbolTableRecord
100
AcDbDimStyleTableRecord
  2
STD01$3
 70
     0
 41
3.0
 42
0.5
 43
4.0
 44
1.0
 73
     0
 77
     1
 78
     9
 79
     2
140
3.0
141
0.0
143
0.0394
147
0.5
171
     4
173
     1
176
     7
177
     7
179
     3
271
     3
272
     3
273
     8
274
     4
284
     9
340
F
341
2B
343
2B
344
2B
  0
DIMSTYLE
105
204
330
A
100
AcDbSymbolTableRecord
100
AcDbDimStyleTableRecord
  2
STD01$6
 70
     0
 41
3.0
 42
0.5
 43
4.0
 44
1.0
 73
     0
 74
     0
 78
     9
 79
     2
140
3.0
141
0.0
143
0.0394
147
0.5
171
     4
173
     1
176
     7
177
     7
179
     3
271
     3
272
     3
273
     8
274
     4
284
     9
340
F
341
2B
343
2B
344
2B
  0
DIMSTYLE
105
205
330
A
100
AcDbSymbolTableRecord
100
AcDbDimStyleTableRecord
  2
STD02$4
 70
     0
 40
0.5
 41
3.0
 42
0.5
 43
4.0
 44
1.0
 73
     0
 77
     1
 78
     9
 79
     2
140
3.0
141
0.0
143
0.0394
147
0.5
171
     4
173
     1
176
     2
177
     2
179
     3
271
     3
272
     3
273
     8
274
     4
284
     9
340
F
341
2B
343
2B
344
2B
  0
DIMSTYLE
105
206
330
A
100
AcDbSymbolTableRecord
100
AcDbDimStyleTableRecord
  2
STD02$3
 70
     0
 40
0.5
 41
3.0
 42
0.5
 43
4.0
 44
1.0
 73
     0
 77
     1
 78
     9
 79
     2
140
3.0
141
0.0
143
0.0394
147
0.5
171
     4
173
     1
176
     2
177
     2
179
     3
271
     3
272
     3
273
     8
274
     4
284
     9
340
F
341
2B
343
2B
344
2B
  0
DIMSTYLE
105
207
330
A
100
AcDbSymbolTableRecord
100
AcDbDimStyleTableRecord
  2
STD02$6
 70
     0
 40
0.5
 41
3.0
 42
0.5
 43
4.0
 44
1.0
 73
     0
 74
     0
 78
     9
 79
     2
140
3.0
141
0.0
143
0.0394
147
0.5
171
     4
173
     1
176
     2
177
     2
179
     3
271
     3
272
     3
273
     8
274
     4
284
     9
340
F
341
2B
343
2B
344
2B
  0
DIMSTYLE
105
208
330
A
100
AcDbSymbolTableRecord
100
AcDbDimStyleTableRecord
  2
STD05$4
 70
     0
 40
0.2
 41
3.0
 42
0.5
 43
4.0
 44
1.0
 73
     0
 77
     1
 78
     9
 79
     2
140
3.0
141
0.0
143
0.0394
147
0.5
171
     4
173
     1
176
     2
177
     2
179
     3
271
     3
272
     3
273
     8
274
     4
284
     9
340
F
341
2B
343
2B
344
2B
  0
DIMSTYLE
105
209
330
A
100
AcDbSymbolTableRecord
100
AcDbDimStyleTableRecord
  2
STD05$3
 70
     0
 40
0.2
 41
3.0
 42
0.5
 43
4.0
 44
1.0
 73
     0
 77
     1
 78
     9
 79
     2
140
3.0
141
0.0
143
0.0394
147
0.5
171
     4
173
     1
176
     2
177
     2
179
     3
271
     3
272
     3
273
     8
274
     4
284
     9
340
F
341
2B
343
2B
344
2B
  0
DIMSTYLE
105
20A
330
A
100
AcDbSymbolTableRecord
100
AcDbDimStyleTableRecord
  2
STD05$6
 70
     0
 40
0.2
 41
3.0
 42
0.5
 43
4.0
 44
1.0
 73
     0
 74
     0
 78
     9
 79
     2
140
3.0
141
0.0
143
0.0394
147
0.5
171
     4
173
     1
176
     2
177
     2
179
     3
271
     3
272
     3
273
     8
274
     4
284
     9
340
F
341
2B
343
2B
344
2B
  0
DIMSTYLE
105
20B
330
A
100
AcDbSymbolTableRecord
100
AcDbDimStyleTableRecord
  2
STD10$4
 70
     0
 40
0.1
 41
3.0
 42
0.5
 43
4.0
 44
1.0
 73
     0
 77
     1
 78
     9
 79
     2
140
3.0
141
0.0
143
0.0394
147
0.5
171
     4
173
     1
176
     2
177
     2
179
     3
271
     3
272
     3
273
     8
274
     4
284
     9
340
F
341
2B
343
2B
344
2B
  0
DIMSTYLE
105
20C
330
A
100
AcDbSymbolTableRecord
100
AcDbDimStyleTableRecord
  2
STD10$3
 70
     0
 40
0.1
 41
3.0
 42
0.5
 43
4.0
 44
1.0
 73
     0
 77
     1
 78
     9
 79
     2
140
3.0
141
0.0
143
0.0394
147
0.5
171
     4
173
     1
176
     2
177
     2
179
     3
271
     3
272
     3
273
     8
274
     4
284
     9
340
F
341
2B
343
2B
344
2B
  0
DIMSTYLE
105
20D
330
A
100
AcDbSymbolTableRecord
100
AcDbDimStyleTableRecord
  2
STD10$6
 70
     0
 40
0.1
 41
3.0
 42
0.5
 43
4.0
 44
1.0
 73
     0
 74
     0
 78
     9
 79
     2
140
3.0
141
0.0
143
0.0394
147
0.5
171
     4
173
     1
176
     2
177
     2
179
     3
271
     3
272
     3
273
     8
274
     4
284
     9
340
F
341
2B
343
2B
344
2B
  0
DIMSTYLE
105
24B7
330
A
100
AcDbSymbolTableRecord
100
AcDbDimStyleTableRecord
  2
ISO-25
 70
     0
 41
2.5
 42
0.625
 43
3.75
 44
1.25
 73
     0
 74
     0
 77
     1
 78
     8
 79
     2
140
3.0
141
0.0
143
0.03937007874016
147
0.625
171
     3
172
     1
176
     2
177
     2
179
     3
271
     3
272
     3
274
     3
283
     0
284
     8
340
F
341
2B
342
2B
  0
DIMSTYLE
105
2B70
330
A
100
AcDbSymbolTableRecord
100
AcDbDimStyleTableRecord
  2
STD01$0
 70
     0
 41
3.0
 42
0.5
 43
4.0
 44
1.0
 73
     0
 74
     0
 77
     1
 78
     9
 79
     2
140
3.0
141
0.0
143
0.0394
147
0.5
171
     4
172
     1
173
     1
176
     7
177
     7
179
     3
271
     3
272
     3
273
     8
274
     4
284
     9
340
F
341
2B
343
2B
344
2B
  0
ENDTAB
  0
TABLE
  2
BLOCK_RECORD
  5
1
330
0
100
AcDbSymbolTable
 70
    13
  0
BLOCK_RECORD
  5
18
330
1
100
AcDbSymbolTableRecord
100
AcDbBlockTableRecord
  2
*MODEL_SPACE
340
179
  0
BLOCK_RECORD
  5
15
330
1
100
AcDbSymbolTableRecord
100
AcDbBlockTableRecord
  2
*PAPER_SPACE
340
17A
  0
BLOCK_RECORD
  5
2B
330
1
100
AcDbSymbolTableRecord
100
AcDbBlockTableRecord
  2
_OPEN
340
0
102
{BLKREFS
331
2A56
331
2A5C
331
2A62
331
2A63
331
2A6B
331
2A6C
331
2A74
331
2A75
331
2A7E
331
2A7F
331
2A87
331
2A88
331
2A91
331
2A92
331
2A9A
331
2A9B
331
2AA3
331
2AA4
331
2AAC
331
2AAD
331
2AB5
331
2AB6
102
}
  0
BLOCK_RECORD
  5
285F
330
1
100
AcDbSymbolTableRecord
100
AcDbBlockTableRecord
  2
*D1
340
0
  0
BLOCK_RECORD
  5
286C
330
1
100
AcDbSymbolTableRecord
100
AcDbBlockTableRecord
  2
*D2
340
0
  0
BLOCK_RECORD
  5
2879
330
1
100
AcDbSymbolTableRecord
100
AcDbBlockTableRecord
  2
*D3
340
0
  0
BLOCK_RECORD
  5
28A1
330
1
100
AcDbSymbolTableRecord
100
AcDbBlockTableRecord
  2
*D4
340
0
  0
BLOCK_RECORD
  5
28C3
330
1
100
AcDbSymbolTableRecord
100
AcDbBlockTableRecord
  2
*D5
340
0
  0
BLOCK_RECORD
  5
28D0
330
1
100
AcDbSymbolTableRecord
100
AcDbBlockTableRecord
  2
*D6
340
0
  0
BLOCK_RECORD
  5
28F0
330
1
100
AcDbSymbolTableRecord
100
AcDbBlockTableRecord
  2
*D7
340
0
  0
BLOCK_RECORD
  5
28FD
330
1
100
AcDbSymbolTableRecord
100
AcDbBlockTableRecord
  2
*D8
340
0
  0
BLOCK_RECORD
  5
290A
330
1
100
AcDbSymbolTableRecord
100
AcDbBlockTableRecord
  2
*D9
340
0
  0
BLOCK_RECORD
  5
2917
330
1
100
AcDbSymbolTableRecord
100
AcDbBlockTableRecord
  2
*D10
340
0
  0
BLOCK_RECORD
  5
2951
330
1
100
AcDbSymbolTableRecord
100
AcDbBlockTableRecord
  2
*D11
340
0
  0
BLOCK_RECORD
  5
295B
330
1
100
AcDbSymbolTableRecord
100
AcDbBlockTableRecord
  2
*D12
340
0
  0
ENDTAB
  0
ENDSEC
  0
SECTION
  2
BLOCKS
  0
BLOCK
  5
19
330
18
100
AcDbEntity
  8
0
100
AcDbBlockBegin
  2
*MODEL_SPACE
 70
     0
 10
0.0
 20
0.0
 30
0.0
  3
*MODEL_SPACE
  1

  0
ENDBLK
  5
1A
330
18
100
AcDbEntity
  8
0
100
AcDbBlockEnd
  0
BLOCK
  5
16
330
15
100
AcDbEntity
 67
     1
  8
0
100
AcDbBlockBegin
  2
*PAPER_SPACE
 70
     0
 10
0.0
 20
0.0
 30
0.0
  3
*PAPER_SPACE
  1

  0
ENDBLK
  5
17
330
15
100
AcDbEntity
 67
     1
  8
0
100
AcDbBlockEnd
  0
BLOCK
  5
2C
330
2B
100
AcDbEntity
  8
0
100
AcDbBlockBegin
  2
_OPEN
 70
     0
 10
0.0
 20
0.0
 30
0.0
  3
_OPEN
  1

  0
LINE
  5
2D
330
2B
100
AcDbEntity
  8
0
  6
ByBlock
 62
     0
100
AcDbLine
 10
-1.0
 20
0.1666666666666666
 30
0.0
 11
0.0
 21
0.0
 31
0.0
  0
LINE
  5
2E
330
2B
100
AcDbEntity
  8
0
  6
ByBlock
 62
     0
100
AcDbLine
 10
0.0
 20
0.0
 30
0.0
 11
-1.0
 21
-0.1666666666666666
 31
0.0
  0
LINE
  5
2F
330
2B
100
AcDbEntity
  8
0
  6
ByBlock
 62
     0
100
AcDbLine
 10
0.0
 20
0.0
 30
0.0
 11
-1.0
 21
0.0
 31
0.0
  0
ENDBLK
  5
30
330
2B
100
AcDbEntity
  8
0
100
AcDbBlockEnd
  0
BLOCK
  5
2869
330
285F
100
AcDbEntity
  8
0
100
AcDbBlockBegin
  2
*D1
 70
     1
 10
0.0
 20
0.0
 30
0.0
  3
*D1
  1

  0
LINE
  5
2A5F
330
285F
100
AcDbEntity
  8
3
 62
     7
370
    -2
100
AcDbLine
 10
68.77949344817739
 20
714.642796814166
 30
0.0
 11
68.77949344817739
 21
705.4812423114543
 31
0.0
  0
LINE
  5
2A60
330
285F
100
AcDbEntity
  8
3
 62
     7
370
    -2
100
AcDbLine
 10
168.7794934481773
 20
714.6427968141661
 30
0.0
 11
168.7794934481773
 21
705.4812423114543
 31
0.0
  0
LINE
  5
2A61
330
285F
100
AcDbEntity
  8
3
 62
     7
370
    -2
100
AcDbLine
 10
71.77949344817739
 20
706.4812423114544
 30
0.0
 11
165.7794934481773
 21
706.4812423114544
 31
0.0
  0
INSERT
  5
2A62
330
285F
100
AcDbEntity
  8
3
 62
     7
370
    -2
100
AcDbBlockReference
  2
_OPEN
 10
68.77949344817739
 20
706.4812423114544
 30
0.0
 41
3.0
 42
3.0
 43
3.0
 50
180.0
  0
INSERT
  5
2A63
330
285F
100
AcDbEntity
  8
3
 62
     7
370
    -2
100
AcDbBlockReference
  2
_OPEN
 10
168.7794934481773
 20
706.4812423114544
 30
0.0
 41
3.0
 42
3.0
 43
3.0
  0
MTEXT
  5
2A64
330
285F
100
AcDbEntity
  8
3
 62
     0
100
AcDbMText
 10
118.7794934481773
 20
708.4812423114543
 30
0.0
 40
3.0
 41
0.0
 71
     5
 72
     1
  1
\A1;100
 73
     1
 44
1.0
1001
ACAD
1000
MTEXTBEGIN
1070
    73
1070
     1
1070
    44
1040
1.0
1070
    74
1070
     0
1000
MTEXTEND
  0
POINT
  5
2A65
330
285F
100
AcDbEntity
  8
DEFPOINTS
 62
     0
100
AcDbPoint
 10
68.77949344817739
 20
715.142796814166
 30
0.0
  0
POINT
  5
2A66
330
285F
100
AcDbEntity
  8
DEFPOINTS
 62
     0
100
AcDbPoint
 10
168.7794934481773
 20
715.1427968141661
 30
0.0
  0
POINT
  5
2A67
330
285F
100
AcDbEntity
  8
DEFPOINTS
 62
     0
100
AcDbPoint
 10
168.7794934481773
 20
706.4812423114544
 30
0.0
  0
ENDBLK
  5
286A
330
285F
100
AcDbEntity
  8
0
100
AcDbBlockEnd
  0
BLOCK
  5
2876
330
286C
100
AcDbEntity
  8
0
100
AcDbBlockBegin
  2
*D2
 70
     1
 10
0.0
 20
0.0
 30
0.0
  3
*D2
  1

  0
LINE
  5
2A68
330
286C
100
AcDbEntity
  8
3
 62
     7
370
    -2
100
AcDbLine
 10
76.27949344817739
 20
749.6427968141658
 30
0.0
 11
76.27949344817739
 21
757.8227365880517
 31
0.0
  0
LINE
  5
2A69
330
286C
100
AcDbEntity
  8
3
 62
     7
370
    -2
100
AcDbLine
 10
161.2794934481774
 20
749.6427968141658
 30
0.0
 11
161.2794934481774
 21
757.8227365880517
 31
0.0
  0
LINE
  5
2A6A
330
286C
100
AcDbEntity
  8
3
 62
     7
370
    -2
100
AcDbLine
 10
79.27949344817739
 20
756.8227365880517
 30
0.0
 11
158.2794934481774
 21
756.8227365880517
 31
0.0
  0
INSERT
  5
2A6B
330
286C
100
AcDbEntity
  8
3
 62
     7
370
    -2
100
AcDbBlockReference
  2
_OPEN
 10
76.27949344817739
 20
756.8227365880517
 30
0.0
 41
3.0
 42
3.0
 43
3.0
 50
180.0
  0
INSERT
  5
2A6C
330
286C
100
AcDbEntity
  8
3
 62
     7
370
    -2
100
AcDbBlockReference
  2
_OPEN
 10
161.2794934481774
 20
756.8227365880517
 30
0.0
 41
3.0
 42
3.0
 43
3.0
  0
MTEXT
  5
2A6D
330
286C
100
AcDbEntity
  8
3
 62
     0
100
AcDbMText
 10
118.7794934481773
 20
758.8227365880517
 30
0.0
 40
3.0
 41
0.0
 71
     5
 72
     1
  1
\A1;85
 73
     1
 44
1.0
1001
ACAD
1000
MTEXTBEGIN
1070
    73
1070
     1
1070
    44
1040
1.0
1070
    74
1070
     0
1000
MTEXTEND
  0
POINT
  5
2A6E
330
286C
100
AcDbEntity
  8
DEFPOINTS
 62
     0
100
AcDbPoint
 10
76.27949344817739
 20
749.1427968141657
 30
0.0
  0
POINT
  5
2A6F
330
286C
100
AcDbEntity
  8
DEFPOINTS
 62
     0
100
AcDbPoint
 10
161.2794934481774
 20
749.1427968141657
 30
0.0
  0
POINT
  5
2A70
330
286C
100
AcDbEntity
  8
DEFPOINTS
 62
     0
100
AcDbPoint
 10
161.2794934481774
 20
756.8227365880517
 30
0.0
  0
ENDBLK
  5
2877
330
286C
100
AcDbEntity
  8
0
100
AcDbBlockEnd
  0
BLOCK
  5
2883
330
2879
100
AcDbEntity
  8
0
100
AcDbBlockBegin
  2
*D3
 70
     1
 10
0.0
 20
0.0
 30
0.0
  3
*D3
  1

  0
LINE
  5
2A71
330
2879
100
AcDbEntity
  8
3
 62
     7
370
    -2
100
AcDbLine
 10
75.77949344817739
 20
749.6427968141658
 30
0.0
 11
60.5364492428173
 21
749.6427968141658
 31
0.0
  0
LINE
  5
2A72
330
2879
100
AcDbEntity
  8
3
 62
     7
370
    -2
100
AcDbLine
 10
68.27949344817739
 20
714.642796814166
 30
0.0
 11
60.5364492428173
 21
714.642796814166
 31
0.0
  0
LINE
  5
2A73
330
2879
100
AcDbEntity
  8
3
 62
     7
370
    -2
100
AcDbLine
 10
61.53644924281731
 20
746.6427968141657
 30
0.0
 11
61.5364492428173
 21
717.6427968141657
 31
0.0
  0
INSERT
  5
2A74
330
2879
100
AcDbEntity
  8
3
 62
     7
370
    -2
100
AcDbBlockReference
  2
_OPEN
 10
61.53644924281731
 20
749.6427968141658
 30
0.0
 41
3.0
 42
3.0
 43
3.0
 50
90.0
  0
INSERT
  5
2A75
330
2879
100
AcDbEntity
  8
3
 62
     7
370
    -2
100
AcDbBlockReference
  2
_OPEN
 10
61.5364492428173
 20
714.642796814166
 30
0.0
 41
3.0
 42
3.0
 43
3.0
 50
270.0
  0
MTEXT
  5
2A76
330
2879
100
AcDbEntity
  8
3
 62
     0
100
AcDbMText
 10
59.53644924281718
 20
732.1427968141657
 30
0.0
 40
3.0
 41
0.0
 71
     5
 72
     1
  1
\A1;35
 11
0.0000000000000001
 21
1.0
 31
0.0
 73
     1
 44
1.0
1001
ACAD
1000
MTEXTBEGIN
1070
    73
1070
     1
1070
    44
1040
1.0
1070
    74
1070
     0
1000
MTEXTEND
  0
POINT
  5
2A77
330
2879
100
AcDbEntity
  8
DEFPOINTS
 62
     0
100
AcDbPoint
 10
76.27949344817739
 20
749.6427968141658
 30
0.0
  0
POINT
  5
2A78
330
2879
100
AcDbEntity
  8
DEFPOINTS
 62
     0
100
AcDbPoint
 10
68.77949344817739
 20
714.642796814166
 30
0.0
  0
POINT
  5
2A79
330
2879
100
AcDbEntity
  8
DEFPOINTS
 62
     0
100
AcDbPoint
 10
61.5364492428173
 20
714.642796814166
 30
0.0
  0
ENDBLK
  5
2884
330
2879
100
AcDbEntity
  8
0
100
AcDbBlockEnd
  0
BLOCK
  5
28AC
330
28A1
100
AcDbEntity
  8
0
100
AcDbBlockBegin
  2
*D4
 70
     1
 10
0.0
 20
0.0
 30
0.0
  3
*D4
  1

  0
LINE
  5
2A7A
330
28A1
100
AcDbEntity
  8
3
 62
     7
370
    -2
100
AcDbLine
 10
205.3398127127432
 20
715.6427968141657
 30
0.0
 11
205.3398127127432
 21
709.3081882429425
 31
0.0
  0
LINE
  5
2A7B
330
28A1
100
AcDbEntity
  8
3
 62
     7
370
    -2
100
AcDbLine
 10
211.8398127127432
 20
715.6427968141657
 30
0.0
 11
211.8398127127432
 21
709.3081882429425
 31
0.0
  0
LINE
  5
2A7C
330
28A1
100
AcDbEntity
  8
3
 62
     7
370
    -2
100
AcDbLine
 10
214.8398127127431
 20
710.3081882429425
 30
0.0
 11
217.8398127127432
 21
710.3081882429425
 31
0.0
  0
LINE
  5
2A7D
330
28A1
100
AcDbEntity
  8
3
 62
     7
370
    -2
100
AcDbLine
 10
202.3398127127431
 20
710.3081882429425
 30
0.0
 11
191.8559723612234
 21
710.3081882429425
 31
0.0
  0
INSERT
  5
2A7E
330
28A1
100
AcDbEntity
  8
3
 62
     7
370
    -2
100
AcDbBlockReference
  2
_OPEN
 10
211.8398127127432
 20
710.3081882429425
 30
0.0
 41
3.0
 42
3.0
 43
3.0
 50
180.0
  0
INSERT
  5
2A7F
330
28A1
100
AcDbEntity
  8
3
 62
     7
370
    -2
100
AcDbBlockReference
  2
_OPEN
 10
205.3398127127432
 20
710.3081882429425
 30
0.0
 41
3.0
 42
3.0
 43
3.0
  0
MTEXT
  5
2A80
330
28A1
100
AcDbEntity
  8
3
 62
     0
100
AcDbMText
 10
195.3559723612234
 20
712.3081882429421
 30
0.0
 40
3.0
 41
0.0
 71
     5
 72
     1
  1
\A1;6.5
 73
     1
 44
1.0
1001
ACAD
1000
MTEXTBEGIN
1070
    73
1070
     1
1070
    44
1040
1.0
1070
    74
1070
     0
1000
MTEXTEND
  0
POINT
  5
2A81
330
28A1
100
AcDbEntity
  8
DEFPOINTS
 62
     0
100
AcDbPoint
 10
205.3398127127432
 20
716.1427968141658
 30
0.0
  0
POINT
  5
2A82
330
28A1
100
AcDbEntity
  8
DEFPOINTS
 62
     0
100
AcDbPoint
 10
211.8398127127432
 20
716.1427968141658
 30
0.0
  0
POINT
  5
2A83
330
28A1
100
AcDbEntity
  8
DEFPOINTS
 62
     0
100
AcDbPoint
 10
211.8398127127432
 20
710.3081882429425
 30
0.0
  0
ENDBLK
  5
28AD
330
28A1
100
AcDbEntity
  8
0
100
AcDbBlockEnd
  0
BLOCK
  5
28CD
330
28C3
100
AcDbEntity
  8
0
100
AcDbBlockBegin
  2
*D5
 70
     1
 10
0.0
 20
0.0
 30
0.0
  3
*D5
  1

  0
LINE
  5
2A84
330
28C3
100
AcDbEntity
  8
3
 62
     7
370
    -2
100
AcDbLine
 10
211.8398127127432
 20
715.6427968141657
 30
0.0
 11
211.8398127127432
 21
709.3081882429425
 31
0.0
  0
LINE
  5
2A85
330
28C3
100
AcDbEntity
  8
3
 62
     7
370
    -2
100
AcDbLine
 10
246.8398127127432
 20
726.0177968141658
 30
0.0
 11
246.8398127127432
 21
709.3081882429425
 31
0.0
  0
LINE
  5
2A86
330
28C3
100
AcDbEntity
  8
3
 62
     7
370
    -2
100
AcDbLine
 10
214.8398127127431
 20
710.3081882429425
 30
0.0
 11
243.8398127127431
 21
710.3081882429425
 31
0.0
  0
INSERT
  5
2A87
330
28C3
100
AcDbEntity
  8
3
 62
     7
370
    -2
100
AcDbBlockReference
  2
_OPEN
 10
211.8398127127432
 20
710.3081882429425
 30
0.0
 41
3.0
 42
3.0
 43
3.0
 50
180.0
  0
INSERT
  5
2A88
330
28C3
100
AcDbEntity
  8
3
 62
     7
370
    -2
100
AcDbBlockReference
  2
_OPEN
 10
246.8398127127432
 20
710.3081882429425
 30
0.0
 41
3.0
 42
3.0
 43
3.0
  0
MTEXT
  5
2A89
330
28C3
100
AcDbEntity
  8
3
 62
     0
100
AcDbMText
 10
229.3398127127431
 20
712.3081882429421
 30
0.0
 40
3.0
 41
0.0
 71
     5
 72
     1
  1
\A1;35
 73
     1
 44
1.0
1001
ACAD
1000
MTEXTBEGIN
1070
    73
1070
     1
1070
    44
1040
1.0
1070
    74
1070
     0
1000
MTEXTEND
  0
POINT
  5
2A8A
330
28C3
100
AcDbEntity
  8
DEFPOINTS
 62
     0
100
AcDbPoint
 10
211.8398127127432
 20
716.1427968141658
 30
0.0
  0
POINT
  5
2A8B
330
28C3
100
AcDbEntity
  8
DEFPOINTS
 62
     0
100
AcDbPoint
 10
246.8398127127432
 20
726.5177968141657
 30
0.0
  0
POINT
  5
2A8C
330
28C3
100
AcDbEntity
  8
DEFPOINTS
 62
     0
100
AcDbPoint
 10
246.8398127127432
 20
710.3081882429425
 30
0.0
  0
ENDBLK
  5
28CE
330
28C3
100
AcDbEntity
  8
0
100
AcDbBlockEnd
  0
BLOCK
  5
28DA
330
28D0
100
AcDbEntity
  8
0
100
AcDbBlockBegin
  2
*D6
 70
     1
 10
0.0
 20
0.0
 30
0.0
  3
*D6
  1

  0
LINE
  5
2A8D
330
28D0
100
AcDbEntity
  8
3
 62
     7
370
    -2
100
AcDbLine
 10
246.8398127127429
 20
726.0177968141658
 30
0.0
 11
246.8398127127429
 21
709.3516021768522
 31
0.0
  0
LINE
  5
2A8E
330
28D0
100
AcDbEntity
  8
3
 62
     7
370
    -2
100
AcDbLine
 10
253.8398127127432
 20
726.6427968141657
 30
0.0
 11
253.8398127127432
 21
709.3516021768522
 31
0.0
  0
LINE
  5
2A8F
330
28D0
100
AcDbEntity
  8
3
 62
     7
370
    -2
100
AcDbLine
 10
249.8398127127429
 20
710.3516021768522
 30
0.0
 11
250.8398127127431
 21
710.3516021768522
 31
0.0
  0
LINE
  5
2A90
330
28D0
100
AcDbEntity
  8
3
 62
     7
370
    -2
100
AcDbLine
 10
253.8398127127432
 20
710.3516021768522
 30
0.0
 11
260.4088051550559
 21
710.3516021768522
 31
0.0
  0
INSERT
  5
2A91
330
28D0
100
AcDbEntity
  8
3
 62
     7
370
    -2
100
AcDbBlockReference
  2
_OPEN
 10
246.8398127127429
 20
710.3516021768522
 30
0.0
 41
3.0
 42
3.0
 43
3.0
 50
180.0
  0
INSERT
  5
2A92
330
28D0
100
AcDbEntity
  8
3
 62
     7
370
    -2
100
AcDbBlockReference
  2
_OPEN
 10
253.8398127127432
 20
710.3516021768522
 30
0.0
 41
3.0
 42
3.0
 43
3.0
  0
MTEXT
  5
2A93
330
28D0
100
AcDbEntity
  8
3
 62
     0
100
AcDbMText
 10
258.9088051550559
 20
712.3516021768522
 30
0.0
 40
3.0
 41
0.0
 71
     5
 72
     1
  1
\A1;7
 73
     1
 44
1.0
1001
ACAD
1000
MTEXTBEGIN
1070
    73
1070
     1
1070
    44
1040
1.0
1070
    74
1070
     0
1000
MTEXTEND
  0
POINT
  5
2A94
330
28D0
100
AcDbEntity
  8
DEFPOINTS
 62
     0
100
AcDbPoint
 10
246.8398127127429
 20
726.5177968141657
 30
0.0
  0
POINT
  5
2A95
330
28D0
100
AcDbEntity
  8
DEFPOINTS
 62
     0
100
AcDbPoint
 10
253.8398127127432
 20
727.1427968141657
 30
0.0
  0
POINT
  5
2A96
330
28D0
100
AcDbEntity
  8
DEFPOINTS
 62
     0
100
AcDbPoint
 10
253.8398127127432
 20
710.3516021768522
 30
0.0
  0
ENDBLK
  5
28DB
330
28D0
100
AcDbEntity
  8
0
100
AcDbBlockEnd
  0
BLOCK
  5
28FA
330
28F0
100
AcDbEntity
  8
0
100
AcDbBlockBegin
  2
*D7
 70
     1
 10
0.0
 20
0.0
 30
0.0
  3
*D7
  1

  0
LINE
  5
2A97
330
28F0
100
AcDbEntity
  8
3
 62
     7
370
    -2
100
AcDbLine
 10
205.3398127127432
 20
715.6427968141657
 30
0.0
 11
205.3398127127432
 21
703.2034104876467
 31
0.0
  0
LINE
  5
2A98
330
28F0
100
AcDbEntity
  8
3
 62
     7
370
    -2
100
AcDbLine
 10
253.8398127127432
 20
726.6427968141657
 30
0.0
 11
253.8398127127432
 21
703.2034104876467
 31
0.0
  0
LINE
  5
2A99
330
28F0
100
AcDbEntity
  8
3
 62
     7
370
    -2
100
AcDbLine
 10
208.3398127127431
 20
704.2034104876468
 30
0.0
 11
250.8398127127431
 21
704.2034104876468
 31
0.0
  0
INSERT
  5
2A9A
330
28F0
100
AcDbEntity
  8
3
 62
     7
370
    -2
100
AcDbBlockReference
  2
_OPEN
 10
205.3398127127432
 20
704.2034104876468
 30
0.0
 41
3.0
 42
3.0
 43
3.0
 50
180.0
  0
INSERT
  5
2A9B
330
28F0
100
AcDbEntity
  8
3
 62
     7
370
    -2
100
AcDbBlockReference
  2
_OPEN
 10
253.8398127127432
 20
704.2034104876468
 30
0.0
 41
3.0
 42
3.0
 43
3.0
  0
MTEXT
  5
2A9C
330
28F0
100
AcDbEntity
  8
3
 62
     0
100
AcDbMText
 10
229.5898127127431
 20
706.2034104876468
 30
0.0
 40
3.0
 41
0.0
 71
     5
 72
     1
  1
\A1;48.5
 73
     1
 44
1.0
1001
ACAD
1000
MTEXTBEGIN
1070
    73
1070
     1
1070
    44
1040
1.0
1070
    74
1070
     0
1000
MTEXTEND
  0
POINT
  5
2A9D
330
28F0
100
AcDbEntity
  8
DEFPOINTS
 62
     0
100
AcDbPoint
 10
205.3398127127432
 20
716.1427968141658
 30
0.0
  0
POINT
  5
2A9E
330
28F0
100
AcDbEntity
  8
DEFPOINTS
 62
     0
100
AcDbPoint
 10
253.8398127127432
 20
727.1427968141657
 30
0.0
  0
POINT
  5
2A9F
330
28F0
100
AcDbEntity
  8
DEFPOINTS
 62
     0
100
AcDbPoint
 10
253.8398127127432
 20
704.2034104876468
 30
0.0
  0
ENDBLK
  5
28FB
330
28F0
100
AcDbEntity
  8
0
100
AcDbBlockEnd
  0
BLOCK
  5
2907
330
28FD
100
AcDbEntity
  8
0
100
AcDbBlockBegin
  2
*D8
 70
     1
 10
0.0
 20
0.0
 30
0.0
  3
*D8
  1

  0
LINE
  5
2AA0
330
28FD
100
AcDbEntity
  8
3
 62
     7
370
    -2
100
AcDbLine
 10
254.3398127127431
 20
727.1427968141657
 30
0.0
 11
268.5806660420161
 21
727.1427968141656
 31
0.0
  0
LINE
  5
2AA1
330
28FD
100
AcDbEntity
  8
3
 62
     7
370
    -2
100
AcDbLine
 10
254.3398127127431
 20
737.1427968141658
 30
0.0
 11
268.5806660420161
 21
737.1427968141656
 31
0.0
  0
LINE
  5
2AA2
330
28FD
100
AcDbEntity
  8
3
 62
     7
370
    -2
100
AcDbLine
 10
267.580666042016
 20
730.1427968141656
 30
0.0
 11
267.580666042016
 21
734.1427968141656
 31
0.0
  0
INSERT
  5
2AA3
330
28FD
100
AcDbEntity
  8
3
 62
     7
370
    -2
100
AcDbBlockReference
  2
_OPEN
 10
267.580666042016
 20
727.1427968141656
 30
0.0
 41
3.0
 42
3.0
 43
3.0
 50
270.0
  0
INSERT
  5
2AA4
330
28FD
100
AcDbEntity
  8
3
 62
     7
370
    -2
100
AcDbBlockReference
  2
_OPEN
 10
267.580666042016
 20
737.1427968141656
 30
0.0
 41
3.0
 42
3.0
 43
3.0
 50
90.0
  0
MTEXT
  5
2AA5
330
28FD
100
AcDbEntity
  8
3
 62
     0
100
AcDbMText
 10
265.580666042016
 20
732.1427968141657
 30
0.0
 40
3.0
 41
0.0
 71
     5
 72
     1
  1
\A1;%%c10
 11
0.0000000000000001
 21
1.0
 31
0.0
 73
     1
 44
1.0
1001
ACAD
1000
MTEXTBEGIN
1070
    73
1070
     1
1070
    44
1040
1.0
1070
    74
1070
     0
1000
MTEXTEND
  0
POINT
  5
2AA6
330
28FD
100
AcDbEntity
  8
DEFPOINTS
 62
     0
100
AcDbPoint
 10
253.8398127127432
 20
727.1427968141657
 30
0.0
  0
POINT
  5
2AA7
330
28FD
100
AcDbEntity
  8
DEFPOINTS
 62
     0
100
AcDbPoint
 10
253.8398127127432
 20
737.1427968141658
 30
0.0
  0
POINT
  5
2AA8
330
28FD
100
AcDbEntity
  8
DEFPOINTS
 62
     0
100
AcDbPoint
 10
267.580666042016
 20
737.1427968141656
 30
0.0
  0
ENDBLK
  5
2908
330
28FD
100
AcDbEntity
  8
0
100
AcDbBlockEnd
  0
BLOCK
  5
2914
330
290A
100
AcDbEntity
  8
0
100
AcDbBlockBegin
  2
*D9
 70
     1
 10
0.0
 20
0.0
 30
0.0
  3
*D9
  1

  0
LINE
  5
2AA9
330
290A
100
AcDbEntity
  8
3
 62
     7
370
    -2
100
AcDbLine
 10
252.3398127127431
 20
724.8927968141657
 30
0.0
 11
274.6742997552261
 21
724.8927968141656
 31
0.0
  0
LINE
  5
2AAA
330
290A
100
AcDbEntity
  8
3
 62
     7
370
    -2
100
AcDbLine
 10
252.3398127127431
 20
739.3927968141658
 30
0.0
 11
274.6742997552261
 21
739.3927968141656
 31
0.0
  0
LINE
  5
2AAB
330
290A
100
AcDbEntity
  8
3
 62
     7
370
    -2
100
AcDbLine
 10
273.6742997552261
 20
727.8927968141656
 30
0.0
 11
273.6742997552261
 21
736.3927968141656
 31
0.0
  0
INSERT
  5
2AAC
330
290A
100
AcDbEntity
  8
3
 62
     7
370
    -2
100
AcDbBlockReference
  2
_OPEN
 10
273.6742997552261
 20
724.8927968141656
 30
0.0
 41
3.0
 42
3.0
 43
3.0
 50
270.0
  0
INSERT
  5
2AAD
330
290A
100
AcDbEntity
  8
3
 62
     7
370
    -2
100
AcDbBlockReference
  2
_OPEN
 10
273.6742997552261
 20
739.3927968141656
 30
0.0
 41
3.0
 42
3.0
 43
3.0
 50
90.0
  0
MTEXT
  5
2AAE
330
290A
100
AcDbEntity
  8
3
 62
     0
100
AcDbMText
 10
271.6742997552259
 20
732.1427968141657
 30
0.0
 40
3.0
 41
0.0
 71
     5
 72
     1
  1
\A1;%%c14.5
 11
0.0000000000000001
 21
1.0
 31
0.0
 73
     1
 44
1.0
1001
ACAD
1000
MTEXTBEGIN
1070
    73
1070
     1
1070
    44
1040
1.0
1070
    74
1070
     0
1000
MTEXTEND
  0
POINT
  5
2AAF
330
290A
100
AcDbEntity
  8
DEFPOINTS
 62
     0
100
AcDbPoint
 10
251.8398127127432
 20
724.8927968141657
 30
0.0
  0
POINT
  5
2AB0
330
290A
100
AcDbEntity
  8
DEFPOINTS
 62
     0
100
AcDbPoint
 10
251.8398127127432
 20
739.3927968141658
 30
0.0
  0
POINT
  5
2AB1
330
290A
100
AcDbEntity
  8
DEFPOINTS
 62
     0
100
AcDbPoint
 10
273.6742997552261
 20
739.3927968141656
 30
0.0
  0
ENDBLK
  5
2915
330
290A
100
AcDbEntity
  8
0
100
AcDbBlockEnd
  0
BLOCK
  5
2921
330
2917
100
AcDbEntity
  8
0
100
AcDbBlockBegin
  2
*D10
 70
     1
 10
0.0
 20
0.0
 30
0.0
  3
*D10
  1

  0
LINE
  5
2AB2
330
2917
100
AcDbEntity
  8
3
 62
     7
370
    -2
100
AcDbLine
 10
226.3398127127439
 20
724.6427968141658
 30
0.0
 11
241.6475720735934
 21
724.6427968141658
 31
0.0
  0
LINE
  5
2AB3
330
2917
100
AcDbEntity
  8
3
 62
     7
370
    -2
100
AcDbLine
 10
226.3398127127429
 20
739.642796814166
 30
0.0
 11
241.6475720735934
 21
739.642796814166
 31
0.0
  0
LINE
  5
2AB4
330
2917
100
AcDbEntity
  8
3
 62
     7
370
    -2
100
AcDbLine
 10
240.6475720735933
 20
727.6427968141657
 30
0.0
 11
240.6475720735933
 21
736.642796814166
 31
0.0
  0
INSERT
  5
2AB5
330
2917
100
AcDbEntity
  8
3
 62
     7
370
    -2
100
AcDbBlockReference
  2
_OPEN
 10
240.6475720735933
 20
724.6427968141658
 30
0.0
 41
3.0
 42
3.0
 43
3.0
 50
270.0
  0
INSERT
  5
2AB6
330
2917
100
AcDbEntity
  8
3
 62
     7
370
    -2
100
AcDbBlockReference
  2
_OPEN
 10
240.6475720735933
 20
739.642796814166
 30
0.0
 41
3.0
 42
3.0
 43
3.0
 50
90.0
  0
MTEXT
  5
2AB7
330
2917
100
AcDbEntity
  8
3
 62
     0
100
AcDbMText
 10
238.6475720735933
 20
731.3191169164106
 30
0.0
 40
3.0
 41
0.0
 71
     5
 72
     1
  1
\A1;%%c15
 11
0.0000000000000001
 21
1.0
 31
0.0
 73
     1
 44
1.0
1001
ACAD
1000
MTEXTBEGIN
1070
    73
1070
     1
1070
    44
1040
1.0
1070
    74
1070
     0
1000
MTEXTEND
  0
POINT
  5
2AB8
330
2917
100
AcDbEntity
  8
DEFPOINTS
 62
     0
100
AcDbPoint
 10
225.8398127127438
 20
724.6427968141658
 30
0.0
  0
POINT
  5
2AB9
330
2917
100
AcDbEntity
  8
DEFPOINTS
 62
     0
100
AcDbPoint
 10
225.839812712743
 20
739.642796814166
 30
0.0
  0
POINT
  5
2ABA
330
2917
100
AcDbEntity
  8
DEFPOINTS
 62
     0
100
AcDbPoint
 10
240.6475720735933
 20
739.642796814166
 30
0.0
  0
ENDBLK
  5
2922
330
2917
100
AcDbEntity
  8
0
100
AcDbBlockEnd
  0
BLOCK
  5
2958
330
2951
100
AcDbEntity
  8
0
100
AcDbBlockBegin
  2
*D11
 70
     1
 10
0.0
 20
0.0
 30
0.0
  3
*D11
  1

  0
LINE
  5
2A53
330
2951
100
AcDbEntity
  8
3
 62
     7
370
    -2
100
AcDbLine
 10
224.1579870449034
 20
748.8742877896388
 30
0.0
 11
219.6579870449034
 21
748.8742877896388
 31
0.0
  0
LINE
  5
2A54
330
2951
100
AcDbEntity
  8
3
 62
     7
370
    -2
100
AcDbLine
 10
219.6579870449034
 20
748.8742877896388
 30
0.0
 11
214.1156039085884
 21
742.1830425168386
 31
0.0
  0
MTEXT
  5
2A55
330
2951
100
AcDbEntity
  8
3
 62
     0
100
AcDbMText
 10
222.1579870449034
 20
750.8742877896388
 30
0.0
 40
3.0
 41
0.0
 71
     5
 72
     1
  1
\A1;R1
 73
     1
 44
1.0
1001
ACAD
1000
MTEXTBEGIN
1070
    73
1070
     1
1070
    44
1040
1.0
1070
    74
1070
     0
1000
MTEXTEND
  0
INSERT
  5
2A56
330
2951
100
AcDbEntity
  8
3
 62
     7
370
    -2
100
AcDbBlockReference
  2
_OPEN
 10
212.2019171148209
 20
739.8726739628287
 30
0.0
 41
3.0
 42
3.0
 43
3.0
 50
230.3649220770476
  0
POINT
  5
2A57
330
2951
100
AcDbEntity
  8
DEFPOINTS
 62
     0
100
AcDbPoint
 10
212.2019171148209
 20
739.8726739628287
 30
0.0
  0
POINT
  5
2A58
330
2951
100
AcDbEntity
  8
DEFPOINTS
 62
     0
100
AcDbPoint
 10
212.8398127127435
 20
740.6427968141656
 30
0.0
  0
ENDBLK
  5
2959
330
2951
100
AcDbEntity
  8
0
100
AcDbBlockEnd
  0
BLOCK
  5
2962
330
295B
100
AcDbEntity
  8
0
100
AcDbBlockBegin
  2
*D12
 70
     1
 10
0.0
 20
0.0
 30
0.0
  3
*D12
  1

  0
LINE
  5
2A59
330
295B
100
AcDbEntity
  8
3
 62
     7
370
    -2
100
AcDbLine
 10
47.39993780318963
 20
706.6196241066997
 30
0.0
 11
58.89993780319002
 21
706.6196241066997
 31
0.0
  0
LINE
  5
2A5A
330
295B
100
AcDbEntity
  8
3
 62
     7
370
    -2
100
AcDbLine
 10
58.89993780319002
 20
706.6196241066997
 30
0.0
 11
68.87641885321404
 21
714.9979505586247
 31
0.0
  0
MTEXT
  5
2A5B
330
295B
100
AcDbEntity
  8
3
 62
     0
100
AcDbMText
 10
52.89993780318957
 20
708.6196241066995
 30
0.0
 40
3.0
 41
0.0
 71
     5
 72
     1
  1
\A1;4-R5
 73
     1
 44
1.0
1001
ACAD
1000
MTEXTBEGIN
1070
    73
1070
     1
1070
    44
1040
1.0
1070
    74
1070
     0
1000
MTEXTEND
  0
INSERT
  5
2A5C
330
295B
100
AcDbEntity
  8
3
 62
     7
370
    -2
100
AcDbBlockReference
  2
_OPEN
 10
71.17375090998928
 20
716.9272679044528
 30
0.0
 41
3.0
 42
3.0
 43
3.0
 50
40.02380162918039
  0
POINT
  5
2A5D
330
295B
100
AcDbEntity
  8
DEFPOINTS
 62
     0
100
AcDbPoint
 10
71.17375090998928
 20
716.9272679044528
 30
0.0
  0
POINT
  5
2A5E
330
295B
100
AcDbEntity
  8
DEFPOINTS
 62
     0
100
AcDbPoint
 10
75.00263767128138
 20
720.1427968141662
 30
0.0
  0
ENDBLK
  5
2963
330
295B
100
AcDbEntity
  8
0
100
AcDbBlockEnd
  0
ENDSEC
  0
SECTION
  2
ENTITIES
  0
LINE
  5
23E4
102
{ACAD_REACTORS
330
285A
102
}
330
18
100
AcDbEntity
  8
1
  6
CENTER
 62
     7
100
AcDbLine
 10
69.52949344817739
 20
732.1427968141657
 30
0.0
 11
168.0294934481769
 21
732.1427968141657
 31
0.0
  0
LINE
  5
2409
330
18
100
AcDbEntity
  8
1
  6
CENTER
 62
     7
100
AcDbLine
 10
118.7794934481773
 20
608.3967952336297
 30
0.0
 11
118.7794934481773
 21
648.3967952336297
 31
0.0
  0
LINE
  5
240B
330
18
100
AcDbEntity
  8
1
  6
CENTER
 62
     7
100
AcDbLine
 10
168.0294934481769
 20
628.3967952336297
 30
0.0
 11
69.52949344817739
 21
628.3967952336297
 31
0.0
  0
LINE
  5
240C
102
{ACAD_REACTORS
330
285A
102
}
330
18
100
AcDbEntity
  8
2
100
AcDbLine
 10
80.29675531834023
 20
749.1427968141657
 30
0.0
 11
157.2622315780145
 21
749.1427968141657
 31
0.0
  0
LINE
  5
240D
102
{ACAD_REACTORS
330
285A
102
}
330
18
100
AcDbEntity
  8
2
100
AcDbLine
 10
75.0026376712814
 20
715.142796814166
 30
0.0
 11
162.5563492250733
 21
715.1427968141661
 31
0.0
  0
LINE
  5
2412
330
18
100
AcDbEntity
  8
2
100
AcDbLine
 10
70.12001880396176
 20
721.2198450937218
 30
0.0
 11
75.41413645102057
 21
745.2198450937218
 31
0.0
  0
LINE
  5
2413
102
{ACAD_REACTORS
330
285A
102
}
330
18
100
AcDbEntity
  8
2
100
AcDbLine
 10
162.1448504453342
 20
745.2198450937213
 30
0.0
 11
167.438968092393
 21
721.2198450937219
 31
0.0
  0
LINE
  5
2414
330
18
100
AcDbEntity
  8
2
100
AcDbLine
 10
211.8398127127432
 20
748.1427968141657
 30
0.0
 11
211.8398127127432
 21
716.1427968141658
 31
0.0
  0
LINE
  5
2415
330
18
100
AcDbEntity
  8
2
100
AcDbLine
 10
205.3398127127432
 20
747.6427968141656
 30
0.0
 11
205.3398127127432
 21
716.6427968141658
 31
0.0
  0
LINE
  5
2416
330
18
100
AcDbEntity
  8
2
100
AcDbLine
 10
246.8398127127432
 20
726.5177968141657
 30
0.0
 11
246.8398127127432
 21
737.767796814166
 31
0.0
  0
LINE
  5
2417
330
18
100
AcDbEntity
  8
2
100
AcDbLine
 10
253.8398127127432
 20
727.1427968141657
 30
0.0
 11
253.8398127127432
 21
737.1427968141658
 31
0.0
  0
LINE
  5
2418
330
18
100
AcDbEntity
  8
2
100
AcDbLine
 10
75.00263767128145
 20
645.3967952336297
 30
0.0
 11
162.5563492250733
 21
645.3967952336297
 31
0.0
  0
LINE
  5
2419
330
18
100
AcDbEntity
  8
2
100
AcDbLine
 10
80.29675531834026
 20
611.3967952336297
 30
0.0
 11
157.2622315780145
 21
611.3967952336297
 31
0.0
  0
LINE
  5
241B
330
18
100
AcDbEntity
  8
2
100
AcDbLine
 10
75.4141364510206
 20
615.3197469540737
 30
0.0
 11
70.1200188039618
 21
639.3197469540737
 31
0.0
  0
LINE
  5
241C
330
18
100
AcDbEntity
  8
2
100
AcDbLine
 10
162.1448504453342
 20
615.3197469540737
 30
0.0
 11
167.438968092393
 21
639.3197469540737
 31
0.0
  0
LINE
  5
2589
330
18
100
AcDbEntity
  8
3
  6
Continuous
100
AcDbLine
 10
252.2688087115033
 20
675.4474009825368
 30
0.0
 11
305.4421226215458
 21
675.4474009825368
 31
0.0
  0
LINE
  5
258A
330
18
100
AcDbEntity
  8
3
  6
Continuous
100
AcDbLine
 10
252.2688087115033
 20
682.9474009825368
 30
0.0
 11
305.4421226215458
 21
682.9474009825368
 31
0.0
  0
MTEXT
  5
258B
330
18
100
AcDbEntity
  8
3
100
AcDbMText
 10
232.7898509955288
 20
629.7416779966543
 30
0.0
 40
4.0
 41
24.70370998943689
 71
     1
 72
     5
  1
セーフアイ
 73
     1
 44
1.0
1001
ACAD
1000
MTEXTBEGIN
1070
    73
1070
     1
1070
    44
1040
1.0
1070
    74
1070
     0
1000
MTEXTEND
  0
LINE
  5
258C
330
18
100
AcDbEntity
  8
3
100
AcDbLine
 10
216.521155295275
 20
611.6264865694155
 30
0.0
 11
256.5211552952752
 21
611.6264865694155
 31
0.0
  0
MTEXT
  5
258D
330
18
100
AcDbEntity
  8
3
100
AcDbMText
 10
252.4160831927876
 20
686.6206697913321
 30
0.0
 40
3.0
 41
58.7674
 71
     1
 72
     5
  1
駐）1.　１　ＰＣ\P　　  　２　ＰＣ　　　　　\P\P　　　  　一般公差　%%P\P　　　　  表面アラサ　
 73
     1
 44
1.5
1001
ACAD
1000
MTEXTBEGIN
1070
    73
1070
     1
1070
    44
1040
1.5
1070
    74
1070
     0
1000
MTEXTEND
  0
LINE
  5
258E
330
18
100
AcDbEntity
  8
3
100
AcDbLine
 10
216.521155295275
 20
635.6264865694155
 30
0.0
 11
316.5211552952752
 21
635.6264865694155
 31
0.0
  0
LINE
  5
258F
330
18
100
AcDbEntity
  8
3
100
AcDbLine
 10
216.521155295275
 20
619.6264865694155
 30
0.0
 11
316.5211552952752
 21
619.6264865694155
 31
0.0
  0
LINE
  5
2590
330
18
100
AcDbEntity
  8
3
100
AcDbLine
 10
216.521155295275
 20
603.6264865694152
 30
0.0
 11
316.5211552952752
 21
603.6264865694152
 31
0.0
  0
LINE
  5
25F9
330
18
100
AcDbEntity
  8
3
100
AcDbLine
 10
216.521155295275
 20
635.6264865694155
 30
0.0
 11
216.521155295275
 21
603.6264865694152
 31
0.0
  0
LINE
  5
25FA
330
18
100
AcDbEntity
  8
3
100
AcDbLine
 10
221.521155295275
 20
635.6264865694155
 30
0.0
 11
221.521155295275
 21
603.6264865694152
 31
0.0
  0
MTEXT
  5
25FB
330
18
100
AcDbEntity
  8
3
100
AcDbMText
 10
217.4339885655804
 20
611.2402603324969
 30
0.0
 40
2.799999999999998
 41
3.9807
 71
     1
 72
     5
  1
尺度
 73
     1
 44
1.0
1001
ACAD
1000
MTEXTBEGIN
1070
    73
1070
     1
1070
    44
1040
1.0
1070
    74
1070
     0
1000
MTEXTEND
  0
MTEXT
  5
25FC
330
18
100
AcDbEntity
  8
3
100
AcDbMText
 10
217.4339885655804
 20
619.6512334596392
 30
0.0
 40
2.799999999999998
 41
3.9807
 71
     1
 72
     5
  1
材料
 73
     1
 44
1.0
1001
ACAD
1000
MTEXTBEGIN
1070
    73
1070
     1
1070
    44
1040
1.0
1070
    74
1070
     0
1000
MTEXTEND
  0
MTEXT
  5
25FD
330
18
100
AcDbEntity
  8
3
100
AcDbMText
 10
217.311794130089
 20
633.9745163122367
 30
0.0
 40
2.799999999999998
 41
4.0944
 71
     1
 72
     5
  1
部品図
 73
     1
 44
1.0
1001
ACAD
1000
MTEXTBEGIN
1070
    73
1070
     1
1070
    44
1040
1.0
1070
    74
1070
     0
1000
MTEXTEND
  0
MTEXT
  5
25FE
330
18
100
AcDbEntity
  8
3
100
AcDbMText
 10
237.2616485144329
 20
611.2402603324969
 30
0.0
 40
2.799999999999998
 41
3.9807
 71
     1
 72
     5
  1
単位
 73
     1
 44
1.0
1001
ACAD
1000
MTEXTBEGIN
1070
    73
1070
     1
1070
    44
1040
1.0
1070
    74
1070
     0
1000
MTEXTEND
  0
MTEXT
  5
25FF
330
18
100
AcDbEntity
  8
3
100
AcDbMText
 10
237.2616485144329
 20
619.6512334596392
 30
0.0
 40
2.799999999999998
 41
3.9807
 71
     1
 72
     5
  1
個数
 73
     1
 44
1.0
1001
ACAD
1000
MTEXTBEGIN
1070
    73
1070
     1
1070
    44
1040
1.0
1070
    74
1070
     0
1000
MTEXTEND
  0
LINE
  5
2600
330
18
100
AcDbEntity
  8
3
100
AcDbLine
 10
236.521155295275
 20
619.6264865694155
 30
0.0
 11
236.521155295275
 21
603.6264865694152
 31
0.0
  0
MTEXT
  5
2601
330
18
100
AcDbEntity
  8
3
100
AcDbMText
 10
225.7817388219533
 20
609.2889114314751
 30
0.0
 40
3.0
 41
8.030624239295669
 71
     1
 72
     5
  1
1/1
 73
     1
 44
1.0
1001
ACAD
1000
MTEXTBEGIN
1070
    73
1070
     1
1070
    44
1040
1.0
1070
    74
1070
     0
1000
MTEXTEND
  0
LINE
  5
2602
330
18
100
AcDbEntity
  8
3
100
AcDbLine
 10
241.521155295275
 20
619.6264865694155
 30
0.0
 11
241.521155295275
 21
603.6264865694152
 31
0.0
  0
MTEXT
  5
2603
330
18
100
AcDbEntity
  8
3
100
AcDbMText
 10
245.249917793492
 20
609.2889114314751
 30
0.0
 40
3.0
 41
8.030599999999997
 71
     1
 72
     5
  1
m/m
 73
     1
 44
1.0
1001
ACAD
1000
MTEXTBEGIN
1070
    73
1070
     1
1070
    44
1040
1.0
1070
    74
1070
     0
1000
MTEXTEND
  0
MTEXT
  5
2644
330
18
100
AcDbEntity
  8
3
100
AcDbMText
 10
285.6809446961845
 20
629.2925575657963
 30
0.0
 40
4.0
 41
10.42599999999999
 71
     1
 72
     5
  1
ＣＢ
 73
     1
 44
1.0
1001
ACAD
1000
MTEXTBEGIN
1070
    73
1070
     1
1070
    44
1040
1.0
1070
    74
1070
     0
1000
MTEXTEND
  0
LINE
  5
2645
330
18
100
AcDbEntity
  8
3
100
AcDbLine
 10
266.5211552952752
 20
635.6264865694155
 30
0.0
 11
266.5211552952752
 21
603.6264865694152
 31
0.0
  0
LINE
  5
2646
330
18
100
AcDbEntity
  8
3
100
AcDbLine
 10
271.5211552952752
 20
635.6264865694155
 30
0.0
 11
271.5211552952752
 21
603.6264865694152
 31
0.0
  0
MTEXT
  5
2648
330
18
100
AcDbEntity
  8
3
100
AcDbMText
 10
267.19191095562
 20
617.6969696472858
 30
0.0
 40
2.799999999999998
 41
4.0944
 71
     1
 72
     5
  1
品　　名
 73
     1
 44
1.0
1001
ACAD
1000
MTEXTBEGIN
1070
    73
1070
     1
1070
    44
1040
1.0
1070
    74
1070
     0
1000
MTEXTEND
  0
MTEXT
  5
2649
330
18
100
AcDbEntity
  8
3
100
AcDbMText
 10
260.2160802316118
 20
611.1129500545684
 30
0.0
 40
3.0
 41
6.3272
 71
     1
 72
     5
  1
/
 73
     1
 44
1.0
1001
ACAD
1000
MTEXTBEGIN
1070
    73
1070
     1
1070
    44
1040
1.0
1070
    74
1070
     0
1000
MTEXTEND
  0
LINE
  5
264A
330
18
100
AcDbEntity
  8
3
100
AcDbLine
 10
256.5211552952752
 20
619.6264865694155
 30
0.0
 11
256.5211552952752
 21
603.6264865694152
 31
0.0
  0
MTEXT
  5
264B
330
18
100
AcDbEntity
  8
3
100
AcDbMText
 10
257.6818349187917
 20
618.9850424442262
 30
0.0
 40
2.799999999999998
 41
9.237
 71
     1
 72
     5
  1
部番
 73
     1
 44
1.0
1001
ACAD
1000
MTEXTBEGIN
1070
    73
1070
     1
1070
    44
1040
1.0
1070
    74
1070
     0
1000
MTEXTEND
  0
LINE
  5
264C
330
18
100
AcDbEntity
  8
3
100
AcDbLine
 10
256.5211552952752
 20
615.6264865694155
 30
0.0
 11
266.5211552952752
 21
615.6264865694155
 31
0.0
  0
MTEXT
  5
264E
330
18
100
AcDbEntity
  8
3
100
AcDbMText
 10
267.0464883049993
 20
633.6838460246707
 30
0.0
 40
2.799999999999998
 41
4.0944
 71
     1
 72
     5
  1
図　　番
 73
     1
 44
1.0
1001
ACAD
1000
MTEXTBEGIN
1070
    73
1070
     1
1070
    44
1040
1.0
1070
    74
1070
     0
1000
MTEXTEND
  0
LINE
  5
264F
330
18
100
AcDbEntity
  8
3
100
AcDbLine
 10
316.5211552952752
 20
635.6264865694155
 30
0.0
 11
316.5211552952752
 21
603.6264865694152
 31
0.0
  0
LINE
  5
2652
330
18
100
AcDbEntity
  8
3
  6
Continuous
100
AcDbLine
 10
268.1649374127193
 20
652.9474009825364
 30
0.0
 11
303.283820180149
 21
652.9474009825364
 31
0.0
  0
LINE
  5
2653
330
18
100
AcDbEntity
  8
3
  6
Continuous
100
AcDbLine
 10
268.1649374127193
 20
660.4474009825366
 30
0.0
 11
303.283820180149
 21
660.4474009825366
 31
0.0
  0
CIRCLE
  5
2654
330
18
100
AcDbEntity
  8
3
 62
     7
100
AcDbCircle
 10
268.0303879937509
 20
677.4301503328275
 30
0.0
 40
2.0
  0
CIRCLE
  5
2655
330
18
100
AcDbEntity
  8
3
 62
     7
100
AcDbCircle
 10
267.9626625002839
 20
685.0115683277577
 30
0.0
 40
2.0
  0
LINE
  5
2763
330
18
100
AcDbEntity
  8
2
100
AcDbLine
 10
206.839812712743
 20
749.1427968141656
 30
0.0
 11
210.8398127127431
 21
749.1427968141657
 31
0.0
  0
LINE
  5
2764
330
18
100
AcDbEntity
  8
2
100
AcDbLine
 10
206.839812712743
 20
715.1427968141657
 30
0.0
 11
210.8398127127431
 21
715.1427968141657
 31
0.0
  0
LINE
  5
2765
330
18
100
AcDbEntity
  8
1
  6
CENTER
 62
     7
100
AcDbLine
 10
202.3398127127431
 20
732.1427968141657
 30
0.0
 11
256.8398127127429
 21
732.1427968141657
 31
0.0
  0
LINE
  5
2766
102
{ACAD_REACTORS
330
285A
102
}
330
18
100
AcDbEntity
  8
1
  6
CENTER
 62
     7
100
AcDbLine
 10
118.7794934481773
 20
712.1427968141658
 30
0.0
 11
118.7794934481773
 21
752.1427968141657
 31
0.0
  0
LINE
  5
282B
330
18
100
AcDbEntity
  8
2
100
AcDbLine
 10
212.8398127127431
 20
739.6427968141657
 30
0.0
 11
225.839812712743
 21
739.642796814166
 31
0.0
  0
LINE
  5
282C
330
18
100
AcDbEntity
  8
2
100
AcDbLine
 10
212.8398127127431
 20
724.6427968141658
 30
0.0
 11
225.8398127127438
 21
724.6427968141658
 31
0.0
  0
LINE
  5
282F
330
18
100
AcDbEntity
  8
2
100
AcDbLine
 10
248.8398127127434
 20
739.3927968141658
 30
0.0
 11
251.8398127127432
 21
739.3927968141658
 31
0.0
  0
LINE
  5
2830
330
18
100
AcDbEntity
  8
2
100
AcDbLine
 10
248.8398127127433
 20
724.892796814166
 30
0.0
 11
251.8398127127432
 21
724.892796814166
 31
0.0
  0
LINE
  5
2833
330
18
100
AcDbEntity
  8
2
100
AcDbLine
 10
225.839812712743
 20
739.642796814166
 30
0.0
 11
246.8398127127432
 21
737.7677968141657
 31
0.0
  0
LINE
  5
2834
330
18
100
AcDbEntity
  8
2
100
AcDbLine
 10
225.8398127127438
 20
724.6427968141658
 30
0.0
 11
246.8398127127432
 21
726.5177968141657
 31
0.0
  0
LINE
  5
2835
330
18
100
AcDbEntity
  8
2
100
AcDbLine
 10
248.8398127127431
 20
724.8927968141657
 30
0.0
 11
248.8398127127431
 21
739.3927968141658
 31
0.0
  0
LINE
  5
2836
330
18
100
AcDbEntity
  8
2
100
AcDbLine
 10
251.8398127127432
 20
724.8927968141657
 30
0.0
 11
251.8398127127432
 21
739.3927968141658
 31
0.0
  0
LINE
  5
2837
330
18
100
AcDbEntity
  8
2
100
AcDbLine
 10
246.8398127127432
 20
737.767796814166
 30
0.0
 11
248.8398127127434
 21
739.3927968141658
 31
0.0
  0
LINE
  5
2838
330
18
100
AcDbEntity
  8
2
100
AcDbLine
 10
253.8398127127432
 20
737.1427968141658
 30
0.0
 11
251.8398127127432
 21
739.3927968141658
 31
0.0
  0
LINE
  5
2839
330
18
100
AcDbEntity
  8
2
100
AcDbLine
 10
246.8398127127432
 20
726.5177968141657
 30
0.0
 11
248.8398127127433
 21
724.892796814166
 31
0.0
  0
LINE
  5
283A
330
18
100
AcDbEntity
  8
2
100
AcDbLine
 10
251.8398127127432
 20
724.892796814166
 30
0.0
 11
253.8398127127432
 21
727.1427968141657
 31
0.0
  0
CIRCLE
  5
283B
330
18
100
AcDbEntity
  8
2
100
AcDbCircle
 10
118.7794934481773
 20
628.3967952336297
 30
0.0
 40
5.0
  0
CIRCLE
  5
283C
330
18
100
AcDbEntity
  8
2
100
AcDbCircle
 10
118.7794934481773
 20
628.3967952336297
 30
0.0
 40
7.5
  0
CIRCLE
  5
283D
330
18
100
AcDbEntity
  8
2
100
AcDbCircle
 10
118.7794934481773
 20
628.3967952336297
 30
0.0
 40
7.25
  0
ARC
  5
283F
330
18
100
AcDbEntity
  8
2
100
AcDbCircle
 10
75.0026376712814
 20
720.1427968141658
 30
0.0
 40
5.0
100
AcDbArc
 50
167.5604379811534
 51
270.0
  0
ARC
  5
2840
330
18
100
AcDbEntity
  8
2
100
AcDbCircle
 10
80.29675531834023
 20
744.1427968141657
 30
0.0
 40
5.0
100
AcDbArc
 50
89.99999999999992
 51
167.5604379811534
  0
ARC
  5
2841
102
{ACAD_REACTORS
330
285A
102
}
330
18
100
AcDbEntity
  8
2
100
AcDbCircle
 10
157.2622315780145
 20
744.1427968141657
 30
0.0
 40
5.0
100
AcDbArc
 50
12.43956201884651
 51
89.99999999999992
  0
ARC
  5
2842
102
{ACAD_REACTORS
330
285A
102
}
330
18
100
AcDbEntity
  8
2
100
AcDbCircle
 10
162.5563492250733
 20
720.1427968141658
 30
0.0
 40
5.0
100
AcDbArc
 50
269.9999999999998
 51
12.4395620188465
  0
ARC
  5
2843
330
18
100
AcDbEntity
  8
2
100
AcDbCircle
 10
75.00263767128145
 20
640.3967952336297
 30
0.0
 40
5.0
100
AcDbArc
 50
90.0
 51
192.4395620188465
  0
ARC
  5
2844
330
18
100
AcDbEntity
  8
2
100
AcDbCircle
 10
80.29675531834026
 20
616.3967952336297
 30
0.0
 40
5.0
100
AcDbArc
 50
192.4395620188465
 51
270.0
  0
ARC
  5
2845
330
18
100
AcDbEntity
  8
2
100
AcDbCircle
 10
157.2622315780145
 20
616.3967952336297
 30
0.0
 40
5.0
100
AcDbArc
 50
270.0
 51
347.5604379811534
  0
ARC
  5
2846
330
18
100
AcDbEntity
  8
2
100
AcDbCircle
 10
162.5563492250733
 20
640.3967952336297
 30
0.0
 40
5.0
100
AcDbArc
 50
347.5604379811534
 51
90.0
  0
ARC
  5
2848
330
18
100
AcDbEntity
  8
2
100
AcDbCircle
 10
212.8398127127431
 20
740.6427968141657
 30
0.0
 40
1.0
100
AcDbArc
 50
180.0
 51
270.0
  0
ARC
  5
2849
330
18
100
AcDbEntity
  8
2
100
AcDbCircle
 10
212.8398127127431
 20
723.6427968141657
 30
0.0
 40
1.0
100
AcDbArc
 50
90.0
 51
180.0
  0
ARC
  5
284B
330
18
100
AcDbEntity
  8
2
100
AcDbCircle
 10
210.8398127127431
 20
716.1427968141658
 30
0.0
 40
1.0
100
AcDbArc
 50
270.0
 51
0.0
  0
ARC
  5
284C
330
18
100
AcDbEntity
  8
2
100
AcDbCircle
 10
210.8398127127431
 20
748.1427968141657
 30
0.0
 40
1.0
100
AcDbArc
 50
0.0
 51
90.0
  0
HATCH
  5
285A
330
18
100
AcDbEntity
  8
2
100
AcDbHatch
 10
0.0
 20
0.0
 30
0.0
210
0.0
220
0.0
230
1.0
  2
ANSI37
 70
     0
 71
     1
 91
        2
 92
        7
 72
     1
 73
     1
 93
        5
 10
165.0294934481774
 20
732.1427968141656
 42
0.0
 10
118.7794934481773
 20
732.1427968141657
 42
0.0
 10
118.7794934481773
 20
715.1427968141661
 42
0.0
 10
162.5563492250733
 20
715.1427968141661
 42
0.4793319871671501
 10
167.438968092393
 20
721.2198450937219
 42
0.0
 97
        5
330
23E4
330
2766
330
240D
330
2842
330
2413
 92
        7
 72
     1
 73
     1
 93
        5
 10
162.1448504453342
 20
745.2198450937213
 42
0.3519615727568389
 10
157.2622315780145
 20
749.1427968141657
 42
0.0
 10
118.7794934481773
 20
749.1427968141657
 42
0.0
 10
118.7794934481773
 20
732.1427968141657
 42
0.0
 10
165.0294934481774
 20
732.1427968141656
 42
0.0
 97
        5
330
2841
330
240C
330
2766
330
23E4
330
2413
 75
     0
 76
     1
 52
0.0
 41
1.0
 77
     0
 78
     2
 53
45.0
 43
0.0
 44
0.0
 45
-2.245064030267287
 46
2.245064030267287
 79
     0
 53
135.0
 43
0.0
 44
0.0
 45
-2.245064030267287
 46
-2.245064030267287
 79
     0
 47
0.201329503941124
 98
        2
 10
147.5640990870004
 20
725.3534785853832
 10
143.1338522426599
 20
738.0372370296303
  0
DIMENSION
  5
285E
330
18
100
AcDbEntity
  8
3
100
AcDbDimension
  2
*D1
 10
168.7794934481773
 20
706.4812423114544
 30
0.0
 11
118.7794934481773
 21
708.4812423114543
 31
0.0
 70
    32
 71
     5
 42
99.99999999999992
  3
STD01
100
AcDbAlignedDimension
 13
68.77949344817739
 23
715.142796814166
 33
0.0
 14
168.7794934481773
 24
715.1427968141661
 34
0.0
100
AcDbRotatedDimension
  0
DIMENSION
  5
286B
330
18
100
AcDbEntity
  8
3
100
AcDbDimension
  2
*D2
 10
161.2794934481774
 20
756.8227365880517
 30
0.0
 11
118.7794934481773
 21
758.8227365880517
 31
0.0
 70
    32
 71
     5
 42
85.00000000000003
  3
STD01
100
AcDbAlignedDimension
 13
76.27949344817739
 23
749.1427968141657
 33
0.0
 14
161.2794934481774
 24
749.1427968141657
 34
0.0
100
AcDbRotatedDimension
  0
DIMENSION
  5
2878
330
18
100
AcDbEntity
  8
3
100
AcDbDimension
  2
*D3
 10
61.5364492428173
 20
714.642796814166
 30
0.0
 11
59.53644924281718
 21
732.1427968141657
 31
0.0
 70
    32
 71
     5
 42
34.99999999999977
  3
STD01
100
AcDbAlignedDimension
 13
76.27949344817739
 23
749.6427968141658
 33
0.0
 14
68.77949344817739
 24
714.642796814166
 34
0.0
 50
90.0
100
AcDbRotatedDimension
  0
DIMENSION
  5
28A0
330
18
100
AcDbEntity
  8
3
100
AcDbDimension
  2
*D4
 10
211.8398127127432
 20
710.3081882429425
 30
0.0
 11
195.3559723612234
 21
710.3081882429425
 31
0.0
 70
   160
 71
     5
 42
6.5
  3
STD01
100
AcDbAlignedDimension
 13
205.3398127127432
 23
716.1427968141658
 33
0.0
 14
211.8398127127432
 24
716.1427968141658
 34
0.0
100
AcDbRotatedDimension
  0
DIMENSION
  5
28C2
330
18
100
AcDbEntity
  8
3
100
AcDbDimension
  2
*D5
 10
246.8398127127432
 20
710.3081882429425
 30
0.0
 11
229.3398127127431
 21
712.3081882429421
 31
0.0
 70
    32
 71
     5
 42
35.0
  3
STD01
100
AcDbAlignedDimension
 13
211.8398127127432
 23
716.1427968141658
 33
0.0
 14
246.8398127127432
 24
726.5177968141657
 34
0.0
100
AcDbRotatedDimension
  0
DIMENSION
  5
28CF
330
18
100
AcDbEntity
  8
3
100
AcDbDimension
  2
*D6
 10
253.8398127127432
 20
710.3516021768522
 30
0.0
 11
258.9088051550559
 21
710.3516021768522
 31
0.0
 70
   160
 71
     5
 42
7.000000000000282
  3
STD01
100
AcDbAlignedDimension
 13
246.8398127127429
 23
726.5177968141657
 33
0.0
 14
253.8398127127432
 24
727.1427968141657
 34
0.0
100
AcDbRotatedDimension
  0
DIMENSION
  5
28EF
330
18
100
AcDbEntity
  8
3
100
AcDbDimension
  2
*D7
 10
253.8398127127432
 20
704.2034104876468
 30
0.0
 11
229.5898127127431
 21
706.2034104876468
 31
0.0
 70
    32
 71
     5
 42
48.5
  3
STD01
100
AcDbAlignedDimension
 13
205.3398127127432
 23
716.1427968141658
 33
0.0
 14
253.8398127127432
 24
727.1427968141657
 34
0.0
100
AcDbRotatedDimension
  0
DIMENSION
  5
28FC
330
18
100
AcDbEntity
  8
3
100
AcDbDimension
  2
*D8
 10
267.580666042016
 20
737.1427968141656
 30
0.0
 11
265.580666042016
 21
732.1427968141657
 31
0.0
 70
    32
 71
     5
 42
10.0
  3
STD01
100
AcDbAlignedDimension
 13
253.8398127127432
 23
727.1427968141657
 33
0.0
 14
253.8398127127432
 24
737.1427968141658
 34
0.0
 50
90.0
100
AcDbRotatedDimension
1001
ACAD
1000
DSTYLE
1002
{
1070
     3
1000
%%c<>
1002
}
  0
DIMENSION
  5
2909
330
18
100
AcDbEntity
  8
3
100
AcDbDimension
  2
*D9
 10
273.6742997552261
 20
739.3927968141656
 30
0.0
 11
271.6742997552259
 21
732.1427968141657
 31
0.0
 70
    32
 71
     5
 42
14.5
  3
STD01
100
AcDbAlignedDimension
 13
251.8398127127432
 23
724.8927968141657
 33
0.0
 14
251.8398127127432
 24
739.3927968141658
 34
0.0
 50
90.0
100
AcDbRotatedDimension
1001
ACAD
1000
DSTYLE
1002
{
1070
     3
1000
%%c<>
1002
}
  0
DIMENSION
  5
2916
330
18
100
AcDbEntity
  8
3
100
AcDbDimension
  2
*D10
 10
240.6475720735933
 20
739.642796814166
 30
0.0
 11
240.6475720735933
 21
731.3191169164106
 31
0.0
 70
   160
 71
     5
 42
15.00000000000022
  3
STD01
100
AcDbAlignedDimension
 13
225.8398127127438
 23
724.6427968141658
 33
0.0
 14
225.839812712743
 24
739.642796814166
 34
0.0
 50
90.0
100
AcDbRotatedDimension
1001
ACAD
1000
DSTYLE
1002
{
1070
     3
1000
%%c<>
1002
}
  0
DIMENSION
  5
2950
330
18
100
AcDbEntity
  8
3
100
AcDbDimension
  2
*D11
 10
212.8398127127435
 20
740.6427968141656
 30
0.0
 11
219.6579870449034
 21
748.8742877896388
 31
0.0
 70
   164
 71
     5
 42
1.000000000000227
  3
STD01$4
100
AcDbRadialDimension
 15
212.2019171148209
 25
739.8726739628287
 35
0.0
 40
0.0
1001
ACAD
1000
DSTYLE
1002
{
1070
   279
1070
     1
1070
   288
1070
     1
1002
}
  0
DIMENSION
  5
295A
330
18
100
AcDbEntity
  8
3
100
AcDbDimension
  2
*D12
 10
75.00263767128138
 20
720.1427968141662
 30
0.0
 11
52.89993780318957
 21
706.6196241066997
 31
0.0
 70
   164
 71
     5
 42
5.000000000000113
  3
STD01$4
100
AcDbRadialDimension
 15
71.17375090998928
 25
716.9272679044528
 35
0.0
 40
0.0
1001
ACAD
1000
DSTYLE
1002
{
1070
     3
1000
4-R<>
1070
   288
1070
     1
1002
}
  0
LEADER
  5
29E8
330
18
100
AcDbEntity
  8
3
100
AcDbLeader
  3
STD01
 76
     2
 10
156.5384182351786
 20
738.397858166575
 30
0.0
 10
178.0781064007075
 20
754.8741787580479
 30
0.0
1001
ACAD
1000
DSTYLE
1002
{
1070
   147
1040
0.5
1070
    77
1070
     1
1002
}
  0
LEADER
  5
29E9
330
18
100
AcDbEntity
  8
3
100
AcDbLeader
  3
STD01
 76
     2
 10
209.4133111031303
 20
745.5343622941652
 30
0.0
 10
216.84080748076
 20
760.2681407758017
 30
0.0
1001
ACAD
1000
DSTYLE
1002
{
1070
   147
1040
0.5
1070
    77
1070
     1
1002
}
  0
CIRCLE
  5
29EA
330
18
100
AcDbEntity
  8
3
 62
     7
100
AcDbCircle
 10
179.6666514363126
 20
756.089302072718
 30
0.0
 40
2.0
  0
CIRCLE
  5
29EB
330
18
100
AcDbEntity
  8
3
 62
     7
100
AcDbCircle
 10
217.7411068795505
 20
762.0540469862552
 30
0.0
 40
2.0
  0
MTEXT
  5
29EC
330
18
100
AcDbEntity
  8
3
100
AcDbMText
 10
179.240367120974
 20
757.7398931009903
 30
0.0
 40
3.0
 41
4.494399999999997
 71
     1
 72
     5
  1
1
 73
     1
 44
1.0
1001
ACAD
1000
MTEXTBEGIN
1070
    73
1070
     1
1070
    44
1040
1.0
1070
    74
1070
     0
1000
MTEXTEND
  0
MTEXT
  5
29ED
330
18
100
AcDbEntity
  8
3
100
AcDbMText
 10
217.0243726389514
 20
763.5622977523301
 30
0.0
 40
3.0
 41
4.362199999999996
 71
     1
 72
     5
  1
2
 73
     1
 44
1.0
1001
ACAD
1000
MTEXTBEGIN
1070
    73
1070
     1
1070
    44
1040
1.0
1070
    74
1070
     0
1000
MTEXTEND
  0
LINE
  5
2A1C
330
18
100
AcDbEntity
  8
2
100
AcDbLine
 10
207.8398127127432
 20
749.1427968141656
 30
0.0
 11
207.8398127127432
 21
715.1427968141657
 31
0.0
  0
LINE
  5
2A2A
330
18
100
AcDbEntity
  8
2
100
AcDbLine
 10
205.3398127127432
 20
747.6427968141656
 30
0.0
 11
206.839812712743
 21
749.1427968141656
 31
0.0
  0
LINE
  5
2A2B
330
18
100
AcDbEntity
  8
2
100
AcDbLine
 10
206.839812712743
 20
715.1427968141657
 30
0.0
 11
205.3398127127432
 21
716.6427968141658
 31
0.0
  0
MTEXT
  5
2B03
330
18
100
AcDbEntity
  8
3
100
AcDbMText
 10
248.2077860720479
 20
601.4809976383047
 30
0.0
 40
4.0
 41
74.69590670254252
 71
     1
 72
     5
  1
製造元  大塚刷毛製造株式会社
 73
     1
 44
1.0
1001
ACAD
1000
MTEXTBEGIN
1070
    73
1070
     1
1070
    44
1040
1.0
1070
    74
1070
     0
1000
MTEXTEND
  0
LWPOLYLINE
  5
2D45
330
18
100
AcDbEntity
  8
waku1
 62
     7
100
AcDbPolyline
 90
        3
 70
     0
 43
0.0
 10
36.82999160825182
 20
575.210931340518
 10
31.82999160825181
 20
575.210931340518
 10
31.82999160825181
 20
580.210931340518
  0
LWPOLYLINE
  5
2E5B
330
18
100
AcDbEntity
  8
waku1
 62
     7
100
AcDbPolyline
 90
        3
 70
     0
 43
0.0
 10
31.82999160825181
 20
780.210931340518
 10
31.82999160825181
 20
785.210931340518
 10
36.82999160825182
 20
785.210931340518
  0
LWPOLYLINE
  5
2EC9
330
18
100
AcDbEntity
  8
waku1
 62
     7
100
AcDbPolyline
 90
        3
 70
     0
 43
0.0
 10
328.8299916082518
 20
580.210931340518
 10
328.8299916082518
 20
575.210931340518
 10
323.8299916082518
 20
575.210931340518
  0
LWPOLYLINE
  5
2EDA
330
18
100
AcDbEntity
  8
waku1
 62
     7
100
AcDbPolyline
 90
        3
 70
     0
 43
0.0
 10
323.8299916082518
 20
785.210931340518
 10
328.8299916082518
 20
785.210931340518
 10
328.8299916082518
 20
780.210931340518
  0
VIEWPORT
  5
2828
102
{ACAD_XDICTIONARY
360
2FA5
102
}
330
15
100
AcDbEntity
 67
     1
  8
0
100
AcDbViewport
 10
415.4593176841736
 20
279.9926891326903
 30
0.0
 40
889.6820412597659
 41
729.6672856375056
 68
     1
 69
     1
 12
415.4593176841736
 22
279.9926891326903
 13
0.0
 23
0.0
 14
10.0
 24
10.0
 15
10.0
 25
10.0
 16
0.0
 26
0.0
 36
1.0
 17
0.0
 27
0.0
 37
0.0
 42
50.0
 43
0.0
 44
0.0
 45
729.6672856375056
 50
0.0
 51
0.0
 72
   100
 90
    32800
  1

281
     0
 71
     1
 74
     0
110
0.0
120
0.0
130
0.0
111
1.0
121
0.0
131
0.0
112
0.0
122
1.0
132
0.0
 79
     0
146
0.0
  0
VIEWPORT
  5
282A
102
{ACAD_XDICTIONARY
360
2FA7
102
}
330
15
100
AcDbEntity
 67
     1
  8
1
100
AcDbViewport
 10
415.4593341350555
 20
279.9926671981811
 30
0.0
 40
664.7349346160885
 41
447.9882675170898
 68
     2
 69
     2
 12
205.2849931149061
 22
666.0451704097603
 13
0.0
 23
0.0
 14
10.0
 24
10.0
 15
10.0
 25
10.0
 16
0.0
 26
0.0
 36
1.0
 17
0.0
 27
0.0
 37
0.0
 42
50.0
 43
0.0
 44
0.0
 45
185.5123136986311
 50
0.0
 51
0.0
 72
   100
 90
    32800
  1

281
     0
 71
     1
 74
     0
110
0.0
120
0.0
130
0.0
111
1.0
121
0.0
131
0.0
112
0.0
122
1.0
132
0.0
 79
     0
146
0.0
  0
ENDSEC
  0
SECTION
  2
OBJECTS
  0
DICTIONARY
  5
C
330
0
100
AcDbDictionary
281
     1
  3
ACAD_COLOR
350
2F84
  3
ACAD_GROUP
350
D
  3
ACAD_LAYOUT
350
177
  3
ACAD_MATERIAL
350
2F6F
  3
ACAD_MLINESTYLE
350
1B
  3
ACAD_PLOTSETTINGS
350
178
  3
ACAD_PLOTSTYLENAME
350
175
  3
ACAD_TABLESTYLE
350
2F85
  3
ACAD_VISUALSTYLE
350
2F73
  3
AcadDim
350
29E7
  3
AcDbVariableDictionary
350
225
  3
CONTENTDICTIONARY
350
39
  3
DWGPROPS
350
2FA0
  0
DICTIONARY
  5
2FA5
330
2828
100
AcDbDictionary
280
     1
281
     1
  3
ACAD_XREC_ROUNDTRIP
360
2FA6
  0
DICTIONARY
  5
2FA7
330
282A
100
AcDbDictionary
280
     1
281
     1
  3
ACAD_XREC_ROUNDTRIP
360
2FA8
  0
DICTIONARY
  5
2F84
102
{ACAD_REACTORS
330
C
102
}
330
C
100
AcDbDictionary
281
     1
  0
DICTIONARY
  5
D
102
{ACAD_REACTORS
330
C
102
}
330
C
100
AcDbDictionary
281
     1
  0
DICTIONARY
  5
177
102
{ACAD_REACTORS
330
C
102
}
330
C
100
AcDbDictionary
281
     1
  3
Model
350
179
  3
ﾚｲｱｳﾄ1
350
17A
  0
DICTIONARY
  5
2F6F
102
{ACAD_REACTORS
330
C
102
}
330
C
100
AcDbDictionary
281
     1
  3
ByBlock
350
2F71
  3
ByLayer
350
2F70
  3
Global
350
2F72
  0
DICTIONARY
  5
1B
102
{ACAD_REACTORS
330
C
102
}
330
C
100
AcDbDictionary
281
     1
  3
STANDARD
350
1C
  0
DICTIONARY
  5
178
102
{ACAD_REACTORS
330
C
102
}
330
C
100
AcDbDictionary
281
     1
  0
ACDBDICTIONARYWDFLT
  5
175
102
{ACAD_REACTORS
330
C
102
}
330
C
100
AcDbDictionary
281
     1
  3
Normal
350
176
100
AcDbDictionaryWithDefault
340
176
  0
DICTIONARY
  5
2F85
102
{ACAD_REACTORS
330
C
102
}
330
C
100
AcDbDictionary
281
     1
  3
Standard
350
2F86
  0
DICTIONARY
  5
2F73
102
{ACAD_REACTORS
330
C
102
}
330
C
100
AcDbDictionary
281
     1
  3
2dWireframe
350
2F79
  3
3D Hidden
350
2F7B
  3
3dWireframe
350
2F7A
  3
Basic
350
2F78
  3
Brighten
350
2F7F
  3
ColorChange
350
2F83
  3
Conceptual
350
2F7C
  3
Dim
350
2F7E
  3
Facepattern
350
2F82
  3
Flat
350
2F74
  3
FlatWithEdges
350
2F75
  3
Gouraud
350
2F76
  3
GouraudWithEdges
350
2F77
  3
Linepattern
350
2F81
  3
Realistic
350
2F7D
  3
Thicken
350
2F80
  0
XRECORD
  5
29E7
102
{ACAD_REACTORS
330
C
102
}
330
C
100
AcDbXrecord
280
     1
 90
   990106
  3
OPEN
 60
     4
 61
     0
 62
     4
 63
     4
 64
     1
 65
     0
 66
     0
 67
     3
 68
     1
 69
     0
 70
     0
 71
     0
 72
     0
 40
0.0
170
     0
  0
DICTIONARY
  5
225
102
{ACAD_REACTORS
330
C
102
}
330
C
100
AcDbDictionary
281
     1
  3
CTABLESTYLE
350
2F8C
  3
DIMASSOC
350
226
  3
INDEXCTL
350
2F9F
  3
SORTENTS
350
2F9E
  0
DICTIONARY
  5
39
102
{ACAD_REACTORS
330
C
102
}
330
C
100
AcDbDictionary
281
     1
  0
XRECORD
  5
2FA0
102
{ACAD_REACTORS
330
C
102
}
330
C
100
AcDbXrecord
280
     1
  1
DWGPROPS COOKIE
  2

  3

  4

  6

  7

  8
jjc
  9

300
=
301
=
302
=
303
=
304
=
305
=
306
=
307
=
308
=
309
=
 40
0.0845274768518519
 41
2452227.535780706
 42
2460028.387954954
  1

 90
        0
  0
XRECORD
  5
2FA6
102
{ACAD_REACTORS
330
2FA5
102
}
330
2FA5
100
AcDbXrecord
280
     1
102
SHADEPLOT
 70
     0
  0
XRECORD
  5
2FA8
102
{ACAD_REACTORS
330
2FA7
102
}
330
2FA7
100
AcDbXrecord
280
     1
102
SHADEPLOT
 70
     0
  0
LAYOUT
  5
179
102
{ACAD_XDICTIONARY
360
2FA1
102
}
102
{ACAD_REACTORS
330
177
102
}
330
177
100
AcDbPlotSettings
  1

  2
DocuCom PDF Driver
  4
A4
  6

 40
3.174999952316282
 41
3.174999952316282
 42
3.175003051757812
 43
3.17498779296875
 44
209.9733276367186
 45
296.9683227539062
 46
-3.209999999999998
 47
-3.209999999999998
 48
0.0
 49
0.0
140
0.0
141
0.0
142
1.0
143
1.0
 70
 11956
 72
     1
 73
     1
 74
     1
  7
monochrome.ctb
 75
    16
147
1.0
148
-31.80633646413491
149
-575.1699334229082
100
AcDbLayout
  1
Model
 70
     1
 71
     0
 10
0.0
 20
0.0
 11
12.0
 21
9.0
 12
0.0
 22
0.0
 32
0.0
 14
0.0
 24
0.0
 34
0.0
 15
0.0
 25
0.0
 35
0.0
146
0.0
 13
0.0
 23
0.0
 33
0.0
 16
1.0
 26
0.0
 36
0.0
 17
0.0
 27
1.0
 37
0.0
 76
     0
330
18
331
2F69
  0
LAYOUT
  5
17A
102
{ACAD_XDICTIONARY
360
2FA3
102
}
102
{ACAD_REACTORS
330
177
102
}
330
177
100
AcDbPlotSettings
  1

  2
HP DesignJet 750C+ (E/A0) by HP
  4
User1295
  6

 40
4.995333194732666
 41
16.93330574035644
 42
4.99530029296875
 43
16.933349609375
 44
840.9093017578125
 45
593.8519897460937
 46
0.0
 47
0.0
 48
0.0
 49
0.0
140
0.0
141
0.0
142
1.0
143
1.0
 70
   688
 72
     1
 73
     0
 74
     5
  7
monochrome.ctb
 75
    16
147
1.0
148
0.0
149
0.0
100
AcDbLayout
  1
ﾚｲｱｳﾄ1
 70
     0
 71
     1
 10
-4.995333194732666
 20
-16.93330574035644
 11
835.9139685630799
 21
576.9186840057371
 12
0.0
 22
0.0
 32
0.0
 14
83.09186682701113
 24
55.99853343963622
 34
0.0
 15
747.8268014430998
 25
503.986800956726
 35
0.0
146
0.0
 13
0.0
 23
0.0
 33
0.0
 16
1.0
 26
0.0
 36
0.0
 17
0.0
 27
1.0
 37
0.0
 76
     0
330
15
331
2828
  0
MATERIAL
  5
2F71
102
{ACAD_XDICTIONARY
360
2FAB
102
}
102
{ACAD_REACTORS
330
2F6F
102
}
330
2F6F
100
AcDbMaterial
  1
ByBlock
  0
MATERIAL
  5
2F70
102
{ACAD_XDICTIONARY
360
2FA9
102
}
102
{ACAD_REACTORS
330
2F6F
102
}
330
2F6F
100
AcDbMaterial
  1
ByLayer
  0
MATERIAL
  5
2F72
102
{ACAD_XDICTIONARY
360
2FAD
102
}
102
{ACAD_REACTORS
330
2F6F
102
}
330
2F6F
100
AcDbMaterial
  1
Global
  0
MLINESTYLE
  5
1C
102
{ACAD_REACTORS
330
1B
102
}
330
1B
100
AcDbMlineStyle
  2
STANDARD
 70
     0
  3

 62
   256
 51
90.0
 52
90.0
 71
     2
 49
0.5
 62
   256
  6
BYLAYER
 49
-0.5
 62
   256
  6
BYLAYER
  0
ACDBPLACEHOLDER
  5
176
102
{ACAD_REACTORS
330
175
102
}
330
175
  0
TABLESTYLE
  5
2F86
102
{ACAD_XDICTIONARY
360
2FAF
102
}
102
{ACAD_REACTORS
330
2F85
102
}
330
2F85
100
AcDbTableStyle
  3
Standard
 70
     0
 71
     0
 40
1.5
 41
1.5
280
     0
281
     0
  7
STANDARD
140
4.5
170
     2
 62
     0
 63
     7
283
     0
274
    -2
284
     1
 64
     0
275
    -2
285
     1
 65
     0
276
    -2
286
     1
 66
     0
277
    -2
287
     1
 67
     0
278
    -2
288
     1
 68
     0
279
    -2
289
     1
 69
     0
  7
STANDARD
140
6.0
170
     5
 62
     0
 63
     7
283
     0
274
    -2
284
     1
 64
     0
275
    -2
285
     1
 65
     0
276
    -2
286
     1
 66
     0
277
    -2
287
     1
 67
     0
278
    -2
288
     1
 68
     0
279
    -2
289
     1
 69
     0
  7
STANDARD
140
4.5
170
     5
 62
     0
 63
     7
283
     0
274
    -2
284
     1
 64
     0
275
    -2
285
     1
 65
     0
276
    -2
286
     1
 66
     0
277
    -2
287
     1
 67
     0
278
    -2
288
     1
 68
     0
279
    -2
289
     1
 69
     0
  0
VISUALSTYLE
  5
2F79
102
{ACAD_REACTORS
330
2F73
102
}
330
2F73
100
AcDbVisualStyle
  2
2dWireframe
 70
     4
 71
     0
 72
     2
 73
     0
 90
        0
 40
-0.6
 41
-30.0
 62
     5
 63
     7
 74
     1
 91
        4
 64
     7
 65
   257
 75
     1
175
     1
 42
1.0
 92
        0
 66
   257
 43
1.0
 76
     1
 77
     6
 78
     2
 67
     7
 79
     5
170
     0
171
     0
290
     0
174
     0
 93
        1
 44
0.0
173
     0
291
     0
 45
0.0
1001
ACAD
1000
AcDbSavedByObjectVersion
1070
     0
  0
VISUALSTYLE
  5
2F7B
102
{ACAD_REACTORS
330
2F73
102
}
330
2F73
100
AcDbVisualStyle
  2
3D Hidden
 70
     6
 71
     1
 72
     2
 73
     2
 90
        0
 40
-0.6
 41
-30.0
 62
     5
 63
     7
 74
     2
 91
        2
 64
     7
 65
   257
 75
     2
175
     1
 42
40.0
 92
        0
 66
   257
 43
1.0
 76
     1
 77
     6
 78
     2
 67
     7
 79
     3
170
     0
171
     0
290
     0
174
     0
 93
        1
 44
0.0
173
     0
291
     0
 45
0.0
1001
ACAD
1000
AcDbSavedByObjectVersion
1070
     0
  0
VISUALSTYLE
  5
2F7A
102
{ACAD_REACTORS
330
2F73
102
}
330
2F73
100
AcDbVisualStyle
  2
3dWireframe
 70
     5
 71
     0
 72
     2
 73
     0
 90
        0
 40
-0.6
 41
-30.0
 62
     5
 63
     7
 74
     1
 91
        4
 64
     7
 65
   257
 75
     1
175
     1
 42
1.0
 92
        0
 66
   257
 43
1.0
 76
     1
 77
     6
 78
     2
 67
     7
 79
     5
170
     0
171
     0
290
     0
174
     0
 93
        1
 44
0.0
173
     0
291
     0
 45
0.0
1001
ACAD
1000
AcDbSavedByObjectVersion
1070
     0
  0
VISUALSTYLE
  5
2F78
102
{ACAD_REACTORS
330
2F73
102
}
330
2F73
100
AcDbVisualStyle
  2
Basic
 70
     7
 71
     1
 72
     0
 73
     1
 90
        0
 40
-0.6
 41
-30.0
 62
     5
 63
     7
 74
     0
 91
        4
 64
     7
 65
   257
 75
     1
175
     1
 42
1.0
 92
        8
 66
     7
 43
1.0
 76
     1
 77
     6
 78
     2
 67
     7
 79
     5
170
     0
171
     0
290
     0
174
     0
 93
        1
 44
0.0
173
     0
291
     1
 45
0.0
1001
ACAD
1000
AcDbSavedByObjectVersion
1070
     0
  0
VISUALSTYLE
  5
2F7F
102
{ACAD_REACTORS
330
2F73
102
}
330
2F73
100
AcDbVisualStyle
  2
Brighten
 70
    12
 71
     2
 72
     2
 73
     0
 90
        0
 40
-0.6
 41
-30.0
 62
     5
 63
     7
 74
     1
 91
        4
 64
     7
 65
   257
 75
     1
175
     1
 42
1.0
 92
        8
 66
     7
 43
1.0
 76
     1
 77
     6
 78
     2
 67
     7
 79
     5
170
     0
171
     0
290
     0
174
     0
 93
        1
 44
50.0
173
     0
291
     1
 45
0.0
1001
ACAD
1000
AcDbSavedByObjectVersion
1070
     0
  0
VISUALSTYLE
  5
2F83
102
{ACAD_REACTORS
330
2F73
102
}
330
2F73
100
AcDbVisualStyle
  2
ColorChange
 70
    16
 71
     2
 72
     2
 73
     3
 90
        0
 40
-0.6
 41
-30.0
 62
     5
 63
     8
 74
     1
 91
        4
 64
     7
 65
   257
 75
     1
175
     1
 42
1.0
 92
        8
 66
     8
 43
1.0
 76
     1
 77
     6
 78
     2
 67
     7
 79
     5
170
     0
171
     0
290
     0
174
     0
 93
        1
 44
0.0
173
     0
291
     1
 45
0.0
1001
ACAD
1000
AcDbSavedByObjectVersion
1070
     0
  0
VISUALSTYLE
  5
2F7C
102
{ACAD_REACTORS
330
2F73
102
}
330
2F73
100
AcDbVisualStyle
  2
Conceptual
 70
     9
 71
     3
 72
     2
 73
     0
 90
        0
 40
-0.6
 41
-30.0
 62
     5
 63
     7
 74
     2
 91
        2
 64
     7
 65
   257
 75
     1
175
     1
 42
40.0
 92
        8
 66
     7
 43
1.0
 76
     1
 77
     6
 78
     2
 67
     7
 79
     3
170
     0
171
     0
290
     0
174
     0
 93
        1
 44
0.0
173
     0
291
     0
 45
0.0
1001
ACAD
1000
AcDbSavedByObjectVersion
1070
     0
  0
VISUALSTYLE
  5
2F7E
102
{ACAD_REACTORS
330
2F73
102
}
330
2F73
100
AcDbVisualStyle
  2
Dim
 70
    11
 71
     2
 72
     2
 73
     0
 90
        0
 40
-0.6
 41
-30.0
 62
     5
 63
     7
 74
     1
 91
        4
 64
     7
 65
   257
 75
     1
175
     1
 42
1.0
 92
        8
 66
     7
 43
1.0
 76
     1
 77
     6
 78
     2
 67
     7
 79
     5
170
     0
171
     0
290
     0
174
     0
 93
        1
 44
-50.0
173
     0
291
     1
 45
0.0
1001
ACAD
1000
AcDbSavedByObjectVersion
1070
     0
  0
VISUALSTYLE
  5
2F82
102
{ACAD_REACTORS
330
2F73
102
}
330
2F73
100
AcDbVisualStyle
  2
Facepattern
 70
    15
 71
     2
 72
     2
 73
     0
 90
        0
 40
-0.6
 41
-30.0
 62
     5
 63
     7
 74
     1
 91
        4
 64
     7
 65
   257
 75
     1
175
     1
 42
1.0
 92
        8
 66
     7
 43
1.0
 76
     1
 77
     6
 78
     2
 67
     7
 79
     5
170
     0
171
     0
290
     0
174
     0
 93
        1
 44
0.0
173
     0
291
     1
 45
0.0
1001
ACAD
1000
AcDbSavedByObjectVersion
1070
     0
  0
VISUALSTYLE
  5
2F74
102
{ACAD_REACTORS
330
2F73
102
}
330
2F73
100
AcDbVisualStyle
  2
Flat
 70
     0
 71
     2
 72
     1
 73
     1
 90
        2
 40
-0.6
 41
30.0
 62
     5
 63
     7
 74
     0
 91
        4
 64
     7
 65
   257
 75
     1
175
     1
 42
1.0
 92
        8
 66
     7
 43
1.0
 76
     1
 77
     6
 78
     2
 67
     7
 79
     5
170
     0
171
     0
290
     0
174
     0
 93
       13
 44
0.0
173
     0
291
     1
 45
0.0
1001
ACAD
1000
AcDbSavedByObjectVersion
1070
     0
  0
VISUALSTYLE
  5
2F75
102
{ACAD_REACTORS
330
2F73
102
}
330
2F73
100
AcDbVisualStyle
  2
FlatWithEdges
 70
     1
 71
     2
 72
     1
 73
     1
 90
        2
 40
-0.6
 41
30.0
 62
     5
 63
     7
 74
     1
 91
        4
 64
     7
 65
   257
 75
     1
175
     1
 42
1.0
 92
        0
 66
   257
 43
1.0
 76
     1
 77
     6
 78
     2
 67
     7
 79
     5
170
     0
171
     0
290
     0
174
     0
 93
       13
 44
0.0
173
     0
291
     1
 45
0.0
1001
ACAD
1000
AcDbSavedByObjectVersion
1070
     0
  0
VISUALSTYLE
  5
2F76
102
{ACAD_REACTORS
330
2F73
102
}
330
2F73
100
AcDbVisualStyle
  2
Gouraud
 70
     2
 71
     2
 72
     2
 73
     1
 90
        2
 40
-0.6
 41
30.0
 62
     5
 63
     7
 74
     0
 91
        4
 64
     7
 65
   257
 75
     1
175
     1
 42
1.0
 92
        0
 66
     7
 43
1.0
 76
     1
 77
     6
 78
     2
 67
     7
 79
     5
170
     0
171
     0
290
     0
174
     0
 93
       13
 44
0.0
173
     0
291
     1
 45
0.0
1001
ACAD
1000
AcDbSavedByObjectVersion
1070
     0
  0
VISUALSTYLE
  5
2F77
102
{ACAD_REACTORS
330
2F73
102
}
330
2F73
100
AcDbVisualStyle
  2
GouraudWithEdges
 70
     3
 71
     2
 72
     2
 73
     1
 90
        2
 40
-0.6
 41
30.0
 62
     5
 63
     7
 74
     1
 91
        4
 64
     7
 65
   257
 75
     1
175
     1
 42
1.0
 92
        0
 66
   257
 43
1.0
 76
     1
 77
     6
 78
     2
 67
     7
 79
     5
170
     0
171
     0
290
     0
174
     0
 93
       13
 44
0.0
173
     0
291
     1
 45
0.0
1001
ACAD
1000
AcDbSavedByObjectVersion
1070
     0
  0
VISUALSTYLE
  5
2F81
102
{ACAD_REACTORS
330
2F73
102
}
330
2F73
100
AcDbVisualStyle
  2
Linepattern
 70
    14
 71
     2
 72
     2
 73
     0
 90
        0
 40
-0.6
 41
-30.0
 62
     5
 63
     7
 74
     1
 91
        4
 64
     7
 65
   257
 75
     7
175
     7
 42
1.0
 92
        8
 66
     7
 43
1.0
 76
     1
 77
     6
 78
     2
 67
     7
 79
     5
170
     0
171
     0
290
     0
174
     0
 93
        1
 44
0.0
173
     0
291
     1
 45
0.0
1001
ACAD
1000
AcDbSavedByObjectVersion
1070
     0
  0
VISUALSTYLE
  5
2F7D
102
{ACAD_REACTORS
330
2F73
102
}
330
2F73
100
AcDbVisualStyle
  2
Realistic
 70
     8
 71
     2
 72
     2
 73
     0
 90
        0
 40
-0.6
 41
-30.0
 62
     5
 63
     7
 74
     1
 91
        0
 64
     7
 65
   257
 75
     1
175
     1
 42
1.0
 92
        8
 66
     8
 43
1.0
 76
     1
 77
     6
 78
     2
 67
     7
 79
     5
170
     0
171
     0
290
     0
174
     0
 93
       13
 44
0.0
173
     0
291
     0
 45
0.0
1001
ACAD
1000
AcDbSavedByObjectVersion
1070
     0
  0
VISUALSTYLE
  5
2F80
102
{ACAD_REACTORS
330
2F73
102
}
330
2F73
100
AcDbVisualStyle
  2
Thicken
 70
    13
 71
     2
 72
     2
 73
     0
 90
        0
 40
-0.6
 41
-30.0
 62
     5
 63
     7
 74
     1
 91
        4
 64
     7
 65
   257
 75
     1
175
     1
 42
1.0
 92
       12
 66
     7
 43
1.0
 76
     1
 77
     6
 78
     2
 67
     7
 79
     5
170
     0
171
     0
290
     0
174
     0
 93
        1
 44
0.0
173
     0
291
     1
 45
0.0
1001
ACAD
1000
AcDbSavedByObjectVersion
1070
     0
  0
DICTIONARYVAR
  5
2F8C
102
{ACAD_REACTORS
330
225
102
}
330
225
100
DictionaryVariables
280
     0
  1
STANDARD
  0
DICTIONARYVAR
  5
226
102
{ACAD_REACTORS
330
225
102
}
330
225
100
DictionaryVariables
280
     0
  1
1
  0
DICTIONARYVAR
  5
2F9F
102
{ACAD_REACTORS
330
225
102
}
330
225
100
DictionaryVariables
280
     0
  1
0
  0
DICTIONARYVAR
  5
2F9E
102
{ACAD_REACTORS
330
225
102
}
330
225
100
DictionaryVariables
280
     0
  1
127
  0
DICTIONARY
  5
2FA1
330
179
100
AcDbDictionary
280
     1
281
     1
  3
ACAD_XREC_ROUNDTRIP
360
2FA2
  0
DICTIONARY
  5
2FA3
330
17A
100
AcDbDictionary
280
     1
281
     1
  3
ACAD_XREC_ROUNDTRIP
360
2FA4
  0
DICTIONARY
  5
2FAB
330
2F71
100
AcDbDictionary
280
     1
281
     1
  3
ACAD_XREC_ROUNDTRIP
360
2FAC
  0
DICTIONARY
  5
2FA9
330
2F70
100
AcDbDictionary
280
     1
281
     1
  3
ACAD_XREC_ROUNDTRIP
360
2FAA
  0
DICTIONARY
  5
2FAD
330
2F72
100
AcDbDictionary
280
     1
281
     1
  3
ACAD_XREC_ROUNDTRIP
360
2FAE
  0
DICTIONARY
  5
2FAF
330
2F86
100
AcDbDictionary
280
     1
281
     1
  3
ACAD_XREC_ROUNDTRIP
360
2FB0
  0
XRECORD
  5
2FA2
102
{ACAD_REACTORS
330
2FA1
102
}
330
2FA1
100
AcDbXrecord
280
     1
102
SHADEPLOT
 70
     0
102
SHADEPLOTRESLEVEL
 70
     2
102
SHADEPLOTCUSTOMDPI
 70
   300
  0
XRECORD
  5
2FA4
102
{ACAD_REACTORS
330
2FA3
102
}
330
2FA3
100
AcDbXrecord
280
     1
102
SHADEPLOT
 70
     0
102
SHADEPLOTRESLEVEL
 70
     2
102
SHADEPLOTCUSTOMDPI
 70
   300
  0
XRECORD
  5
2FAC
102
{ACAD_REACTORS
330
2FAB
102
}
330
2FAB
100
AcDbXrecord
280
     1
102
MATERIAL
148
0.0
149
0.0
149
0.0
 93
        0
 94
       63
282
     0
 72
     1
 77
     1
171
     1
175
     1
179
     1
273
     0
  0
XRECORD
  5
2FAA
102
{ACAD_REACTORS
330
2FA9
102
}
330
2FA9
100
AcDbXrecord
280
     1
102
MATERIAL
148
0.0
149
0.0
149
0.0
 93
        0
 94
       63
282
     0
 72
     1
 77
     1
171
     1
175
     1
179
     1
273
     0
  0
XRECORD
  5
2FAE
102
{ACAD_REACTORS
330
2FAD
102
}
330
2FAD
100
AcDbXrecord
280
     1
102
MATERIAL
148
0.0
149
0.0
149
0.0
 93
        0
 94
       63
282
     0
 72
     1
 77
     1
171
     1
175
     1
179
     1
273
     0
  0
XRECORD
  5
2FB0
102
{ACAD_REACTORS
330
2FAF
102
}
330
2FAF
100
AcDbXrecord
280
     1
102
ACAD_ROUNDTRIP_PRE2007_TABLESTYLE
 90
      512
 91
        0
  1

 92
      512
 93
        0
  2

 94
      512
 95
        0
  3

  0
ENDSEC
  0
EOF
