  0
SECTION
  2
HEADER
  9
$ACADVER
  1
AC1015
  9
$ACADMAINTVER
 70
    13
  9
$DWGCODEPAGE
  3
ANSI_932
  9
$INSBASE
 10
0.0
 20
0.0
 30
0.0
  9
$EXTMIN
 10
-0.0000002117971007
 20
-0.0000000429140528
 30
0.0
  9
$EXTMAX
 10
271.8602004113929
 20
184.3158436958406
 30
0.0
  9
$LIMMIN
 10
0.0
 20
0.0
  9
$LIMMAX
 10
420.0
 20
297.0
  9
$ORTHOMODE
 70
     1
  9
$REGENMODE
 70
     1
  9
$FILLMODE
 70
     1
  9
$QTEXTMODE
 70
     0
  9
$MIRRTEXT
 70
     0
  9
$LTSCALE
 40
10.0
  9
$ATTMODE
 70
     1
  9
$TEXTSIZE
 40
3.0
  9
$TRACEWID
 40
1.0
  9
$TEXTSTYLE
  7
STANDARD
  9
$CLAYER
  8
3
  9
$CELTYPE
  6
CENTER
  9
$CECOLOR
 62
   256
  9
$CELTSCALE
 40
1.0
  9
$DISPSILH
 70
     0
  9
$DIMSCALE
 40
1.0
  9
$DIMASZ
 40
3.0
  9
$DIMEXO
 40
0.5
  9
$DIMDLI
 40
4.0
  9
$DIMRND
 40
0.0
  9
$DIMDLE
 40
0.0
  9
$DIMEXE
 40
1.0
  9
$DIMTP
 40
0.0
  9
$DIMTM
 40
0.0
  9
$DIMTXT
 40
3.0
  9
$DIMCEN
 40
0.0
  9
$DIMTSZ
 40
0.0
  9
$DIMTOL
 70
     0
  9
$DIMLIM
 70
     0
  9
$DIMTIH
 70
     0
  9
$DIMTOH
 70
     0
  9
$DIMSE1
 70
     0
  9
$DIMSE2
 70
     0
  9
$DIMTAD
 70
     1
  9
$DIMZIN
 70
     9
  9
$DIMBLK
  1

  9
$DIMASO
 70
     1
  9
$DIMSHO
 70
     1
  9
$DIMPOST
  1

  9
$DIMAPOST
  1

  9
$DIMALT
 70
     0
  9
$DIMALTD
 70
     4
  9
$DIMALTF
 40
0.0394
  9
$DIMLFAC
 40
1.0
  9
$DIMTOFL
 70
     0
  9
$DIMTVP
 40
0.0
  9
$DIMTIX
 70
     0
  9
$DIMSOXD
 70
     0
  9
$DIMSAH
 70
     1
  9
$DIMBLK1
  1
OPEN
  9
$DIMBLK2
  1
OPEN
  9
$DIMSTYLE
  2
STD01
  9
$DIMCLRD
 70
     2
  9
$DIMCLRE
 70
     2
  9
$DIMCLRT
 70
     0
  9
$DIMTFAC
 40
1.0
  9
$DIMGAP
 40
0.5
  9
$DIMJUST
 70
     0
  9
$DIMSD1
 70
     0
  9
$DIMSD2
 70
     0
  9
$DIMTOLJ
 70
     1
  9
$DIMTZIN
 70
     9
  9
$DIMALTZ
 70
     0
  9
$DIMALTTZ
 70
     0
  9
$DIMUPT
 70
     0
  9
$DIMDEC
 70
     3
  9
$DIMTDEC
 70
     3
  9
$DIMALTU
 70
     8
  9
$DIMALTTD
 70
     4
  9
$DIMTXSTY
  7
STANDARD
  9
$DIMAUNIT
 70
     0
  9
$DIMADEC
 70
     3
  9
$DIMALTRND
 40
0.0
  9
$DIMAZIN
 70
     2
  9
$DIMDSEP
 70
    46
  9
$DIMATFIT
 70
     3
  9
$DIMFRAC
 70
     0
  9
$DIMLDRBLK
  1
OPEN
  9
$DIMLUNIT
 70
     2
  9
$DIMLWD
 70
    -2
  9
$DIMLWE
 70
    -2
  9
$DIMTMOVE
 70
     0
  9
$LUNITS
 70
     2
  9
$LUPREC
 70
     4
  9
$SKETCHINC
 40
1.0
  9
$FILLETRAD
 40
0.0
  9
$AUNITS
 70
     0
  9
$AUPREC
 70
     0
  9
$MENU
  1
acad
  9
$ELEVATION
 40
0.0
  9
$PELEVATION
 40
0.0
  9
$THICKNESS
 40
0.0
  9
$LIMCHECK
 70
     0
  9
$CHAMFERA
 40
10.0
  9
$CHAMFERB
 40
10.0
  9
$CHAMFERC
 40
20.0
  9
$CHAMFERD
 40
0.0
  9
$SKPOLY
 70
     0
  9
$TDCREATE
 40
2452225.400075521
  9
$TDUCREATE
 40
2452225.025075521
  9
$TDUPDATE
 40
2452227.332220787
  9
$TDUUPDATE
 40
2452226.957220787
  9
$TDINDWG
 40
0.0199460185
  9
$TDUSRTIMER
 40
0.0199460185
  9
$USRTIMER
 70
     1
  9
$ANGBASE
 50
0.0
  9
$ANGDIR
 70
     0
  9
$PDMODE
 70
     0
  9
$PDSIZE
 40
0.0
  9
$PLINEWID
 40
0.0
  9
$SPLFRAME
 70
     0
  9
$SPLINETYPE
 70
     6
  9
$SPLINESEGS
 70
     8
  9
$HANDSEED
  5
667
  9
$SURFTAB1
 70
     6
  9
$SURFTAB2
 70
     6
  9
$SURFTYPE
 70
     6
  9
$SURFU
 70
     6
  9
$SURFV
 70
     6
  9
$UCSBASE
  2

  9
$UCSNAME
  2

  9
$UCSORG
 10
0.0
 20
0.0
 30
0.0
  9
$UCSXDIR
 10
1.0
 20
0.0
 30
0.0
  9
$UCSYDIR
 10
0.0
 20
1.0
 30
0.0
  9
$UCSORTHOREF
  2

  9
$UCSORTHOVIEW
 70
     0
  9
$UCSORGTOP
 10
0.0
 20
0.0
 30
0.0
  9
$UCSORGBOTTOM
 10
0.0
 20
0.0
 30
0.0
  9
$UCSORGLEFT
 10
0.0
 20
0.0
 30
0.0
  9
$UCSORGRIGHT
 10
0.0
 20
0.0
 30
0.0
  9
$UCSORGFRONT
 10
0.0
 20
0.0
 30
0.0
  9
$UCSORGBACK
 10
0.0
 20
0.0
 30
0.0
  9
$PUCSBASE
  2

  9
$PUCSNAME
  2

  9
$PUCSORG
 10
0.0
 20
0.0
 30
0.0
  9
$PUCSXDIR
 10
1.0
 20
0.0
 30
0.0
  9
$PUCSYDIR
 10
0.0
 20
1.0
 30
0.0
  9
$PUCSORTHOREF
  2

  9
$PUCSORTHOVIEW
 70
     0
  9
$PUCSORGTOP
 10
0.0
 20
0.0
 30
0.0
  9
$PUCSORGBOTTOM
 10
0.0
 20
0.0
 30
0.0
  9
$PUCSORGLEFT
 10
0.0
 20
0.0
 30
0.0
  9
$PUCSORGRIGHT
 10
0.0
 20
0.0
 30
0.0
  9
$PUCSORGFRONT
 10
0.0
 20
0.0
 30
0.0
  9
$PUCSORGBACK
 10
0.0
 20
0.0
 30
0.0
  9
$USERI1
 70
     0
  9
$USERI2
 70
     0
  9
$USERI3
 70
     0
  9
$USERI4
 70
     0
  9
$USERI5
 70
     0
  9
$USERR1
 40
0.0
  9
$USERR2
 40
0.0
  9
$USERR3
 40
0.0
  9
$USERR4
 40
0.0
  9
$USERR5
 40
0.0
  9
$WORLDVIEW
 70
     1
  9
$SHADEDGE
 70
     3
  9
$SHADEDIF
 70
    70
  9
$TILEMODE
 70
     1
  9
$MAXACTVP
 70
    48
  9
$PINSBASE
 10
0.0
 20
0.0
 30
0.0
  9
$PLIMCHECK
 70
     0
  9
$PEXTMIN
 10
26.66999878883362
 20
20.31999878883362
 30
0.0
  9
$PEXTMAX
 10
240.0299890995025
 20
182.8799890995025
 30
0.0
  9
$PLIMMIN
 10
-6.350006103515625
 20
-6.349999904632568
  9
$PLIMMAX
 10
273.0499877929687
 20
209.5499939918517
  9
$UNITMODE
 70
     0
  9
$VISRETAIN
 70
     1
  9
$PLINEGEN
 70
     0
  9
$PSLTSCALE
 70
     0
  9
$TREEDEPTH
 70
  3020
  9
$CMLSTYLE
  2
STANDARD
  9
$CMLJUST
 70
     0
  9
$CMLSCALE
 40
20.0
  9
$PROXYGRAPHICS
 70
     1
  9
$MEASUREMENT
 70
     1
  9
$CELWEIGHT
370
    -1
  9
$ENDCAPS
280
     0
  9
$JOINSTYLE
280
     0
  9
$LWDISPLAY
290
     0
  9
$INSUNITS
 70
     0
  9
$HYPERLINKBASE
  1

  9
$STYLESHEET
  1
hp750.ctb
  9
$XEDIT
290
     1
  9
$CEPSNTYPE
380
     0
  9
$PSTYLEMODE
290
     1
  9
$FINGERPRINTGUID
  2
{357C0802-013E-11D5-8976-00004C990E2D}
  9
$VERSIONGUID
  2
{F5EE54DA-D6FC-11D5-8ADA-00004C990E2D}
  9
$EXTNAMES
290
     1
  9
$PSVPSCALE
 40
0.0
  9
$OLESTARTUP
290
     0
  0
ENDSEC
  0
SECTION
  2
CLASSES
  0
CLASS
  1
ACDBDICTIONARYWDFLT
  2
AcDbDictionaryWithDefault
  3
AutoCAD 2000
 90
        0
280
     0
281
     0
  0
CLASS
  1
ACDBPLACEHOLDER
  2
AcDbPlaceHolder
  3
AutoCAD 2000
 90
        0
280
     0
281
     0
  0
CLASS
  1
LAYOUT
  2
AcDbLayout
  3
AutoCAD 2000
 90
        0
280
     0
281
     0
  0
CLASS
  1
DICTIONARYVAR
  2
AcDbDictionaryVar
  3
AutoCAD 2000
 90
        0
280
     0
281
     0
  0
ENDSEC
  0
SECTION
  2
TABLES
  0
TABLE
  2
VPORT
  5
8
330
0
100
AcDbSymbolTable
 70
     2
  0
VPORT
  5
666
330
8
100
AcDbSymbolTableRecord
100
AcDbViewportTableRecord
  2
*Active
 70
     0
 10
0.0
 20
0.0
 11
1.0
 21
1.0
 12
142.4416394860919
 22
92.15764677551709
 13
0.0
 23
0.0
 14
10.0
 24
10.0
 15
10.0
 25
10.0
 16
0.0
 26
0.0
 36
1.0
 17
0.0
 27
0.0
 37
0.0
 40
185.7176506316632
 41
1.580132450331125
 42
50.0
 43
0.0
 44
0.0
 50
0.0
 51
0.0
 71
     0
 72
   100
 73
     1
 74
     1
 75
     0
 76
     0
 77
     0
 78
     0
281
     0
 65
     1
110
0.0
120
0.0
130
0.0
111
1.0
121
0.0
131
0.0
112
0.0
122
1.0
132
0.0
 79
     0
146
0.0
  0
ENDTAB
  0
TABLE
  2
LTYPE
  5
5
330
0
100
AcDbSymbolTable
 70
     9
  0
LTYPE
  5
12
330
5
100
AcDbSymbolTableRecord
100
AcDbLinetypeTableRecord
  2
BYBLOCK
 70
     0
  3

 72
    65
 73
     0
 40
0.0
  0
LTYPE
  5
13
330
5
100
AcDbSymbolTableRecord
100
AcDbLinetypeTableRecord
  2
BYLAYER
 70
     0
  3

 72
    65
 73
     0
 40
0.0
  0
LTYPE
  5
14
330
5
100
AcDbSymbolTableRecord
100
AcDbLinetypeTableRecord
  2
CONTINUOUS
 70
     0
  3
Solid line
 72
    65
 73
     0
 40
0.0
  0
LTYPE
  5
22
330
5
100
AcDbSymbolTableRecord
100
AcDbLinetypeTableRecord
  2
BORDER
 70
     0
  3
Border __ __ . __ __ . __ __ . __ __ . __ __ .
 72
    65
 73
     6
 40
1.75
 49
0.5
 74
     0
 49
-0.25
 74
     0
 49
0.5
 74
     0
 49
-0.25
 74
     0
 49
0.0
 74
     0
 49
-0.25
 74
     0
  0
LTYPE
  5
23
330
5
100
AcDbSymbolTableRecord
100
AcDbLinetypeTableRecord
  2
CENTER
 70
     0
  3
Center ____ _ ____ _ ____ _ ____ _ ____ _ ____
 72
    65
 73
     4
 40
2.0
 49
1.25
 74
     0
 49
-0.25
 74
     0
 49
0.25
 74
     0
 49
-0.25
 74
     0
  0
LTYPE
  5
24
330
5
100
AcDbSymbolTableRecord
100
AcDbLinetypeTableRecord
  2
DASHDOT
 70
     0
  3
Dash dot __ . __ . __ . __ . __ . __ . __ . __
 72
    65
 73
     4
 40
1.0
 49
0.5
 74
     0
 49
-0.25
 74
     0
 49
0.0
 74
     0
 49
-0.25
 74
     0
  0
LTYPE
  5
25
330
5
100
AcDbSymbolTableRecord
100
AcDbLinetypeTableRecord
  2
DASHED
 70
     0
  3
Dashed __ __ __ __ __ __ __ __ __ __ __ __ __ _
 72
    65
 73
     2
 40
0.75
 49
0.5
 74
     0
 49
-0.25
 74
     0
  0
LTYPE
  5
26
330
5
100
AcDbSymbolTableRecord
100
AcDbLinetypeTableRecord
  2
DIVIDE
 70
     0
  3
Divide ____ . . ____ . . ____ . . ____ . . ____
 72
    65
 73
     6
 40
1.25
 49
0.5
 74
     0
 49
-0.25
 74
     0
 49
0.0
 74
     0
 49
-0.25
 74
     0
 49
0.0
 74
     0
 49
-0.25
 74
     0
  0
LTYPE
  5
27
330
5
100
AcDbSymbolTableRecord
100
AcDbLinetypeTableRecord
  2
DOT
 70
     0
  3
Dot . . . . . . . . . . . . . . . . . . . . . .
 72
    65
 73
     2
 40
0.25
 49
0.0
 74
     0
 49
-0.25
 74
     0
  0
LTYPE
  5
28
330
5
100
AcDbSymbolTableRecord
100
AcDbLinetypeTableRecord
  2
HIDDEN
 70
     0
  3
Hidden __ __ __ __ __ __ __ __ __ __ __ __ __ _
 72
    65
 73
     2
 40
0.375
 49
0.25
 74
     0
 49
-0.125
 74
     0
  0
LTYPE
  5
29
330
5
100
AcDbSymbolTableRecord
100
AcDbLinetypeTableRecord
  2
PHANTOM
 70
     0
  3
Phantom ______  __  __  ______  __  __  ______
 72
    65
 73
     6
 40
2.5
 49
1.25
 74
     0
 49
-0.25
 74
     0
 49
0.25
 74
     0
 49
-0.25
 74
     0
 49
0.25
 74
     0
 49
-0.25
 74
     0
  0
ENDTAB
  0
TABLE
  2
LAYER
  5
2
330
0
100
AcDbSymbolTable
 70
     8
  0
LAYER
  5
E
330
2
100
AcDbSymbolTableRecord
100
AcDbLayerTableRecord
  2
0
 70
     0
 62
     7
  6
CONTINUOUS
370
    -3
390
176
  0
LAYER
  5
31
330
2
100
AcDbSymbolTableRecord
100
AcDbLayerTableRecord
  2
WAKU
 70
     0
 62
     7
  6
CONTINUOUS
370
    -3
390
176
  0
LAYER
  5
32
330
2
100
AcDbSymbolTableRecord
100
AcDbLayerTableRecord
  2
SUNPOU
 70
     0
 62
     7
  6
CONTINUOUS
370
    -3
390
176
  0
LAYER
  5
45
330
2
100
AcDbSymbolTableRecord
100
AcDbLayerTableRecord
  2
DEFPOINTS
 70
     0
 62
     7
  6
CONTINUOUS
290
     0
370
    -3
390
176
  0
LAYER
  5
142
330
2
100
AcDbSymbolTableRecord
100
AcDbLayerTableRecord
  2
TMP
 70
     0
 62
     7
  6
CONTINUOUS
370
    -3
390
176
  0
LAYER
  5
309
330
2
100
AcDbSymbolTableRecord
100
AcDbLayerTableRecord
  2
1
 70
     0
 62
     7
  6
CONTINUOUS
370
    -3
390
176
  0
LAYER
  5
30A
330
2
100
AcDbSymbolTableRecord
100
AcDbLayerTableRecord
  2
3
 70
     0
 62
     7
  6
CONTINUOUS
370
    -3
390
176
  0
LAYER
  5
658
330
2
100
AcDbSymbolTableRecord
100
AcDbLayerTableRecord
  2
2
 70
     0
 62
     7
  6
CONTINUOUS
370
    -3
390
176
  0
ENDTAB
  0
TABLE
  2
STYLE
  5
3
330
0
100
AcDbSymbolTable
 70
     2
  0
STYLE
  5
F
330
3
100
AcDbSymbolTableRecord
100
AcDbTextStyleTableRecord
  2
STANDARD
 70
     0
 40
0.0
 41
1.0
 50
0.0
 71
     0
 42
3.0
  3
txt.shx
  4
bigfont.shx
  0
STYLE
  5
21
330
3
100
AcDbSymbolTableRecord
100
AcDbTextStyleTableRecord
  2

 70
     1
 40
0.0
 41
1.0
 50
0.0
 71
     0
 42
2.5
  3
ltypeshp.shx
  4

  0
ENDTAB
  0
TABLE
  2
VIEW
  5
6
330
0
100
AcDbSymbolTable
 70
     0
  0
ENDTAB
  0
TABLE
  2
UCS
  5
7
330
0
100
AcDbSymbolTable
 70
     0
  0
ENDTAB
  0
TABLE
  2
APPID
  5
9
330
0
100
AcDbSymbolTable
 70
     5
  0
APPID
  5
10
330
9
100
AcDbSymbolTableRecord
100
AcDbRegAppTableRecord
  2
ACAD
 70
     0
  0
APPID
  5
3A
330
9
100
AcDbSymbolTableRecord
100
AcDbRegAppTableRecord
  2
CONTENTTABDATA
 70
     0
  0
APPID
  5
3B
330
9
100
AcDbSymbolTableRecord
100
AcDbRegAppTableRecord
  2
CONTENTCURRENTTAB
 70
     0
  0
APPID
  5
46
330
9
100
AcDbSymbolTableRecord
100
AcDbRegAppTableRecord
  2
CONTENTBLOCKICON
 70
     0
  0
APPID
  5
47
330
9
100
AcDbSymbolTableRecord
100
AcDbRegAppTableRecord
  2
CONTENTBLOCKDESCRIPTION
 70
     0
  0
ENDTAB
  0
TABLE
  2
DIMSTYLE
  5
A
330
0
100
AcDbSymbolTable
 70
    19
100
AcDbDimStyleTable
 71
     5
340
1E2
340
187
340
1E1
340
1E0
340
1D
  0
DIMSTYLE
105
1D
330
A
100
AcDbSymbolTableRecord
100
AcDbDimStyleTableRecord
  2
STANDARD
 70
     0
 40
0.0
 41
3.0
 42
0.5
 43
4.0
 44
1.0
 73
     0
 74
     0
 77
     1
 78
     9
140
3.0
141
0.0
143
0.0394
147
0.5
171
     4
173
     1
176
     2
177
     2
179
     3
271
     3
272
     3
273
     8
274
     4
284
     9
340
F
341
2B
343
2B
344
2B
  0
DIMSTYLE
105
187
330
A
100
AcDbSymbolTableRecord
100
AcDbDimStyleTableRecord
  2
STD01
 70
     0
 41
3.0
 42
0.5
 43
4.0
 44
1.0
 73
     0
 74
     0
 77
     1
 78
     9
 79
     2
140
3.0
141
0.0
143
0.0394
147
0.5
171
     4
173
     1
176
     2
177
     2
179
     3
271
     3
272
     3
273
     8
274
     4
284
     9
340
F
341
2B
343
2B
344
2B
  0
DIMSTYLE
105
1E0
330
A
100
AcDbSymbolTableRecord
100
AcDbDimStyleTableRecord
  2
STD02
 70
     0
 40
0.5
 41
3.0
 42
0.5
 43
4.0
 44
1.0
 73
     0
 74
     0
 77
     1
 78
     9
 79
     2
140
3.0
141
0.0
143
0.0394
144
0.5
147
0.5
171
     4
173
     1
176
     2
177
     2
179
     3
271
     3
272
     3
273
     8
274
     4
284
     9
340
F
341
2B
343
2B
344
2B
  0
DIMSTYLE
105
1E1
330
A
100
AcDbSymbolTableRecord
100
AcDbDimStyleTableRecord
  2
STD05
 70
     0
 40
0.2
 41
3.0
 42
0.5
 43
4.0
 44
1.0
 73
     0
 74
     0
 77
     1
 78
     9
 79
     2
140
3.0
141
0.0
143
0.0394
144
0.2
147
0.5
171
     4
173
     1
176
     2
177
     2
179
     3
271
     3
272
     3
273
     8
274
     4
284
     9
340
F
341
2B
343
2B
344
2B
  0
DIMSTYLE
105
1E2
330
A
100
AcDbSymbolTableRecord
100
AcDbDimStyleTableRecord
  2
STD10
 70
     0
 40
0.1
 41
3.0
 42
0.5
 43
4.0
 44
1.0
 73
     0
 74
     0
 77
     1
 78
     9
 79
     2
140
3.0
141
0.0
143
0.0394
144
0.1
147
0.5
171
     4
173
     1
176
     2
177
     2
179
     3
271
     3
272
     3
273
     8
274
     4
284
     9
340
F
341
2B
343
2B
344
2B
  0
DIMSTYLE
105
202
330
A
100
AcDbSymbolTableRecord
100
AcDbDimStyleTableRecord
  2
STD01$4
 70
     0
 41
3.0
 42
0.5
 43
4.0
 44
1.0
 73
     0
 77
     1
 78
     9
 79
     2
140
3.0
141
0.0
143
0.0394
147
0.5
171
     4
173
     1
176
     2
177
     2
179
     3
271
     3
272
     3
273
     8
274
     4
284
     9
340
F
341
2B
343
2B
344
2B
  0
DIMSTYLE
105
203
330
A
100
AcDbSymbolTableRecord
100
AcDbDimStyleTableRecord
  2
STD01$3
 70
     0
 41
3.0
 42
0.5
 43
4.0
 44
1.0
 73
     0
 77
     1
 78
     9
 79
     2
140
3.0
141
0.0
143
0.0394
147
0.5
171
     4
173
     1
176
     2
177
     2
179
     3
271
     3
272
     3
273
     8
274
     4
284
     9
340
F
341
2B
343
2B
344
2B
  0
DIMSTYLE
105
204
330
A
100
AcDbSymbolTableRecord
100
AcDbDimStyleTableRecord
  2
STD01$6
 70
     0
 41
3.0
 42
0.5
 43
4.0
 44
1.0
 73
     0
 74
     0
 78
     9
 79
     2
140
3.0
141
0.0
143
0.0394
147
0.5
171
     4
173
     1
176
     2
177
     2
179
     3
271
     3
272
     3
273
     8
274
     4
284
     9
340
F
341
2B
343
2B
344
2B
  0
DIMSTYLE
105
205
330
A
100
AcDbSymbolTableRecord
100
AcDbDimStyleTableRecord
  2
STD02$4
 70
     0
 40
0.5
 41
3.0
 42
0.5
 43
4.0
 44
1.0
 73
     0
 77
     1
 78
     9
 79
     2
140
3.0
141
0.0
143
0.0394
144
0.5
147
0.5
171
     4
173
     1
176
     2
177
     2
179
     3
271
     3
272
     3
273
     8
274
     4
284
     9
340
F
341
2B
343
2B
344
2B
  0
DIMSTYLE
105
206
330
A
100
AcDbSymbolTableRecord
100
AcDbDimStyleTableRecord
  2
STD02$3
 70
     0
 40
0.5
 41
3.0
 42
0.5
 43
4.0
 44
1.0
 73
     0
 77
     1
 78
     9
 79
     2
140
3.0
141
0.0
143
0.0394
144
0.5
147
0.5
171
     4
173
     1
176
     2
177
     2
179
     3
271
     3
272
     3
273
     8
274
     4
284
     9
340
F
341
2B
343
2B
344
2B
  0
DIMSTYLE
105
207
330
A
100
AcDbSymbolTableRecord
100
AcDbDimStyleTableRecord
  2
STD02$6
 70
     0
 40
0.5
 41
3.0
 42
0.5
 43
4.0
 44
1.0
 73
     0
 74
     0
 78
     9
 79
     2
140
3.0
141
0.0
143
0.0394
144
0.5
147
0.5
171
     4
173
     1
176
     2
177
     2
179
     3
271
     3
272
     3
273
     8
274
     4
284
     9
340
F
341
2B
343
2B
344
2B
  0
DIMSTYLE
105
208
330
A
100
AcDbSymbolTableRecord
100
AcDbDimStyleTableRecord
  2
STD05$4
 70
     0
 40
0.2
 41
3.0
 42
0.5
 43
4.0
 44
1.0
 73
     0
 77
     1
 78
     9
 79
     2
140
3.0
141
0.0
143
0.0394
144
0.2
147
0.5
171
     4
173
     1
176
     2
177
     2
179
     3
271
     3
272
     3
273
     8
274
     4
284
     9
340
F
341
2B
343
2B
344
2B
  0
DIMSTYLE
105
209
330
A
100
AcDbSymbolTableRecord
100
AcDbDimStyleTableRecord
  2
STD05$3
 70
     0
 40
0.2
 41
3.0
 42
0.5
 43
4.0
 44
1.0
 73
     0
 77
     1
 78
     9
 79
     2
140
3.0
141
0.0
143
0.0394
144
0.2
147
0.5
171
     4
173
     1
176
     2
177
     2
179
     3
271
     3
272
     3
273
     8
274
     4
284
     9
340
F
341
2B
343
2B
344
2B
  0
DIMSTYLE
105
20A
330
A
100
AcDbSymbolTableRecord
100
AcDbDimStyleTableRecord
  2
STD05$6
 70
     0
 40
0.2
 41
3.0
 42
0.5
 43
4.0
 44
1.0
 73
     0
 74
     0
 78
     9
 79
     2
140
3.0
141
0.0
143
0.0394
144
0.2
147
0.5
171
     4
173
     1
176
     2
177
     2
179
     3
271
     3
272
     3
273
     8
274
     4
284
     9
340
F
341
2B
343
2B
344
2B
  0
DIMSTYLE
105
20B
330
A
100
AcDbSymbolTableRecord
100
AcDbDimStyleTableRecord
  2
STD10$4
 70
     0
 40
0.1
 41
3.0
 42
0.5
 43
4.0
 44
1.0
 73
     0
 77
     1
 78
     9
 79
     2
140
3.0
141
0.0
143
0.0394
144
0.1
147
0.5
171
     4
173
     1
176
     2
177
     2
179
     3
271
     3
272
     3
273
     8
274
     4
284
     9
340
F
341
2B
343
2B
344
2B
  0
DIMSTYLE
105
20C
330
A
100
AcDbSymbolTableRecord
100
AcDbDimStyleTableRecord
  2
STD10$3
 70
     0
 40
0.1
 41
3.0
 42
0.5
 43
4.0
 44
1.0
 73
     0
 77
     1
 78
     9
 79
     2
140
3.0
141
0.0
143
0.0394
144
0.1
147
0.5
171
     4
173
     1
176
     2
177
     2
179
     3
271
     3
272
     3
273
     8
274
     4
284
     9
340
F
341
2B
343
2B
344
2B
  0
DIMSTYLE
105
20D
330
A
100
AcDbSymbolTableRecord
100
AcDbDimStyleTableRecord
  2
STD10$6
 70
     0
 40
0.1
 41
3.0
 42
0.5
 43
4.0
 44
1.0
 73
     0
 74
     0
 78
     9
 79
     2
140
3.0
141
0.0
143
0.0394
144
0.1
147
0.5
171
     4
173
     1
176
     2
177
     2
179
     3
271
     3
272
     3
273
     8
274
     4
284
     9
340
F
341
2B
343
2B
344
2B
  0
DIMSTYLE
105
30B
102
{ACAD_REACTORS
330
3E5
330
3E6
330
3E7
330
3E8
330
3F8
330
425
330
426
330
427
330
445
330
446
330
44B
330
466
330
47A
330
47E
330
48D
330
48E
102
}
330
A
100
AcDbSymbolTableRecord
100
AcDbDimStyleTableRecord
  2
ISO-25
 70
     0
 41
2.5
 42
0.625
 43
3.75
 44
1.25
 73
     0
 74
     0
 77
     1
 78
     8
 79
     2
140
3.0
141
0.0
143
0.03937007874016
147
0.625
171
     3
172
     1
176
     2
177
     2
179
     3
271
     3
272
     3
274
     3
283
     0
284
     8
340
F
341
2B
342
2B
  0
DIMSTYLE
105
30C
102
{ACAD_REACTORS
330
403
330
404
102
}
330
A
100
AcDbSymbolTableRecord
100
AcDbDimStyleTableRecord
  2
ISO-25$4
 70
     0
 41
2.5
 42
0.625
 43
3.75
 44
1.25
 73
     0
 77
     1
 78
     8
 79
     2
140
3.0
141
0.0
143
0.03937007874016
147
0.625
171
     3
176
     2
177
     2
179
     3
271
     3
272
     3
274
     3
283
     0
284
     8
340
F
341
2B
342
2B
  0
ENDTAB
  0
TABLE
  2
BLOCK_RECORD
  5
1
330
0
100
AcDbSymbolTable
 70
    19
  0
BLOCK_RECORD
  5
18
330
1
100
AcDbSymbolTableRecord
100
AcDbBlockTableRecord
  2
*MODEL_SPACE
340
179
  0
BLOCK_RECORD
  5
15
330
1
100
AcDbSymbolTableRecord
100
AcDbBlockTableRecord
  2
*PAPER_SPACE
340
17A
  0
BLOCK_RECORD
  5
2B
330
1
100
AcDbSymbolTableRecord
100
AcDbBlockTableRecord
  2
_OPEN
340
0
102
{BLKREFS
331
582
331
583
331
58B
331
58C
331
594
331
595
331
59D
331
59E
331
5A5
331
5A6
331
5B0
331
5B6
331
5BC
331
5BD
331
5C7
331
5C8
331
5D2
331
5D3
331
5DB
331
5DC
331
5E3
331
5E4
331
5EE
331
5EF
331
5F7
331
5F8
331
600
331
601
331
60B
331
60C
331
616
331
617
331
621
331
622
102
}
  0
BLOCK_RECORD
  5
4A1
330
1
100
AcDbSymbolTableRecord
100
AcDbBlockTableRecord
  2
*D1
340
0
  0
BLOCK_RECORD
  5
4AD
330
1
100
AcDbSymbolTableRecord
100
AcDbBlockTableRecord
  2
*D2
340
0
  0
BLOCK_RECORD
  5
4B9
330
1
100
AcDbSymbolTableRecord
100
AcDbBlockTableRecord
  2
*D3
340
0
  0
BLOCK_RECORD
  5
4C5
330
1
100
AcDbSymbolTableRecord
100
AcDbBlockTableRecord
  2
*D4
340
0
  0
BLOCK_RECORD
  5
4D1
330
1
100
AcDbSymbolTableRecord
100
AcDbBlockTableRecord
  2
*D5
340
0
  0
BLOCK_RECORD
  5
4DE
330
1
100
AcDbSymbolTableRecord
100
AcDbBlockTableRecord
  2
*D6
340
0
  0
BLOCK_RECORD
  5
4E7
330
1
100
AcDbSymbolTableRecord
100
AcDbBlockTableRecord
  2
*D7
340
0
  0
BLOCK_RECORD
  5
4F0
330
1
100
AcDbSymbolTableRecord
100
AcDbBlockTableRecord
  2
*D8
340
0
  0
BLOCK_RECORD
  5
4FC
330
1
100
AcDbSymbolTableRecord
100
AcDbBlockTableRecord
  2
*D9
340
0
  0
BLOCK_RECORD
  5
50A
330
1
100
AcDbSymbolTableRecord
100
AcDbBlockTableRecord
  2
*D10
340
0
  0
BLOCK_RECORD
  5
518
330
1
100
AcDbSymbolTableRecord
100
AcDbBlockTableRecord
  2
*D11
340
0
  0
BLOCK_RECORD
  5
524
330
1
100
AcDbSymbolTableRecord
100
AcDbBlockTableRecord
  2
*D12
340
0
  0
BLOCK_RECORD
  5
531
330
1
100
AcDbSymbolTableRecord
100
AcDbBlockTableRecord
  2
*D13
340
0
  0
BLOCK_RECORD
  5
53D
330
1
100
AcDbSymbolTableRecord
100
AcDbBlockTableRecord
  2
*D14
340
0
  0
BLOCK_RECORD
  5
549
330
1
100
AcDbSymbolTableRecord
100
AcDbBlockTableRecord
  2
*D15
340
0
  0
BLOCK_RECORD
  5
555
330
1
100
AcDbSymbolTableRecord
100
AcDbBlockTableRecord
  2
*D16
340
0
  0
BLOCK_RECORD
  5
563
330
1
100
AcDbSymbolTableRecord
100
AcDbBlockTableRecord
  2
*D17
340
0
  0
BLOCK_RECORD
  5
571
330
1
100
AcDbSymbolTableRecord
100
AcDbBlockTableRecord
  2
*D18
340
0
  0
ENDTAB
  0
ENDSEC
  0
SECTION
  2
BLOCKS
  0
BLOCK
  5
19
330
18
100
AcDbEntity
  8
0
100
AcDbBlockBegin
  2
*MODEL_SPACE
 70
     0
 10
0.0
 20
0.0
 30
0.0
  3
*MODEL_SPACE
  1

  0
ENDBLK
  5
1A
330
18
100
AcDbEntity
  8
0
100
AcDbBlockEnd
  0
BLOCK
  5
16
330
15
100
AcDbEntity
 67
     1
  8
0
100
AcDbBlockBegin
  2
*PAPER_SPACE
 70
     0
 10
0.0
 20
0.0
 30
0.0
  3
*PAPER_SPACE
  1

  0
ENDBLK
  5
17
330
15
100
AcDbEntity
 67
     1
  8
0
100
AcDbBlockEnd
  0
BLOCK
  5
2C
330
2B
100
AcDbEntity
  8
0
100
AcDbBlockBegin
  2
_OPEN
 70
     0
 10
0.0
 20
0.0
 30
0.0
  3
_OPEN
  1

  0
LINE
  5
2D
330
2B
100
AcDbEntity
  8
0
  6
ByBlock
 62
     0
100
AcDbLine
 10
-1.0
 20
0.1666666666666666
 30
0.0
 11
0.0
 21
0.0
 31
0.0
  0
LINE
  5
2E
330
2B
100
AcDbEntity
  8
0
  6
ByBlock
 62
     0
100
AcDbLine
 10
0.0
 20
0.0
 30
0.0
 11
-1.0
 21
-0.1666666666666666
 31
0.0
  0
LINE
  5
2F
330
2B
100
AcDbEntity
  8
0
  6
ByBlock
 62
     0
100
AcDbLine
 10
0.0
 20
0.0
 30
0.0
 11
-1.0
 21
0.0
 31
0.0
  0
ENDBLK
  5
30
330
2B
100
AcDbEntity
  8
0
100
AcDbBlockEnd
  0
BLOCK
  5
4AB
330
4A1
100
AcDbEntity
  8
0
100
AcDbBlockBegin
  2
*D1
 70
     1
 10
0.0
 20
0.0
 30
0.0
  3
*D1
  1

  0
LINE
  5
57F
330
4A1
100
AcDbEntity
  8
3
 62
     2
370
    -2
100
AcDbLine
 10
21.87362700194093
 20
20.28520016371385
 30
0.0
 11
21.87362700194093
 21
10.58633424976665
 31
0.0
  0
LINE
  5
580
330
4A1
100
AcDbEntity
  8
3
 62
     2
370
    -2
100
AcDbLine
 10
121.8736270019409
 20
20.28520016371385
 30
0.0
 11
121.8736270019409
 21
10.58633424976665
 31
0.0
  0
LINE
  5
581
330
4A1
100
AcDbEntity
  8
3
 62
     2
370
    -2
100
AcDbLine
 10
24.37362700194093
 20
11.83633424976665
 30
0.0
 11
119.3736270019409
 21
11.83633424976665
 31
0.0
  0
INSERT
  5
582
330
4A1
100
AcDbEntity
  8
3
 62
     2
370
    -2
100
AcDbBlockReference
  2
_OPEN
 10
21.87362700194093
 20
11.83633424976665
 30
0.0
 41
2.5
 42
2.5
 43
2.5
 50
180.0
  0
INSERT
  5
583
330
4A1
100
AcDbEntity
  8
3
 62
     2
370
    -2
100
AcDbBlockReference
  2
_OPEN
 10
121.8736270019409
 20
11.83633424976665
 30
0.0
 41
2.5
 42
2.5
 43
2.5
  0
MTEXT
  5
584
330
4A1
100
AcDbEntity
  8
3
 62
     0
100
AcDbMText
 10
71.87362700194094
 20
13.96133424976665
 30
0.0
 40
3.0
 41
0.0
 71
     5
 72
     1
  1
100
 73
     1
 44
1.0
  0
POINT
  5
585
330
4A1
100
AcDbEntity
  8
DEFPOINTS
 62
     0
100
AcDbPoint
 10
21.87362700194093
 20
20.91020016371385
 30
0.0
  0
POINT
  5
586
330
4A1
100
AcDbEntity
  8
DEFPOINTS
 62
     0
100
AcDbPoint
 10
121.8736270019409
 20
20.91020016371385
 30
0.0
  0
POINT
  5
587
330
4A1
100
AcDbEntity
  8
DEFPOINTS
 62
     0
100
AcDbPoint
 10
121.8736270019409
 20
11.83633424976665
 30
0.0
  0
ENDBLK
  5
4AC
330
4A1
100
AcDbEntity
  8
0
100
AcDbBlockEnd
  0
BLOCK
  5
4B7
330
4AD
100
AcDbEntity
  8
0
100
AcDbBlockBegin
  2
*D2
 70
     1
 10
0.0
 20
0.0
 30
0.0
  3
*D2
  1

  0
LINE
  5
588
330
4AD
100
AcDbEntity
  8
3
 62
     2
370
    -2
100
AcDbLine
 10
30.87362700194089
 20
38.53520016371385
 30
0.0
 11
30.87362700194089
 21
47.20681724030771
 31
0.0
  0
LINE
  5
589
330
4AD
100
AcDbEntity
  8
3
 62
     2
370
    -2
100
AcDbLine
 10
112.873627001941
 20
38.53520016371385
 30
0.0
 11
112.873627001941
 21
47.20681724030771
 31
0.0
  0
LINE
  5
58A
330
4AD
100
AcDbEntity
  8
3
 62
     2
370
    -2
100
AcDbLine
 10
33.37362700194089
 20
45.95681724030771
 30
0.0
 11
110.373627001941
 21
45.95681724030771
 31
0.0
  0
INSERT
  5
58B
330
4AD
100
AcDbEntity
  8
3
 62
     2
370
    -2
100
AcDbBlockReference
  2
_OPEN
 10
30.87362700194089
 20
45.95681724030771
 30
0.0
 41
2.5
 42
2.5
 43
2.5
 50
180.0
  0
INSERT
  5
58C
330
4AD
100
AcDbEntity
  8
3
 62
     2
370
    -2
100
AcDbBlockReference
  2
_OPEN
 10
112.873627001941
 20
45.95681724030771
 30
0.0
 41
2.5
 42
2.5
 43
2.5
  0
MTEXT
  5
58D
330
4AD
100
AcDbEntity
  8
3
 62
     0
100
AcDbMText
 10
71.87362700194097
 20
48.08181724030771
 30
0.0
 40
3.0
 41
0.0
 71
     5
 72
     1
  1
82
 73
     1
 44
1.0
  0
POINT
  5
58E
330
4AD
100
AcDbEntity
  8
DEFPOINTS
 62
     0
100
AcDbPoint
 10
30.87362700194089
 20
37.91020016371385
 30
0.0
  0
POINT
  5
58F
330
4AD
100
AcDbEntity
  8
DEFPOINTS
 62
     0
100
AcDbPoint
 10
112.873627001941
 20
37.91020016371385
 30
0.0
  0
POINT
  5
590
330
4AD
100
AcDbEntity
  8
DEFPOINTS
 62
     0
100
AcDbPoint
 10
112.873627001941
 20
45.95681724030771
 30
0.0
  0
ENDBLK
  5
4B8
330
4AD
100
AcDbEntity
  8
0
100
AcDbBlockEnd
  0
BLOCK
  5
4C3
330
4B9
100
AcDbEntity
  8
0
100
AcDbBlockBegin
  2
*D3
 70
     1
 10
0.0
 20
0.0
 30
0.0
  3
*D3
  1

  0
LINE
  5
591
330
4B9
100
AcDbEntity
  8
3
 62
     2
370
    -2
100
AcDbLine
 10
121.8736270019409
 20
77.25082421081117
 30
0.0
 11
121.8736270019409
 21
58.77263435363579
 31
0.0
  0
LINE
  5
592
330
4B9
100
AcDbEntity
  8
3
 62
     2
370
    -2
100
AcDbLine
 10
21.87362700194094
 20
77.25082421081117
 30
0.0
 11
21.87362700194094
 21
58.77263435363579
 31
0.0
  0
LINE
  5
593
330
4B9
100
AcDbEntity
  8
3
 62
     2
370
    -2
100
AcDbLine
 10
119.373627001941
 20
60.02263435363579
 30
0.0
 11
24.37362700194094
 21
60.02263435363579
 31
0.0
  0
INSERT
  5
594
330
4B9
100
AcDbEntity
  8
3
 62
     2
370
    -2
100
AcDbBlockReference
  2
_OPEN
 10
121.8736270019409
 20
60.02263435363579
 30
0.0
 41
2.5
 42
2.5
 43
2.5
  0
INSERT
  5
595
330
4B9
100
AcDbEntity
  8
3
 62
     2
370
    -2
100
AcDbBlockReference
  2
_OPEN
 10
21.87362700194094
 20
60.02263435363579
 30
0.0
 41
2.5
 42
2.5
 43
2.5
 50
180.0
  0
MTEXT
  5
596
330
4B9
100
AcDbEntity
  8
3
 62
     0
100
AcDbMText
 10
71.87362700194097
 20
62.14763435363579
 30
0.0
 40
3.0
 41
0.0
 71
     5
 72
     1
  1
100
 73
     1
 44
1.0
  0
POINT
  5
597
330
4B9
100
AcDbEntity
  8
DEFPOINTS
 62
     0
100
AcDbPoint
 10
121.8736270019409
 20
77.87582421081117
 30
0.0
  0
POINT
  5
598
330
4B9
100
AcDbEntity
  8
DEFPOINTS
 62
     0
100
AcDbPoint
 10
21.87362700194094
 20
77.87582421081117
 30
0.0
  0
POINT
  5
599
330
4B9
100
AcDbEntity
  8
DEFPOINTS
 62
     0
100
AcDbPoint
 10
21.87362700194094
 20
60.02263435363579
 30
0.0
  0
ENDBLK
  5
4C4
330
4B9
100
AcDbEntity
  8
0
100
AcDbBlockEnd
  0
BLOCK
  5
4CF
330
4C5
100
AcDbEntity
  8
0
100
AcDbBlockBegin
  2
*D4
 70
     1
 10
0.0
 20
0.0
 30
0.0
  3
*D4
  1

  0
LINE
  5
59A
330
4C5
100
AcDbEntity
  8
3
 62
     2
370
    -2
100
AcDbLine
 10
25.87362700194097
 20
73.25082421081117
 30
0.0
 11
25.87362700194097
 21
64.09377824750868
 31
0.0
  0
LINE
  5
59B
330
4C5
100
AcDbEntity
  8
3
 62
     2
370
    -2
100
AcDbLine
 10
117.8736270019409
 20
73.25082421081106
 30
0.0
 11
117.8736270019409
 21
64.09377824750868
 31
0.0
  0
LINE
  5
59C
330
4C5
100
AcDbEntity
  8
3
 62
     2
370
    -2
100
AcDbLine
 10
28.37362700194097
 20
65.34377824750868
 30
0.0
 11
115.3736270019409
 21
65.34377824750868
 31
0.0
  0
INSERT
  5
59D
330
4C5
100
AcDbEntity
  8
3
 62
     2
370
    -2
100
AcDbBlockReference
  2
_OPEN
 10
25.87362700194097
 20
65.34377824750868
 30
0.0
 41
2.5
 42
2.5
 43
2.5
 50
180.0
  0
INSERT
  5
59E
330
4C5
100
AcDbEntity
  8
3
 62
     2
370
    -2
100
AcDbBlockReference
  2
_OPEN
 10
117.8736270019409
 20
65.34377824750868
 30
0.0
 41
2.5
 42
2.5
 43
2.5
  0
MTEXT
  5
59F
330
4C5
100
AcDbEntity
  8
3
 62
     0
100
AcDbMText
 10
71.87362700194097
 20
67.46877824750868
 30
0.0
 40
3.0
 41
0.0
 71
     5
 72
     1
  1
92
 73
     1
 44
1.0
  0
POINT
  5
5A0
330
4C5
100
AcDbEntity
  8
DEFPOINTS
 62
     0
100
AcDbPoint
 10
25.87362700194097
 20
73.87582421081117
 30
0.0
  0
POINT
  5
5A1
330
4C5
100
AcDbEntity
  8
DEFPOINTS
 62
     0
100
AcDbPoint
 10
117.8736270019409
 20
73.87582421081106
 30
0.0
  0
POINT
  5
5A2
330
4C5
100
AcDbEntity
  8
DEFPOINTS
 62
     0
100
AcDbPoint
 10
117.8736270019409
 20
65.34377824750868
 30
0.0
  0
ENDBLK
  5
4D0
330
4C5
100
AcDbEntity
  8
0
100
AcDbBlockEnd
  0
BLOCK
  5
4DC
330
4D1
100
AcDbEntity
  8
0
100
AcDbBlockBegin
  2
*D5
 70
     1
 10
0.0
 20
0.0
 30
0.0
  3
*D5
  1

  0
LINE
  5
5A3
330
4D1
100
AcDbEntity
  8
3
 62
     2
370
    -2
100
AcDbLine
 10
21.87362700194094
 20
24.23520016371389
 30
0.0
 11
21.87362700194093
 21
35.058092003335
 31
0.0
  0
ARC
  5
5A4
330
4D1
100
AcDbEntity
  8
3
 62
     2
370
    -2
100
AcDbCircle
 10
21.87362700194094
 20
23.11020016371384
 30
0.0
 40
10.69789183962116
100
AcDbArc
 50
72.11603515495041
 51
76.57984134945883
  0
INSERT
  5
5A5
330
4D1
100
AcDbEntity
  8
3
 62
     2
370
    -2
100
AcDbBlockReference
  2
_OPEN
 10
27.43204411318147
 20
32.25070830219834
 30
0.0
 41
2.5
 42
2.5
 43
2.5
 50
335.4059558296798
  0
INSERT
  5
5A6
330
4D1
100
AcDbEntity
  8
3
 62
     2
370
    -2
100
AcDbBlockReference
  2
_OPEN
 10
21.87362700194093
 20
33.808092003335
 30
0.0
 41
2.5
 42
2.5
 43
2.5
 50
173.2899206747294
  0
MTEXT
  5
5A7
330
4D1
100
AcDbEntity
  8
3
 62
     0
100
AcDbMText
 10
26.37088835393521
 20
35.11858038181493
 30
0.0
 40
3.0
 41
0.0
 71
     5
 72
     1
  1
31.304°
 11
0.9364798805365159
 21
-0.3507213043861361
 31
0.0
 73
     1
 44
1.0
  0
POINT
  5
5A8
330
4D1
100
AcDbEntity
  8
DEFPOINTS
 62
     0
100
AcDbPoint
 10
23.81117489288331
 20
33.63116960490783
 30
0.0
  0
POINT
  5
5A9
330
4D1
100
AcDbEntity
  8
DEFPOINTS
 62
     0
100
AcDbPoint
 10
21.87362700194093
 20
23.61020016371389
 30
0.0
  0
POINT
  5
5AA
330
4D1
100
AcDbEntity
  8
DEFPOINTS
 62
     0
100
AcDbPoint
 10
29.99718621325118
 20
36.46894197786854
 30
0.0
  0
POINT
  5
5AB
330
4D1
100
AcDbEntity
  8
DEFPOINTS
 62
     0
100
AcDbPoint
 10
22.17768105599502
 20
23.61020016371389
 30
0.0
  0
POINT
  5
5AC
330
4D1
100
AcDbEntity
  8
DEFPOINTS
 62
     0
100
AcDbPoint
 10
21.87362700194094
 20
20.91020016371385
 30
0.0
  0
ENDBLK
  5
4DD
330
4D1
100
AcDbEntity
  8
0
100
AcDbBlockEnd
  0
BLOCK
  5
4E5
330
4DE
100
AcDbEntity
  8
0
100
AcDbBlockBegin
  2
*D6
 70
     1
 10
0.0
 20
0.0
 30
0.0
  3
*D6
  1

  0
LINE
  5
5AD
330
4DE
100
AcDbEntity
  8
3
 62
     2
370
    -2
100
AcDbLine
 10
6.529289607969374
 20
42.73187564994443
 30
0.0
 11
23.35428960796936
 21
42.73187564994443
 31
0.0
  0
LINE
  5
5AE
330
4DE
100
AcDbEntity
  8
3
 62
     2
370
    -2
100
AcDbLine
 10
23.35428960796936
 20
42.73187564994443
 30
0.0
 11
28.36898426749645
 21
38.47132506624945
 31
0.0
  0
MTEXT
  5
5AF
330
4DE
100
AcDbEntity
  8
3
 62
     0
100
AcDbMText
 10
14.62928960796936
 20
44.85687564994442
 30
0.0
 40
3.0
 41
0.0
 71
     5
 72
     1
  1
R3(全周)
 73
     1
 44
1.0
  0
INSERT
  5
5B0
330
4DE
100
AcDbEntity
  8
3
 62
     2
370
    -2
100
AcDbBlockReference
  2
_OPEN
 10
30.27419620493487
 20
36.85263192873321
 30
0.0
 41
2.5
 42
2.5
 43
2.5
 50
319.6483333509513
  0
POINT
  5
5B1
330
4DE
100
AcDbEntity
  8
DEFPOINTS
 62
     0
100
AcDbPoint
 10
30.27419620493487
 20
36.85263192873321
 30
0.0
  0
POINT
  5
5B2
330
4DE
100
AcDbEntity
  8
DEFPOINTS
 62
     0
100
AcDbPoint
 10
32.56045052986081
 20
34.91020016371385
 30
0.0
  0
ENDBLK
  5
4E6
330
4DE
100
AcDbEntity
  8
0
100
AcDbBlockEnd
  0
BLOCK
  5
4EE
330
4E7
100
AcDbEntity
  8
0
100
AcDbBlockBegin
  2
*D7
 70
     1
 10
0.0
 20
0.0
 30
0.0
  3
*D7
  1

  0
LINE
  5
5B3
330
4E7
100
AcDbEntity
  8
3
 62
     2
370
    -2
100
AcDbLine
 10
-0.0000002117971007
 20
66.47858192518923
 30
0.0
 11
11.62499978820295
 21
66.47858192518921
 31
0.0
  0
LINE
  5
5B4
330
4E7
100
AcDbEntity
  8
3
 62
     2
370
    -2
100
AcDbLine
 10
11.62499978820295
 20
66.47858192518921
 30
0.0
 11
20.86621700951543
 21
73.38572118494335
 31
0.0
  0
MTEXT
  5
5B5
330
4E7
100
AcDbEntity
  8
3
 62
     0
100
AcDbMText
 10
5.499999788202902
 20
68.60358192518922
 30
0.0
 40
3.0
 41
0.0
 71
     5
 72
     1
  1
4-R5
 73
     1
 44
1.0
  0
INSERT
  5
5B6
330
4E7
100
AcDbEntity
  8
3
 62
     2
370
    -2
100
AcDbBlockReference
  2
_OPEN
 10
22.8686870069905
 20
74.88242219356606
 30
0.0
 41
2.5
 42
2.5
 43
2.5
 50
36.7754468492687
  0
POINT
  5
5B7
330
4E7
100
AcDbEntity
  8
DEFPOINTS
 62
     0
100
AcDbPoint
 10
22.8686870069905
 20
74.88242219356606
 30
0.0
  0
POINT
  5
5B8
330
4E7
100
AcDbEntity
  8
DEFPOINTS
 62
     0
100
AcDbPoint
 10
26.87362700194102
 20
77.87582421081173
 30
0.0
  0
ENDBLK
  5
4EF
330
4E7
100
AcDbEntity
  8
0
100
AcDbBlockEnd
  0
BLOCK
  5
4FA
330
4F0
100
AcDbEntity
  8
0
100
AcDbBlockBegin
  2
*D8
 70
     1
 10
0.0
 20
0.0
 30
0.0
  3
*D8
  1

  0
LINE
  5
5B9
330
4F0
100
AcDbEntity
  8
3
 62
     2
370
    -2
100
AcDbLine
 10
122.498627001941
 20
20.91020016371385
 30
0.0
 11
138.4999393993504
 21
20.91020016371385
 31
0.0
  0
LINE
  5
5BA
330
4F0
100
AcDbEntity
  8
3
 62
     2
370
    -2
100
AcDbLine
 10
111.8118034740208
 20
37.91020016371385
 30
0.0
 11
138.4999393993504
 21
37.91020016371384
 31
0.0
  0
LINE
  5
5BB
330
4F0
100
AcDbEntity
  8
3
 62
     2
370
    -2
100
AcDbLine
 10
137.2499393993504
 20
23.41020016371385
 30
0.0
 11
137.2499393993504
 21
35.41020016371384
 31
0.0
  0
INSERT
  5
5BC
330
4F0
100
AcDbEntity
  8
3
 62
     2
370
    -2
100
AcDbBlockReference
  2
_OPEN
 10
137.2499393993504
 20
20.91020016371385
 30
0.0
 41
2.5
 42
2.5
 43
2.5
 50
270.0
  0
INSERT
  5
5BD
330
4F0
100
AcDbEntity
  8
3
 62
     2
370
    -2
100
AcDbBlockReference
  2
_OPEN
 10
137.2499393993504
 20
37.91020016371384
 30
0.0
 41
2.5
 42
2.5
 43
2.5
 50
90.0
  0
MTEXT
  5
5BE
330
4F0
100
AcDbEntity
  8
3
 62
     0
100
AcDbMText
 10
135.1249393993504
 20
29.41020016371387
 30
0.0
 40
3.0
 41
0.0
 71
     5
 72
     1
  1
17
 11
0.0000000000000001
 21
1.0
 31
0.0
 73
     1
 44
1.0
  0
POINT
  5
5BF
330
4F0
100
AcDbEntity
  8
DEFPOINTS
 62
     0
100
AcDbPoint
 10
121.8736270019409
 20
20.91020016371385
 30
0.0
  0
POINT
  5
5C0
330
4F0
100
AcDbEntity
  8
DEFPOINTS
 62
     0
100
AcDbPoint
 10
111.1868034740208
 20
37.91020016371385
 30
0.0
  0
POINT
  5
5C1
330
4F0
100
AcDbEntity
  8
DEFPOINTS
 62
     0
100
AcDbPoint
 10
137.2499393993504
 20
37.91020016371384
 30
0.0
  0
ENDBLK
  5
4FB
330
4F0
100
AcDbEntity
  8
0
100
AcDbBlockEnd
  0
BLOCK
  5
508
330
4FC
100
AcDbEntity
  8
0
100
AcDbBlockBegin
  2
*D9
 70
     1
 10
0.0
 20
0.0
 30
0.0
  3
*D9
  1

  0
LINE
  5
5C2
330
4FC
100
AcDbEntity
  8
3
 62
     2
370
    -2
100
AcDbLine
 10
113.0808909136566
 20
35.71020016371381
 30
0.0
 11
133.195800472758
 21
35.71020016371381
 31
0.0
  0
LINE
  5
5C3
330
4FC
100
AcDbEntity
  8
3
 62
     2
370
    -2
100
AcDbLine
 10
111.8118034740208
 20
37.91020016371385
 30
0.0
 11
133.195800472758
 21
37.91020016371384
 31
0.0
  0
LINE
  5
5C4
330
4FC
100
AcDbEntity
  8
3
 62
     2
370
    -2
100
AcDbLine
 10
131.945800472758
 20
33.21020016371381
 30
0.0
 11
131.945800472758
 21
30.71020016371381
 31
0.0
  0
LINE
  5
5C5
330
4FC
100
AcDbEntity
  8
3
 62
     2
370
    -2
100
AcDbLine
 10
131.945800472758
 20
40.41020016371384
 30
0.0
 11
131.945800472758
 21
50.16020016371385
 31
0.0
  0
LINE
  5
5C6
330
4FC
100
AcDbEntity
  8
3
 62
     2
370
    -2
100
AcDbLine
 10
131.945800472758
 20
35.71020016371381
 30
0.0
 11
131.945800472758
 21
37.91020016371384
 31
0.0
  0
INSERT
  5
5C7
330
4FC
100
AcDbEntity
  8
3
 62
     2
370
    -2
100
AcDbBlockReference
  2
_OPEN
 10
131.945800472758
 20
35.71020016371381
 30
0.0
 41
2.5
 42
2.5
 43
2.5
 50
90.0
  0
INSERT
  5
5C8
330
4FC
100
AcDbEntity
  8
3
 62
     2
370
    -2
100
AcDbBlockReference
  2
_OPEN
 10
131.945800472758
 20
37.91020016371384
 30
0.0
 41
2.5
 42
2.5
 43
2.5
 50
270.0
  0
MTEXT
  5
5C9
330
4FC
100
AcDbEntity
  8
3
 62
     0
100
AcDbMText
 10
129.820800472758
 20
46.53520016371387
 30
0.0
 40
3.0
 41
0.0
 71
     5
 72
     1
  1
2.2
 11
0.0000000000000001
 21
1.0
 31
0.0
 73
     1
 44
1.0
  0
POINT
  5
5CA
330
4FC
100
AcDbEntity
  8
DEFPOINTS
 62
     0
100
AcDbPoint
 10
112.4558909136565
 20
35.71020016371381
 30
0.0
  0
POINT
  5
5CB
330
4FC
100
AcDbEntity
  8
DEFPOINTS
 62
     0
100
AcDbPoint
 10
111.1868034740208
 20
37.91020016371385
 30
0.0
  0
POINT
  5
5CC
330
4FC
100
AcDbEntity
  8
DEFPOINTS
 62
     0
100
AcDbPoint
 10
131.945800472758
 20
37.91020016371384
 30
0.0
  0
ENDBLK
  5
509
330
4FC
100
AcDbEntity
  8
0
100
AcDbBlockEnd
  0
BLOCK
  5
516
330
50A
100
AcDbEntity
  8
0
100
AcDbBlockBegin
  2
*D10
 70
     1
 10
0.0
 20
0.0
 30
0.0
  3
*D10
  1

  0
LINE
  5
5CD
330
50A
100
AcDbEntity
  8
3
 62
     2
370
    -2
100
AcDbLine
 10
122.498627001941
 20
20.91020016371385
 30
0.0
 11
129.0977872606316
 21
20.91020016371385
 31
0.0
  0
LINE
  5
5CE
330
50A
100
AcDbEntity
  8
3
 62
     2
370
    -2
100
AcDbLine
 10
122.498627001941
 20
23.11020016371378
 30
0.0
 11
129.0977872606316
 21
23.11020016371378
 31
0.0
  0
LINE
  5
5CF
330
50A
100
AcDbEntity
  8
3
 62
     2
370
    -2
100
AcDbLine
 10
127.8477872606316
 20
18.41020016371385
 30
0.0
 11
127.8477872606316
 21
15.91020016371385
 31
0.0
  0
LINE
  5
5D0
330
50A
100
AcDbEntity
  8
3
 62
     2
370
    -2
100
AcDbLine
 10
127.8477872606316
 20
25.61020016371378
 30
0.0
 11
127.8477872606316
 21
35.36020016371378
 31
0.0
  0
LINE
  5
5D1
330
50A
100
AcDbEntity
  8
3
 62
     2
370
    -2
100
AcDbLine
 10
127.8477872606316
 20
20.91020016371385
 30
0.0
 11
127.8477872606316
 21
23.11020016371378
 31
0.0
  0
INSERT
  5
5D2
330
50A
100
AcDbEntity
  8
3
 62
     2
370
    -2
100
AcDbBlockReference
  2
_OPEN
 10
127.8477872606316
 20
20.91020016371385
 30
0.0
 41
2.5
 42
2.5
 43
2.5
 50
90.0
  0
INSERT
  5
5D3
330
50A
100
AcDbEntity
  8
3
 62
     2
370
    -2
100
AcDbBlockReference
  2
_OPEN
 10
127.8477872606316
 20
23.11020016371378
 30
0.0
 41
2.5
 42
2.5
 43
2.5
 50
270.0
  0
MTEXT
  5
5D4
330
50A
100
AcDbEntity
  8
3
 62
     0
100
AcDbMText
 10
125.7227872606316
 20
31.7352001637138
 30
0.0
 40
3.0
 41
0.0
 71
     5
 72
     1
  1
2.2
 11
0.0000000000000001
 21
1.0
 31
0.0
 73
     1
 44
1.0
  0
POINT
  5
5D5
330
50A
100
AcDbEntity
  8
DEFPOINTS
 62
     0
100
AcDbPoint
 10
121.8736270019409
 20
20.91020016371385
 30
0.0
  0
POINT
  5
5D6
330
50A
100
AcDbEntity
  8
DEFPOINTS
 62
     0
100
AcDbPoint
 10
121.8736270019409
 20
23.11020016371378
 30
0.0
  0
POINT
  5
5D7
330
50A
100
AcDbEntity
  8
DEFPOINTS
 62
     0
100
AcDbPoint
 10
127.8477872606316
 20
23.11020016371378
 30
0.0
  0
ENDBLK
  5
517
330
50A
100
AcDbEntity
  8
0
100
AcDbBlockEnd
  0
BLOCK
  5
522
330
518
100
AcDbEntity
  8
0
100
AcDbBlockBegin
  2
*D11
 70
     1
 10
0.0
 20
0.0
 30
0.0
  3
*D11
  1

  0
LINE
  5
5D8
330
518
100
AcDbEntity
  8
3
 62
     2
370
    -2
100
AcDbLine
 10
161.7348483157236
 20
99.92942432442566
 30
0.0
 11
151.7983906617372
 21
94.11744249352992
 31
0.0
  0
LINE
  5
5D9
330
518
100
AcDbEntity
  8
3
 62
     2
370
    -2
100
AcDbLine
 10
175.8717469748204
 20
75.76026843717079
 30
0.0
 11
165.935289320834
 21
69.94828660627504
 31
0.0
  0
LINE
  5
5DA
330
518
100
AcDbEntity
  8
3
 62
     2
370
    -2
100
AcDbLine
 10
154.1395939298376
 20
92.59059369373471
 30
0.0
 11
165.7520463998099
 21
72.73735850063248
 31
0.0
  0
INSERT
  5
5DB
330
518
100
AcDbEntity
  8
3
 62
     2
370
    -2
100
AcDbBlockReference
  2
_OPEN
 10
152.8773708352754
 20
94.74855404081102
 30
0.0
 41
2.5
 42
2.5
 43
2.5
 50
120.3240000000021
  0
INSERT
  5
5DC
330
518
100
AcDbEntity
  8
3
 62
     2
370
    -2
100
AcDbBlockReference
  2
_OPEN
 10
167.0142694943721
 20
70.57939815355616
 30
0.0
 41
2.5
 42
2.5
 43
2.5
 50
300.3240000000021
  0
MTEXT
  5
5DD
330
518
100
AcDbEntity
  8
3
 62
     0
100
AcDbMText
 10
161.7800864598386
 20
83.73686572756147
 30
0.0
 40
3.0
 41
0.0
 71
     5
 72
     1
  1
28
 11
0.5048892378248845
 21
-0.8631841388305321
 31
0.0
 73
     1
 44
1.0
  0
POINT
  5
5DE
330
518
100
AcDbEntity
  8
DEFPOINTS
 62
     0
100
AcDbPoint
 10
162.2743384024927
 20
100.2449800980662
 30
0.0
  0
POINT
  5
5DF
330
518
100
AcDbEntity
  8
DEFPOINTS
 62
     0
100
AcDbPoint
 10
176.4112370615895
 20
76.07582421081135
 30
0.0
  0
POINT
  5
5E0
330
518
100
AcDbEntity
  8
DEFPOINTS
 62
     0
100
AcDbPoint
 10
167.0142694943721
 20
70.57939815355616
 30
0.0
  0
ENDBLK
  5
523
330
518
100
AcDbEntity
  8
0
100
AcDbBlockEnd
  0
BLOCK
  5
52F
330
524
100
AcDbEntity
  8
0
100
AcDbBlockBegin
  2
*D12
 70
     1
 10
0.0
 20
0.0
 30
0.0
  3
*D12
  1

  0
LINE
  5
5E1
330
524
100
AcDbEntity
  8
3
 62
     2
370
    -2
100
AcDbLine
 10
160.4600536932319
 20
146.0008242108113
 30
0.0
 11
160.4600536932319
 21
170.3808509753956
 31
0.0
  0
ARC
  5
5E2
330
524
100
AcDbEntity
  8
3
 62
     2
370
    -2
100
AcDbCircle
 10
160.4600536932319
 20
145.3758242108113
 30
0.0
 40
23.75502676458437
100
AcDbArc
 50
65.70864460957105
 51
83.96735539042854
  0
INSERT
  5
5E3
330
524
100
AcDbEntity
  8
3
 62
     2
370
    -2
100
AcDbBlockReference
  2
_OPEN
 10
172.453711050912
 20
165.8807865314957
 30
0.0
 41
2.5
 42
2.5
 43
2.5
 50
332.6923223047852
  0
INSERT
  5
5E4
330
524
100
AcDbEntity
  8
3
 62
     2
370
    -2
100
AcDbBlockReference
  2
_OPEN
 10
160.4600536932319
 20
169.1308509753957
 30
0.0
 41
2.5
 42
2.5
 43
2.5
 50
176.9836776952142
  0
MTEXT
  5
5E5
330
524
100
AcDbEntity
  8
3
 62
     0
100
AcDbMText
 10
166.3728113714481
 20
170.5713611563558
 30
0.0
 40
3.0
 41
0.0
 71
     5
 72
     1
  1
30.324°
 11
0.9735514253804192
 21
-0.2284679893108747
 31
0.0
 73
     1
 44
1.0
  0
POINT
  5
5E6
330
524
100
AcDbEntity
  8
DEFPOINTS
 62
     0
100
AcDbPoint
 10
168.6688469711319
 20
167.6674596265188
 30
0.0
  0
POINT
  5
5E7
330
524
100
AcDbEntity
  8
DEFPOINTS
 62
     0
100
AcDbPoint
 10
160.4600536932319
 20
144.5628784144687
 30
0.0
  0
POINT
  5
5E8
330
524
100
AcDbEntity
  8
DEFPOINTS
 62
     0
100
AcDbPoint
 10
160.8705012767402
 20
146.0775461279433
 30
0.0
  0
POINT
  5
5E9
330
524
100
AcDbEntity
  8
DEFPOINTS
 62
     0
100
AcDbPoint
 10
175.007858705072
 20
170.2474863502528
 30
0.0
  0
POINT
  5
5EA
330
524
100
AcDbEntity
  8
DEFPOINTS
 62
     0
100
AcDbPoint
 10
160.4600536932319
 20
101.1887700071537
 30
0.0
  0
ENDBLK
  5
530
330
524
100
AcDbEntity
  8
0
100
AcDbBlockEnd
  0
BLOCK
  5
53B
330
531
100
AcDbEntity
  8
0
100
AcDbBlockBegin
  2
*D13
 70
     1
 10
0.0
 20
0.0
 30
0.0
  3
*D13
  1

  0
LINE
  5
5EB
330
531
100
AcDbEntity
  8
3
 62
     2
370
    -2
100
AcDbLine
 10
117.4986270019409
 20
172.8758242108111
 30
0.0
 11
137.5950864621198
 21
172.8758242108111
 31
0.0
  0
LINE
  5
5EC
330
531
100
AcDbEntity
  8
3
 62
     2
370
    -2
100
AcDbLine
 10
117.498627001941
 20
72.87582421081117
 30
0.0
 11
137.5950864621198
 21
72.87582421081117
 31
0.0
  0
LINE
  5
5ED
330
531
100
AcDbEntity
  8
3
 62
     2
370
    -2
100
AcDbLine
 10
136.3450864621198
 20
170.3758242108111
 30
0.0
 11
136.3450864621198
 21
75.37582421081117
 31
0.0
  0
INSERT
  5
5EE
330
531
100
AcDbEntity
  8
3
 62
     2
370
    -2
100
AcDbBlockReference
  2
_OPEN
 10
136.3450864621198
 20
172.8758242108111
 30
0.0
 41
2.5
 42
2.5
 43
2.5
 50
90.0
  0
INSERT
  5
5EF
330
531
100
AcDbEntity
  8
3
 62
     2
370
    -2
100
AcDbBlockReference
  2
_OPEN
 10
136.3450864621198
 20
72.87582421081117
 30
0.0
 41
2.5
 42
2.5
 43
2.5
 50
270.0
  0
MTEXT
  5
5F0
330
531
100
AcDbEntity
  8
3
 62
     0
100
AcDbMText
 10
134.2200864621198
 20
122.8758242108112
 30
0.0
 40
3.0
 41
0.0
 71
     5
 72
     1
  1
100
 11
0.0000000000000001
 21
1.0
 31
0.0
 73
     1
 44
1.0
  0
POINT
  5
5F1
330
531
100
AcDbEntity
  8
DEFPOINTS
 62
     0
100
AcDbPoint
 10
116.8736270019409
 20
172.8758242108111
 30
0.0
  0
POINT
  5
5F2
330
531
100
AcDbEntity
  8
DEFPOINTS
 62
     0
100
AcDbPoint
 10
116.873627001941
 20
72.87582421081117
 30
0.0
  0
POINT
  5
5F3
330
531
100
AcDbEntity
  8
DEFPOINTS
 62
     0
100
AcDbPoint
 10
136.3450864621198
 20
72.87582421081117
 30
0.0
  0
ENDBLK
  5
53C
330
531
100
AcDbEntity
  8
0
100
AcDbBlockEnd
  0
BLOCK
  5
547
330
53D
100
AcDbEntity
  8
0
100
AcDbBlockBegin
  2
*D14
 70
     1
 10
0.0
 20
0.0
 30
0.0
  3
*D14
  1

  0
LINE
  5
5F4
330
53D
100
AcDbEntity
  8
3
 62
     2
370
    -2
100
AcDbLine
 10
159.8350536932318
 20
100.375824210811
 30
0.0
 11
151.6702502335613
 21
100.375824210811
 31
0.0
  0
LINE
  5
5F5
330
53D
100
AcDbEntity
  8
3
 62
     2
370
    -2
100
AcDbLine
 10
159.8350536932319
 20
145.3758242108112
 30
0.0
 11
151.6702502335613
 21
145.3758242108112
 31
0.0
  0
LINE
  5
5F6
330
53D
100
AcDbEntity
  8
3
 62
     2
370
    -2
100
AcDbLine
 10
152.9202502335613
 20
102.875824210811
 30
0.0
 11
152.9202502335613
 21
142.8758242108112
 31
0.0
  0
INSERT
  5
5F7
330
53D
100
AcDbEntity
  8
3
 62
     2
370
    -2
100
AcDbBlockReference
  2
_OPEN
 10
152.9202502335613
 20
100.375824210811
 30
0.0
 41
2.5
 42
2.5
 43
2.5
 50
270.0
  0
INSERT
  5
5F8
330
53D
100
AcDbEntity
  8
3
 62
     2
370
    -2
100
AcDbBlockReference
  2
_OPEN
 10
152.9202502335613
 20
145.3758242108112
 30
0.0
 41
2.5
 42
2.5
 43
2.5
 50
90.0
  0
MTEXT
  5
5F9
330
53D
100
AcDbEntity
  8
3
 62
     0
100
AcDbMText
 10
150.7952502335612
 20
122.8758242108112
 30
0.0
 40
3.0
 41
0.0
 71
     5
 72
     1
  1
45
 11
0.0000000000000001
 21
1.0
 31
0.0
 73
     1
 44
1.0
  0
POINT
  5
5FA
330
53D
100
AcDbEntity
  8
DEFPOINTS
 62
     0
100
AcDbPoint
 10
160.4600536932318
 20
100.375824210811
 30
0.0
  0
POINT
  5
5FB
330
53D
100
AcDbEntity
  8
DEFPOINTS
 62
     0
100
AcDbPoint
 10
160.4600536932319
 20
145.3758242108112
 30
0.0
  0
POINT
  5
5FC
330
53D
100
AcDbEntity
  8
DEFPOINTS
 62
     0
100
AcDbPoint
 10
152.9202502335613
 20
145.3758242108112
 30
0.0
  0
ENDBLK
  5
548
330
53D
100
AcDbEntity
  8
0
100
AcDbBlockEnd
  0
BLOCK
  5
553
330
549
100
AcDbEntity
  8
0
100
AcDbBlockBegin
  2
*D15
 70
     1
 10
0.0
 20
0.0
 30
0.0
  3
*D15
  1

  0
LINE
  5
5FD
330
549
100
AcDbEntity
  8
3
 62
     2
370
    -2
100
AcDbLine
 10
178.0850536932319
 20
172.8758242108111
 30
0.0
 11
192.4868448257246
 21
172.8758242108111
 31
0.0
  0
LINE
  5
5FE
330
549
100
AcDbEntity
  8
3
 62
     2
370
    -2
100
AcDbLine
 10
178.0850536932319
 20
72.87582421081117
 30
0.0
 11
192.4868448257246
 21
72.87582421081117
 31
0.0
  0
LINE
  5
5FF
330
549
100
AcDbEntity
  8
3
 62
     2
370
    -2
100
AcDbLine
 10
191.2368448257246
 20
170.3758242108111
 30
0.0
 11
191.2368448257246
 21
75.37582421081117
 31
0.0
  0
INSERT
  5
600
330
549
100
AcDbEntity
  8
3
 62
     2
370
    -2
100
AcDbBlockReference
  2
_OPEN
 10
191.2368448257246
 20
172.8758242108111
 30
0.0
 41
2.5
 42
2.5
 43
2.5
 50
90.0
  0
INSERT
  5
601
330
549
100
AcDbEntity
  8
3
 62
     2
370
    -2
100
AcDbBlockReference
  2
_OPEN
 10
191.2368448257246
 20
72.87582421081117
 30
0.0
 41
2.5
 42
2.5
 43
2.5
 50
270.0
  0
MTEXT
  5
602
330
549
100
AcDbEntity
  8
3
 62
     0
100
AcDbMText
 10
189.1118448257246
 20
122.8758242108112
 30
0.0
 40
3.0
 41
0.0
 71
     5
 72
     1
  1
100
 11
0.0000000000000001
 21
1.0
 31
0.0
 73
     1
 44
1.0
  0
POINT
  5
603
330
549
100
AcDbEntity
  8
DEFPOINTS
 62
     0
100
AcDbPoint
 10
177.4600536932319
 20
172.8758242108111
 30
0.0
  0
POINT
  5
604
330
549
100
AcDbEntity
  8
DEFPOINTS
 62
     0
100
AcDbPoint
 10
177.4600536932319
 20
72.87582421081117
 30
0.0
  0
POINT
  5
605
330
549
100
AcDbEntity
  8
DEFPOINTS
 62
     0
100
AcDbPoint
 10
191.2368448257246
 20
72.87582421081117
 30
0.0
  0
ENDBLK
  5
554
330
549
100
AcDbEntity
  8
0
100
AcDbBlockEnd
  0
BLOCK
  5
561
330
555
100
AcDbEntity
  8
0
100
AcDbBlockBegin
  2
*D16
 70
     1
 10
0.0
 20
0.0
 30
0.0
  3
*D16
  1

  0
LINE
  5
606
330
555
100
AcDbEntity
  8
3
 62
     2
370
    -2
100
AcDbLine
 10
173.7100536932318
 20
73.27674841714895
 30
0.0
 11
173.7100536932318
 21
61.17055325259162
 31
0.0
  0
LINE
  5
607
330
555
100
AcDbEntity
  8
3
 62
     2
370
    -2
100
AcDbLine
 10
177.4600536932319
 20
72.25082421081117
 30
0.0
 11
177.4600536932319
 21
61.17055325259162
 31
0.0
  0
LINE
  5
608
330
555
100
AcDbEntity
  8
3
 62
     2
370
    -2
100
AcDbLine
 10
171.2100536932318
 20
62.42055325259162
 30
0.0
 11
168.7100536932318
 21
62.42055325259162
 31
0.0
  0
LINE
  5
609
330
555
100
AcDbEntity
  8
3
 62
     2
370
    -2
100
AcDbLine
 10
179.9600536932319
 20
62.42055325259162
 30
0.0
 11
182.4600536932319
 21
62.42055325259162
 31
0.0
  0
LINE
  5
60A
330
555
100
AcDbEntity
  8
3
 62
     2
370
    -2
100
AcDbLine
 10
173.7100536932318
 20
62.42055325259162
 30
0.0
 11
177.4600536932319
 21
62.42055325259162
 31
0.0
  0
INSERT
  5
60B
330
555
100
AcDbEntity
  8
3
 62
     2
370
    -2
100
AcDbBlockReference
  2
_OPEN
 10
173.7100536932318
 20
62.42055325259162
 30
0.0
 41
2.5
 42
2.5
 43
2.5
  0
INSERT
  5
60C
330
555
100
AcDbEntity
  8
3
 62
     2
370
    -2
100
AcDbBlockReference
  2
_OPEN
 10
177.4600536932319
 20
62.42055325259162
 30
0.0
 41
2.5
 42
2.5
 43
2.5
 50
180.0
  0
MTEXT
  5
60D
330
555
100
AcDbEntity
  8
3
 62
     0
100
AcDbMText
 10
175.5850536932319
 20
64.54555325259161
 30
0.0
 40
3.0
 41
0.0
 71
     5
 72
     1
  1
3.75
 73
     1
 44
1.0
  0
POINT
  5
60E
330
555
100
AcDbEntity
  8
DEFPOINTS
 62
     0
100
AcDbPoint
 10
173.7100536932318
 20
73.90174841714895
 30
0.0
  0
POINT
  5
60F
330
555
100
AcDbEntity
  8
DEFPOINTS
 62
     0
100
AcDbPoint
 10
177.4600536932319
 20
72.87582421081117
 30
0.0
  0
POINT
  5
610
330
555
100
AcDbEntity
  8
DEFPOINTS
 62
     0
100
AcDbPoint
 10
177.4600536932319
 20
62.42055325259162
 30
0.0
  0
ENDBLK
  5
562
330
555
100
AcDbEntity
  8
0
100
AcDbBlockEnd
  0
BLOCK
  5
56F
330
563
100
AcDbEntity
  8
0
100
AcDbBlockBegin
  2
*D17
 70
     1
 10
0.0
 20
0.0
 30
0.0
  3
*D17
  1

  0
LINE
  5
611
330
563
100
AcDbEntity
  8
3
 62
     2
370
    -2
100
AcDbLine
 10
175.8850536932319
 20
167.8758242108111
 30
0.0
 11
187.0547554311432
 21
167.8758242108111
 31
0.0
  0
LINE
  5
612
330
563
100
AcDbEntity
  8
3
 62
     2
370
    -2
100
AcDbLine
 10
178.0850536932319
 20
172.8758242108111
 30
0.0
 11
187.0547554311432
 21
172.8758242108111
 31
0.0
  0
LINE
  5
613
330
563
100
AcDbEntity
  8
3
 62
     2
370
    -2
100
AcDbLine
 10
185.8047554311432
 20
165.3758242108111
 30
0.0
 11
185.8047554311432
 21
162.8758242108111
 31
0.0
  0
LINE
  5
614
330
563
100
AcDbEntity
  8
3
 62
     2
370
    -2
100
AcDbLine
 10
185.8047554311432
 20
175.3758242108111
 30
0.0
 11
185.8047554311432
 21
177.8758242108111
 31
0.0
  0
LINE
  5
615
330
563
100
AcDbEntity
  8
3
 62
     2
370
    -2
100
AcDbLine
 10
185.8047554311432
 20
167.8758242108111
 30
0.0
 11
185.8047554311432
 21
172.8758242108111
 31
0.0
  0
INSERT
  5
616
330
563
100
AcDbEntity
  8
3
 62
     2
370
    -2
100
AcDbBlockReference
  2
_OPEN
 10
185.8047554311432
 20
167.8758242108111
 30
0.0
 41
2.5
 42
2.5
 43
2.5
 50
90.0
  0
INSERT
  5
617
330
563
100
AcDbEntity
  8
3
 62
     2
370
    -2
100
AcDbBlockReference
  2
_OPEN
 10
185.8047554311432
 20
172.8758242108111
 30
0.0
 41
2.5
 42
2.5
 43
2.5
 50
270.0
  0
MTEXT
  5
618
330
563
100
AcDbEntity
  8
3
 62
     0
100
AcDbMText
 10
183.6797554311432
 20
170.3758242108112
 30
0.0
 40
3.0
 41
0.0
 71
     5
 72
     1
  1
5
 11
0.0000000000000001
 21
1.0
 31
0.0
 73
     1
 44
1.0
  0
POINT
  5
619
330
563
100
AcDbEntity
  8
DEFPOINTS
 62
     0
100
AcDbPoint
 10
175.2600536932319
 20
167.8758242108111
 30
0.0
  0
POINT
  5
61A
330
563
100
AcDbEntity
  8
DEFPOINTS
 62
     0
100
AcDbPoint
 10
177.4600536932319
 20
172.8758242108111
 30
0.0
  0
POINT
  5
61B
330
563
100
AcDbEntity
  8
DEFPOINTS
 62
     0
100
AcDbPoint
 10
185.8047554311432
 20
172.8758242108111
 30
0.0
  0
ENDBLK
  5
570
330
563
100
AcDbEntity
  8
0
100
AcDbBlockEnd
  0
BLOCK
  5
57D
330
571
100
AcDbEntity
  8
0
100
AcDbBlockBegin
  2
*D18
 70
     1
 10
0.0
 20
0.0
 30
0.0
  3
*D18
  1

  0
LINE
  5
61C
330
571
100
AcDbEntity
  8
3
 62
     2
370
    -2
100
AcDbLine
 10
174.7600536932319
 20
173.500824210811
 30
0.0
 11
174.7600536932319
 21
181.9408436958406
 31
0.0
  0
LINE
  5
61D
330
571
100
AcDbEntity
  8
3
 62
     2
370
    -2
100
AcDbLine
 10
177.4600536932319
 20
173.500824210811
 30
0.0
 11
177.4600536932319
 21
181.9408436958406
 31
0.0
  0
LINE
  5
61E
330
571
100
AcDbEntity
  8
3
 62
     2
370
    -2
100
AcDbLine
 10
172.2600536932319
 20
180.6908436958406
 30
0.0
 11
169.7600536932319
 21
180.6908436958406
 31
0.0
  0
LINE
  5
61F
330
571
100
AcDbEntity
  8
3
 62
     2
370
    -2
100
AcDbLine
 10
179.9600536932319
 20
180.6908436958406
 30
0.0
 11
189.7100536932319
 21
180.6908436958406
 31
0.0
  0
LINE
  5
620
330
571
100
AcDbEntity
  8
3
 62
     2
370
    -2
100
AcDbLine
 10
174.7600536932319
 20
180.6908436958406
 30
0.0
 11
177.4600536932319
 21
180.6908436958406
 31
0.0
  0
INSERT
  5
621
330
571
100
AcDbEntity
  8
3
 62
     2
370
    -2
100
AcDbBlockReference
  2
_OPEN
 10
174.7600536932319
 20
180.6908436958406
 30
0.0
 41
2.5
 42
2.5
 43
2.5
  0
INSERT
  5
622
330
571
100
AcDbEntity
  8
3
 62
     2
370
    -2
100
AcDbBlockReference
  2
_OPEN
 10
177.4600536932319
 20
180.6908436958406
 30
0.0
 41
2.5
 42
2.5
 43
2.5
 50
180.0
  0
MTEXT
  5
623
330
571
100
AcDbEntity
  8
3
 62
     0
100
AcDbMText
 10
186.0850536932319
 20
182.8158436958405
 30
0.0
 40
3.0
 41
0.0
 71
     5
 72
     1
  1
2.7
 73
     1
 44
1.0
  0
POINT
  5
624
330
571
100
AcDbEntity
  8
DEFPOINTS
 62
     0
100
AcDbPoint
 10
174.7600536932319
 20
172.875824210811
 30
0.0
  0
POINT
  5
625
330
571
100
AcDbEntity
  8
DEFPOINTS
 62
     0
100
AcDbPoint
 10
177.4600536932319
 20
172.875824210811
 30
0.0
  0
POINT
  5
626
330
571
100
AcDbEntity
  8
DEFPOINTS
 62
     0
100
AcDbPoint
 10
177.4600536932319
 20
180.6908436958406
 30
0.0
  0
ENDBLK
  5
57E
330
571
100
AcDbEntity
  8
0
100
AcDbBlockEnd
  0
ENDSEC
  0
SECTION
  2
ENTITIES
  0
MTEXT
  5
3D9
330
18
100
AcDbEntity
  8
3
100
AcDbMText
 10
238.8358833497763
 20
25.98241553046716
 30
0.0
 40
4.0
 41
18.11841371261404
 71
     1
 72
     5
  1
ＥＹＷ
 73
     1
 44
1.0
  0
MTEXT
  5
3DA
330
18
100
AcDbEntity
  8
3
100
AcDbMText
 10
239.3873348980157
 20
43.6235058635321
 30
0.0
 40
4.0
 41
10.42603362189311
 71
     1
 72
     5
  1
911
 73
     1
 44
1.0
  0
MTEXT
  5
3DB
330
18
100
AcDbEntity
  8
3
100
AcDbMText
 10
237.7422255213719
 20
15.4688155889105
 30
0.0
 40
2.799999999999999
 41
9.237
 71
     1
 72
     5
  1
・・
 73
     1
 44
1.0
  0
LINE
  5
3DC
330
18
100
AcDbEntity
  8
3
100
AcDbLine
 10
221.8602004113929
 20
11.99999995708594
 30
0.0
 11
271.8602004113929
 21
11.99999995708594
 31
0.0
  0
LINE
  5
3DD
330
18
100
AcDbEntity
  8
3
100
AcDbLine
 10
221.8602004113929
 20
-0.0000000429140528
 30
0.0
 11
271.8602004113929
 21
-0.0000000429140528
 31
0.0
  0
LINE
  5
3DE
330
18
100
AcDbEntity
  8
3
100
AcDbLine
 10
171.8602004113929
 20
15.99999995708594
 30
0.0
 11
271.8602004113929
 21
15.99999995708594
 31
0.0
  0
LINE
  5
3DF
330
18
100
AcDbEntity
  8
3
100
AcDbLine
 10
171.8602004113929
 20
31.99999995708606
 30
0.0
 11
271.8602004113929
 21
31.99999995708606
 31
0.0
  0
LINE
  5
3E0
330
18
100
AcDbEntity
  8
3
100
AcDbLine
 10
171.8602004113929
 20
47.99999995708605
 30
0.0
 11
271.8602004113929
 21
47.99999995708605
 31
0.0
  0
MTEXT
  5
3E3
330
18
100
AcDbEntity
  8
3
100
AcDbMText
 10
207.7551283089054
 20
98.39953739536667
 30
0.0
 40
3.0
 41
55.5006
 71
     1
 72
     5
  1
駐）　１　メタクリル　　（白）\P　　　２　エポキシ　　　　　　\P　　　３　特殊強化ガラス（白）\P      ４　メタクリル　　（黄）\P\P　　　　一般公差　%%p1.5\P　　　　表面アラサ　\U+25BD\U+25BD\U+25BD
 73
     1
 44
1.5
  0
DIMENSION
  5
3E5
330
18
100
AcDbEntity
  8
3
100
AcDbDimension
  2
*D1
 10
121.8736270019409
 20
11.83633424976665
 30
0.0
 11
71.87362700194094
 21
13.96133424976665
 31
0.0
 70
    32
 71
     5
 42
100.0
  3
ISO-25
100
AcDbAlignedDimension
 13
21.87362700194093
 23
20.91020016371385
 33
0.0
 14
121.8736270019409
 24
20.91020016371385
 34
0.0
100
AcDbRotatedDimension
  0
DIMENSION
  5
3E6
330
18
100
AcDbEntity
  8
3
100
AcDbDimension
  2
*D2
 10
112.873627001941
 20
45.95681724030771
 30
0.0
 11
71.87362700194097
 21
48.08181724030771
 31
0.0
 70
    32
 71
     5
 42
82.00000000000015
  3
ISO-25
100
AcDbAlignedDimension
 13
30.87362700194089
 23
37.91020016371385
 33
0.0
 14
112.873627001941
 24
37.91020016371385
 34
0.0
100
AcDbRotatedDimension
  0
DIMENSION
  5
3E7
330
18
100
AcDbEntity
  8
3
100
AcDbDimension
  2
*D3
 10
21.87362700194094
 20
60.02263435363579
 30
0.0
 11
71.87362700194097
 21
62.14763435363579
 31
0.0
 70
    32
 71
     5
 42
100.0
  3
ISO-25
100
AcDbAlignedDimension
 13
121.8736270019409
 23
77.87582421081117
 33
0.0
 14
21.87362700194094
 24
77.87582421081117
 34
0.0
100
AcDbRotatedDimension
  0
DIMENSION
  5
3E8
330
18
100
AcDbEntity
  8
3
100
AcDbDimension
  2
*D4
 10
117.8736270019409
 20
65.34377824750868
 30
0.0
 11
71.87362700194097
 21
67.46877824750868
 31
0.0
 70
    32
 71
     5
 42
92.0
  3
ISO-25
100
AcDbAlignedDimension
 13
25.87362700194097
 23
73.87582421081117
 33
0.0
 14
117.8736270019409
 24
73.87582421081106
 34
0.0
100
AcDbRotatedDimension
  0
LINE
  5
3E9
330
18
100
AcDbEntity
  8
2
100
AcDbLine
 10
91.12362700194097
 20
35.71020016371392
 30
0.0
 11
82.62362700194097
 21
35.71020016371392
 31
0.0
  0
LINE
  5
3EB
330
18
100
AcDbEntity
  8
2
100
AcDbLine
 10
25.87362700194097
 20
171.8758242108109
 30
0.0
 11
117.8736270019409
 21
171.875824210811
 31
0.0
  0
LINE
  5
3EC
330
18
100
AcDbEntity
  8
2
100
AcDbLine
 10
28.63255591775628
 20
170.3758242108109
 30
0.0
 11
115.1146980861256
 21
170.375824210811
 31
0.0
  0
LINE
  5
3ED
330
18
100
AcDbEntity
  8
2
 48
5.0
100
AcDbLine
 10
33.8918088201227
 20
145.8758242108111
 30
0.0
 11
109.8554451837592
 21
145.875824210811
 31
0.0
  0
LINE
  5
3EE
330
18
100
AcDbEntity
  8
2
 48
5.0
100
AcDbLine
 10
33.8918088201227
 20
99.87582421081095
 30
0.0
 11
109.8554451837592
 21
99.87582421081107
 31
0.0
  0
LINE
  5
3EF
330
18
100
AcDbEntity
  8
2
100
AcDbLine
 10
28.63255591775628
 20
75.37582421081117
 30
0.0
 11
115.1146980861256
 21
75.37582421081106
 31
0.0
  0
LINE
  5
3F0
330
18
100
AcDbEntity
  8
2
100
AcDbLine
 10
25.87362700194097
 20
73.87582421081117
 30
0.0
 11
117.8736270019409
 21
73.87582421081106
 31
0.0
  0
LINE
  5
3F1
330
18
100
AcDbEntity
  8
2
 48
5.0
100
AcDbLine
 10
30.87362700194087
 20
100.375824210811
 30
0.0
 11
112.873627001941
 21
100.375824210811
 31
0.0
  0
LINE
  5
3F2
330
18
100
AcDbEntity
  8
2
 48
5.0
100
AcDbLine
 10
112.873627001941
 20
145.3758242108112
 30
0.0
 11
30.87362700194089
 21
145.3758242108112
 31
0.0
  0
LINE
  5
3F3
330
18
100
AcDbEntity
  8
2
100
AcDbLine
 10
111.1868034740208
 20
37.91020016371385
 30
0.0
 11
32.5604505298611
 21
37.91020016371385
 31
0.0
  0
LINE
  5
3F4
330
18
100
AcDbEntity
  8
2
100
AcDbLine
 10
26.87362700194096
 20
72.87582421081117
 30
0.0
 11
116.8736270019409
 21
72.87582421081117
 31
0.0
  0
LINE
  5
3F5
330
18
100
AcDbEntity
  8
2
100
AcDbLine
 10
26.87362700194096
 20
172.8758242108111
 30
0.0
 11
116.8736270019409
 21
172.8758242108111
 31
0.0
  0
LINE
  5
3F6
330
18
100
AcDbEntity
  8
2
100
AcDbLine
 10
121.8736270019409
 20
20.91020016371385
 30
0.0
 11
21.87362700194096
 21
20.91020016371385
 31
0.0
  0
LINE
  5
3F7
330
18
100
AcDbEntity
  8
1
  6
CENTER
 62
     2
100
AcDbLine
 10
71.87362700194097
 20
40.91020016371385
 30
0.0
 11
71.87362700194097
 21
17.91020016371385
 31
0.0
  0
DIMENSION
  5
3F8
330
18
100
AcDbEntity
  8
3
100
AcDbDimension
  2
*D5
 10
21.87362700194094
 20
20.91020016371385
 30
0.0
 11
25.62560558211467
 21
33.12856063567483
 31
0.0
 70
   162
 71
     5
 42
0.546360024448976
  3
ISO-25
100
AcDb2LineAngularDimension
 13
29.99718621325118
 23
36.46894197786855
 33
0.0
 14
22.17768105599502
 24
23.61020016371389
 34
0.0
 15
21.87362700194094
 25
23.61020016371389
 35
0.0
 16
23.81117489288331
 26
33.63116960490783
 36
0.0
  0
LINE
  5
3F9
330
18
100
AcDbEntity
  8
2
 48
5.0
100
AcDbLine
 10
34.36630336200809
 20
37.5759346224911
 30
0.0
 11
25.873627001941
 21
23.61020016371401
 31
0.0
  0
LINE
  5
3FA
330
18
100
AcDbEntity
  8
2
 48
5.0
100
AcDbLine
 10
29.99718621325118
 20
36.46894197786855
 30
0.0
 11
22.17768105599502
 21
23.61020016371389
 31
0.0
  0
LINE
  5
3FB
330
18
100
AcDbEntity
  8
2
  6
DASHED
100
AcDbLine
 10
71.87362700194096
 20
22.41020016371385
 30
0.0
 11
25.87362700194097
 21
22.41020016371385
 31
0.0
  0
LINE
  5
3FC
330
18
100
AcDbEntity
  8
2
100
AcDbLine
 10
71.87362700194096
 20
23.61020016371389
 30
0.0
 11
21.87362700194094
 21
23.61020016371389
 31
0.0
  0
LINE
  5
3FD
330
18
100
AcDbEntity
  8
2
  6
DASHED
 48
5.0
100
AcDbLine
 10
22.17768105599502
 20
23.61020016371389
 30
0.0
 11
21.87362700194097
 21
23.1102001637139
 31
0.0
  0
LINE
  5
3FE
330
18
100
AcDbEntity
  8
2
 48
5.0
100
AcDbLine
 10
21.87362700194094
 20
23.61020016371389
 30
0.0
 11
21.87362700194094
 21
20.91020016371385
 31
0.0
  0
LINE
  5
3FF
330
18
100
AcDbEntity
  8
2
  6
DASHED
100
AcDbLine
 10
25.87362700194097
 20
22.41020016371385
 30
0.0
 11
25.87362700194097
 21
23.61020016371389
 31
0.0
  0
LINE
  5
400
330
18
100
AcDbEntity
  8
2
100
AcDbLine
 10
39.87362700194097
 20
24.66020016371397
 30
0.0
 11
36.87362700194097
 21
24.66020016371397
 31
0.0
  0
LINE
  5
401
330
18
100
AcDbEntity
  8
2
100
AcDbLine
 10
36.87362700194097
 20
24.66020016371397
 30
0.0
 11
36.87362700194097
 21
23.61020016371389
 31
0.0
  0
LINE
  5
402
330
18
100
AcDbEntity
  8
2
100
AcDbLine
 10
39.87362700194097
 20
24.66020016371397
 30
0.0
 11
39.87362700194097
 21
23.61020016371389
 31
0.0
  0
DIMENSION
  5
403
330
18
100
AcDbEntity
  8
3
100
AcDbDimension
  2
*D6
 10
32.56045052986081
 20
34.91020016371385
 30
0.0
 11
14.62928960796936
 21
42.73187564994443
 31
0.0
 70
   164
 71
     5
 42
2.999999999999804
  3
ISO-25$4
100
AcDbRadialDimension
 15
30.27419620493487
 25
36.85263192873321
 35
0.0
 40
0.0
1001
ACAD
1000
DSTYLE
1002
{
1070
     3
1000
(全周)
1070
   288
1070
     1
1002
}
  0
DIMENSION
  5
404
330
18
100
AcDbEntity
  8
3
100
AcDbDimension
  2
*D7
 10
26.87362700194102
 20
77.87582421081173
 30
0.0
 11
5.499999788202902
 21
66.47858192518921
 31
0.0
 70
   164
 71
     5
 42
5.000000000000476
  3
ISO-25$4
100
AcDbRadialDimension
 15
22.8686870069905
 25
74.88242219356606
 35
0.0
 40
0.0
1001
ACAD
1000
DSTYLE
1002
{
1070
     3
1000
4-R<>
1070
   288
1070
     1
1002
}
  0
LINE
  5
405
330
18
100
AcDbEntity
  8
1
  6
CENTER
 62
     2
100
AcDbLine
 10
71.87362700194097
 20
175.8758242108111
 30
0.0
 11
71.87362700194097
 21
69.87582421081118
 31
0.0
  0
LINE
  5
406
330
18
100
AcDbEntity
  8
2
 48
5.0
100
AcDbLine
 10
33.8918088201227
 20
145.8758242108111
 30
0.0
 11
33.8918088201227
 21
170.3758242108109
 31
0.0
  0
LINE
  5
407
330
18
100
AcDbEntity
  8
2
 48
5.0
100
AcDbLine
 10
33.8918088201227
 20
145.8758242108111
 30
0.0
 11
25.87362700194096
 21
170.3758242108111
 31
0.0
  0
LINE
  5
408
330
18
100
AcDbEntity
  8
2
 48
5.0
100
AcDbLine
 10
30.87362700194089
 20
145.3758242108112
 30
0.0
 11
23.10616135158601
 21
169.1097470313402
 31
0.0
  0
LINE
  5
409
330
18
100
AcDbEntity
  8
2
100
AcDbLine
 10
21.87362700194096
 20
167.8758242108111
 30
0.0
 11
21.87362700194096
 21
77.87582421081117
 31
0.0
  0
LINE
  5
40A
330
18
100
AcDbEntity
  8
2
100
AcDbLine
 10
34.36630336200809
 20
37.5759346224911
 30
0.0
 11
71.87362700194097
 21
37.5759346224911
 31
0.0
  0
LINE
  5
40B
330
18
100
AcDbEntity
  8
2
 48
5.0
100
AcDbLine
 10
33.8918088201227
 20
99.87582421081095
 30
0.0
 11
25.87362700194097
 21
75.37582421081117
 31
0.0
  0
LINE
  5
40C
330
18
100
AcDbEntity
  8
2
 48
5.0
100
AcDbLine
 10
30.87362700194089
 20
100.3758242108108
 30
0.0
 11
23.10616135158601
 21
76.64190139028187
 31
0.0
  0
ARC
  5
40D
330
18
100
AcDbEntity
  8
2
100
AcDbCircle
 10
32.5604505298611
 20
34.91020016371385
 30
0.0
 40
3.0
100
AcDbArc
 50
90.0
 51
148.6958765044069
  0
ARC
  5
40E
330
18
100
AcDbEntity
  8
2
100
AcDbCircle
 10
26.87362700194094
 20
77.87582421081117
 30
0.0
 40
5.0
100
AcDbArc
 50
180.0
 51
270.0000000000004
  0
LINE
  5
40F
330
18
100
AcDbEntity
  8
2
100
AcDbLine
 10
25.87362700194097
 20
73.87582421081117
 30
0.0
 11
25.87362700194097
 21
75.37582421081117
 31
0.0
  0
LINE
  5
410
330
18
100
AcDbEntity
  8
2
100
AcDbLine
 10
36.87362700194096
 20
74.87582421081118
 30
0.0
 11
39.87362700194097
 21
74.87582421081106
 31
0.0
  0
LINE
  5
411
330
18
100
AcDbEntity
  8
2
100
AcDbLine
 10
36.87362700194097
 20
73.87582421081106
 30
0.0
 11
36.87362700194097
 21
74.87582421081106
 31
0.0
  0
LINE
  5
412
330
18
100
AcDbEntity
  8
2
100
AcDbLine
 10
39.87362700194097
 20
73.87582421081106
 30
0.0
 11
39.87362700194097
 21
74.87582421081106
 31
0.0
  0
LINE
  5
413
330
18
100
AcDbEntity
  8
2
 48
5.0
100
AcDbLine
 10
30.87362700194089
 20
145.3758242108112
 30
0.0
 11
30.87362700194089
 21
100.375824210811
 31
0.0
  0
LINE
  5
414
330
18
100
AcDbEntity
  8
2
100
AcDbLine
 10
81.12362700194097
 20
35.71020016371392
 30
0.0
 11
72.62362700194097
 21
35.71020016371392
 31
0.0
  0
LINE
  5
415
330
18
100
AcDbEntity
  8
2
100
AcDbLine
 10
72.62362700194096
 20
33.91020016371374
 30
0.0
 11
71.87362700194096
 21
33.91020016371374
 31
0.0
  0
LINE
  5
416
330
18
100
AcDbEntity
  8
2
100
AcDbLine
 10
72.62362700194096
 20
33.91020016371362
 30
0.0
 11
72.62362700194096
 21
35.71020016371381
 31
0.0
  0
LINE
  5
417
330
18
100
AcDbEntity
  8
2
100
AcDbLine
 10
82.62362700194097
 20
33.91020016371374
 30
0.0
 11
81.12362700194095
 21
33.91020016371374
 31
0.0
  0
LINE
  5
418
330
18
100
AcDbEntity
  8
2
100
AcDbLine
 10
81.12362700194097
 20
33.91020016371362
 30
0.0
 11
81.12362700194097
 21
35.71020016371381
 31
0.0
  0
LINE
  5
419
330
18
100
AcDbEntity
  8
2
100
AcDbLine
 10
82.62362700194097
 20
33.91020016371362
 30
0.0
 11
82.62362700194097
 21
35.71020016371381
 31
0.0
  0
ARC
  5
41A
330
18
100
AcDbEntity
  8
2
100
AcDbCircle
 10
26.8736270019409
 20
167.8758242108112
 30
0.0
 40
5.0
100
AcDbArc
 50
89.9999999999992
 51
180.0
  0
ARC
  5
41B
330
18
100
AcDbEntity
  8
2
100
AcDbCircle
 10
28.63255591775628
 20
168.3758242108109
 30
0.0
 40
2.0
100
AcDbArc
 50
90.0
 51
198.1218602479
  0
LINE
  5
41C
330
18
100
AcDbEntity
  8
2
100
AcDbLine
 10
25.87362700194097
 20
171.8758242108109
 30
0.0
 11
25.87362700194096
 21
170.3758242108111
 31
0.0
  0
LINE
  5
41D
330
18
100
AcDbEntity
  8
2
100
AcDbLine
 10
36.87362700194096
 20
170.8758242108109
 30
0.0
 11
39.87362700194097
 21
170.875824210811
 31
0.0
  0
LINE
  5
41E
330
18
100
AcDbEntity
  8
2
100
AcDbLine
 10
36.87362700194097
 20
171.875824210811
 30
0.0
 11
36.87362700194097
 21
170.875824210811
 31
0.0
  0
LINE
  5
41F
330
18
100
AcDbEntity
  8
2
100
AcDbLine
 10
39.87362700194097
 20
171.875824210811
 30
0.0
 11
39.87362700194097
 21
170.875824210811
 31
0.0
  0
LINE
  5
420
330
18
100
AcDbEntity
  8
3
100
AcDbLine
 10
176.8602004113929
 20
47.99999995708605
 30
0.0
 11
176.8602004113929
 21
15.99999995708594
 31
0.0
  0
LINE
  5
421
330
18
100
AcDbEntity
  8
3
100
AcDbLine
 10
226.8602004113929
 20
47.99999995708605
 30
0.0
 11
226.8602004113929
 21
15.99999995708594
 31
0.0
  0
LINE
  5
422
330
18
100
AcDbEntity
  8
3
100
AcDbLine
 10
221.8602004113929
 20
47.99999995708605
 30
0.0
 11
221.8602004113929
 21
15.99999995708594
 31
0.0
  0
LINE
  5
423
330
18
100
AcDbEntity
  8
3
100
AcDbLine
 10
171.8602004113929
 20
47.99999995708605
 30
0.0
 11
171.8602004113929
 21
15.99999995708594
 31
0.0
  0
LEADER
  5
424
330
18
100
AcDbEntity
  8
3
100
AcDbLeader
  3
ISO-25
 76
     2
 10
117.657590081692
 20
28.87880943025891
 30
0.0
 10
122.1981391190734
 20
40.61779078015445
 30
0.0
1001
ACAD
1000
DSTYLE
1002
{
1070
   147
1040
0.625
1070
    77
1070
     0
1002
}
  0
DIMENSION
  5
425
330
18
100
AcDbEntity
  8
3
100
AcDbDimension
  2
*D8
 10
137.2499393993504
 20
37.91020016371384
 30
0.0
 11
135.1249393993504
 21
29.41020016371387
 31
0.0
 70
    32
 71
     5
 42
16.99999999999999
  3
ISO-25
100
AcDbAlignedDimension
 13
121.8736270019409
 23
20.91020016371385
 33
0.0
 14
111.1868034740208
 24
37.91020016371385
 34
0.0
 50
90.0
100
AcDbRotatedDimension
  0
DIMENSION
  5
426
330
18
100
AcDbEntity
  8
3
100
AcDbDimension
  2
*D9
 10
131.945800472758
 20
37.91020016371384
 30
0.0
 11
129.820800472758
 21
46.53520016371387
 31
0.0
 70
    32
 71
     5
 42
2.200000000000038
  3
ISO-25
100
AcDbAlignedDimension
 13
112.4558909136565
 23
35.71020016371381
 33
0.0
 14
111.1868034740208
 24
37.91020016371385
 34
0.0
 50
90.0
100
AcDbRotatedDimension
  0
DIMENSION
  5
427
330
18
100
AcDbEntity
  8
3
100
AcDbDimension
  2
*D10
 10
127.8477872606316
 20
23.11020016371378
 30
0.0
 11
125.7227872606316
 21
31.7352001637138
 31
0.0
 70
    32
 71
     5
 42
2.199999999999931
  3
ISO-25
100
AcDbAlignedDimension
 13
121.8736270019409
 23
20.91020016371385
 33
0.0
 14
121.8736270019409
 24
23.11020016371378
 34
0.0
 50
90.0
100
AcDbRotatedDimension
  0
LINE
  5
428
330
18
100
AcDbEntity
  8
2
 48
5.0
100
AcDbLine
 10
114.1585936163592
 20
32.91020016371396
 30
0.0
 11
120.3736270019409
 21
22.6899230407572
 31
0.0
  0
LINE
  5
429
330
18
100
AcDbEntity
  8
2
 48
5.0
100
AcDbLine
 10
113.7500677906307
 20
36.46894197786855
 30
0.0
 11
121.8736270019409
 21
23.1102001637139
 31
0.0
  0
MTEXT
  5
42A
330
18
100
AcDbEntity
  8
3
100
AcDbMText
 10
98.05290873320656
 20
17.82121416142706
 30
0.0
 40
3.0
 41
8.1134
 71
     1
 72
     5
  1
2
 73
     1
 44
1.0
  0
CIRCLE
  5
42B
330
18
100
AcDbEntity
  8
3
 62
     2
100
AcDbCircle
 10
99.30381432400849
 20
16.27373596525058
 30
0.0
 40
3.0
  0
LEADER
  5
42C
330
18
100
AcDbEntity
  8
3
100
AcDbLeader
  3
ISO-25
 76
     2
 10
94.14709166169473
 20
25.69111508694936
 30
0.0
 10
97.57528728503125
 20
18.7257135906633
 30
0.0
1001
ACAD
1000
DSTYLE
1002
{
1070
   147
1040
0.625
1070
    77
1070
     0
1002
}
  0
LINE
  5
42D
330
18
100
AcDbEntity
  8
2
 48
5.0
100
AcDbLine
 10
120.3736270019409
 20
22.6899230407572
 30
0.0
 11
120.373627001941
 21
20.91020016371385
 31
0.0
  0
LINE
  5
42E
330
18
100
AcDbEntity
  8
2
 48
5.0
100
AcDbLine
 10
121.8736270019409
 20
23.1102001637139
 30
0.0
 11
121.8736270019409
 21
20.91020016371385
 31
0.0
  0
MTEXT
  5
42F
330
18
100
AcDbEntity
  8
3
100
AcDbMText
 10
200.5889629096098
 20
21.66242481914582
 30
0.0
 40
3.0
 41
8.030599999999999
 71
     1
 72
     5
  1
m/m
 73
     1
 44
1.0
  0
LINE
  5
430
330
18
100
AcDbEntity
  8
3
100
AcDbLine
 10
171.8602004113929
 20
23.99999995708606
 30
0.0
 11
211.8602004113929
 21
23.99999995708606
 31
0.0
  0
MTEXT
  5
431
330
18
100
AcDbEntity
  8
3
100
AcDbMText
 10
181.120783938071
 20
21.66242481914582
 30
0.0
 40
3.0
 41
8.030624239295669
 71
     1
 72
     5
  1
1/1
 73
     1
 44
1.0
  0
MTEXT
  5
432
330
18
100
AcDbEntity
  8
3
100
AcDbMText
 10
172.7730336816984
 20
23.61377372016761
 30
0.0
 40
2.799999999999999
 41
3.9807
 71
     1
 72
     5
  1
尺度
 73
     1
 44
1.0
  0
MTEXT
  5
433
330
18
100
AcDbEntity
  8
3
100
AcDbMText
 10
172.7730336816984
 20
32.02474684730987
 30
0.0
 40
2.799999999999999
 41
3.9807
 71
     1
 72
     5
  1
材料
 73
     1
 44
1.0
  0
MTEXT
  5
434
330
18
100
AcDbEntity
  8
3
100
AcDbMText
 10
192.6006936305509
 20
32.02474684730987
 30
0.0
 40
2.799999999999999
 41
3.9807
 71
     1
 72
     5
  1
個数
 73
     1
 44
1.0
  0
MTEXT
  5
435
330
18
100
AcDbEntity
  8
3
100
AcDbMText
 10
192.6006936305509
 20
23.61377372016761
 30
0.0
 40
2.799999999999999
 41
3.9807
 71
     1
 72
     5
  1
単位
 73
     1
 44
1.0
  0
LINE
  5
436
330
18
100
AcDbEntity
  8
3
100
AcDbLine
 10
191.8602004113929
 20
31.99999995708606
 30
0.0
 11
191.8602004113929
 21
15.99999995708594
 31
0.0
  0
LINE
  5
437
330
18
100
AcDbEntity
  8
3
100
AcDbLine
 10
196.8602004113929
 20
31.99999995708606
 30
0.0
 11
196.8602004113929
 21
15.99999995708594
 31
0.0
  0
LINE
  5
438
330
18
100
AcDbEntity
  8
3
100
AcDbLine
 10
221.8602004113929
 20
15.99999995708594
 30
0.0
 11
221.8602004113929
 21
-0.0000000429140528
 31
0.0
  0
LINE
  5
439
330
18
100
AcDbEntity
  8
3
100
AcDbLine
 10
211.8602004113929
 20
27.99999995708606
 30
0.0
 11
221.8602004113929
 21
27.99999995708606
 31
0.0
  0
LINE
  5
43A
330
18
100
AcDbEntity
  8
3
100
AcDbLine
 10
211.8602004113929
 20
31.99999995708606
 30
0.0
 11
211.8602004113929
 21
15.99999995708594
 31
0.0
  0
MTEXT
  5
43B
330
18
100
AcDbEntity
  8
3
100
AcDbMText
 10
215.5551253477296
 20
23.48646344223902
 30
0.0
 40
3.0
 41
6.3272
 71
     1
 72
     5
  1
/
 73
     1
 44
1.0
  0
MTEXT
  5
43C
330
18
100
AcDbEntity
  8
3
100
AcDbMText
 10
213.0208800349095
 20
31.35855583189675
 30
0.0
 40
2.799999999999999
 41
9.237
 71
     1
 72
     5
  1
部番
 73
     1
 44
1.0
  0
LINE
  5
43D
330
18
100
AcDbEntity
  8
3
100
AcDbLine
 10
238.8602004113929
 20
-0.0000000429140528
 30
0.0
 11
238.8602004113929
 21
11.99999995708594
 31
0.0
  0
LINE
  5
43E
330
18
100
AcDbEntity
  8
3
100
AcDbLine
 10
226.3602004113929
 20
11.99999995708594
 30
0.0
 11
226.3602004113929
 21
-0.0000000429140528
 31
0.0
  0
LINE
  5
43F
330
18
100
AcDbEntity
  8
3
100
AcDbLine
 10
234.3602004113929
 20
-0.0000000429140528
 30
0.0
 11
234.3602004113929
 21
15.99999995708594
 31
0.0
  0
MTEXT
  5
440
330
18
100
AcDbEntity
  8
3
100
AcDbMText
 10
224.8459522735549
 20
15.6362170456598
 30
0.0
 40
2.799999999999999
 41
9.237
 71
     1
 72
     5
  1
・・
 73
     1
 44
1.0
  0
MTEXT
  5
441
330
18
100
AcDbEntity
  8
3
100
AcDbMText
 10
223.0784357503647
 20
9.500446039947632
 30
0.0
 40
2.799999999999999
 41
3.9807
 71
     1
 72
     5
  1
設計
 73
     1
 44
1.0
  0
MTEXT
  5
442
330
18
100
AcDbEntity
  8
3
100
AcDbMText
 10
222.5309560717379
 20
30.0704830349565
 30
0.0
 40
2.799999999999999
 41
4.0944
 71
     1
 72
     5
  1
品　　名
 73
     1
 44
1.0
  0
MTEXT
  5
443
330
18
100
AcDbEntity
  8
3
100
AcDbMText
 10
234.813612932523
 20
9.272018027721628
 30
0.0
 40
2.799999999999999
 41
3.9807
 71
     1
 72
     5
  1
製図
 73
     1
 44
1.0
  0
LINE
  5
444
330
18
100
AcDbEntity
  8
1
  6
CENTER
 62
     2
100
AcDbLine
 10
157.4600536932319
 20
122.8758242108111
 30
0.0
 11
180.4600536932319
 21
122.875824210811
 31
0.0
  0
DIMENSION
  5
445
330
18
100
AcDbEntity
  8
3
100
AcDbDimension
  2
*D11
 10
167.0142694943721
 20
70.57939815355616
 30
0.0
 11
161.7800864598386
 21
83.73686572756147
 31
0.0
 70
    33
 71
     5
 42
27.99999999999997
  3
ISO-25
100
AcDbAlignedDimension
 13
162.2743384024927
 23
100.2449800980662
 33
0.0
 14
176.4112370615895
 24
76.07582421081133
 34
0.0
  0
DIMENSION
  5
446
330
18
100
AcDbEntity
  8
3
100
AcDbDimension
  2
*D12
 10
160.4600536932318
 20
101.1887700071537
 30
0.0
 11
165.8873168941625
 21
168.5025643774224
 31
0.0
 70
   162
 71
     5
 42
0.5292536423747663
  3
ISO-25
100
AcDb2LineAngularDimension
 13
160.8705012767402
 23
146.0775461279432
 33
0.0
 14
175.007858705072
 24
170.2474863502528
 34
0.0
 15
160.4600536932319
 25
144.5628784144687
 35
0.0
 16
168.6688469711319
 26
167.6674596265188
 36
0.0
  0
LINE
  5
447
330
18
100
AcDbEntity
  8
2
 48
5.0
100
AcDbLine
 10
163.137522541324
 20
100.7498693358916
 30
0.0
 11
177.2744212004199
 21
76.58071344863618
 31
0.0
  0
LINE
  5
448
330
18
100
AcDbEntity
  8
2
 48
5.0
100
AcDbLine
 10
162.6535763027736
 20
99.59661583152888
 30
0.0
 11
176.4112370615895
 21
76.07582421081133
 31
0.0
  0
LINE
  5
449
330
18
100
AcDbEntity
  8
2
 48
5.0
100
AcDbLine
 10
160.8705012767402
 20
99.67410229367921
 30
0.0
 11
175.9602977321055
 21
73.87582421081129
 31
0.0
  0
LINE
  5
44A
330
18
100
AcDbEntity
  8
2
 48
5.0
100
AcDbLine
 10
160.8705012767402
 20
146.0775461279432
 30
0.0
 11
175.007858705072
 21
170.2474863502528
 31
0.0
  0
DIMENSION
  5
44B
330
18
100
AcDbEntity
  8
3
100
AcDbDimension
  2
*D13
 10
136.3450864621198
 20
72.87582421081117
 30
0.0
 11
134.2200864621198
 21
122.8758242108112
 31
0.0
 70
    32
 71
     5
 42
100.0
  3
ISO-25
100
AcDbAlignedDimension
 13
116.8736270019409
 23
172.8758242108111
 33
0.0
 14
116.873627001941
 24
72.87582421081117
 34
0.0
 50
90.0
100
AcDbRotatedDimension
  0
LINE
  5
44C
330
18
100
AcDbEntity
  8
2
 48
5.0
100
AcDbLine
 10
109.8554451837592
 20
145.875824210811
 30
0.0
 11
109.8554451837592
 21
170.375824210811
 31
0.0
  0
LINE
  5
44D
330
18
100
AcDbEntity
  8
2
 48
5.0
100
AcDbLine
 10
109.8554451837592
 20
145.875824210811
 30
0.0
 11
117.8736270019409
 21
170.3758242108114
 31
0.0
  0
LINE
  5
44E
330
18
100
AcDbEntity
  8
2
 48
5.0
100
AcDbLine
 10
112.873627001941
 20
145.3758242108112
 30
0.0
 11
120.6410926522959
 21
169.1097470313402
 31
0.0
  0
LINE
  5
44F
330
18
100
AcDbEntity
  8
2
100
AcDbLine
 10
121.8736270019409
 20
167.8758242108111
 30
0.0
 11
121.8736270019409
 21
77.87582421081117
 31
0.0
  0
LINE
  5
450
330
18
100
AcDbEntity
  8
2
 48
5.0
100
AcDbLine
 10
109.8554451837592
 20
99.87582421081107
 30
0.0
 11
117.8736270019409
 21
75.37582421081106
 31
0.0
  0
LINE
  5
451
330
18
100
AcDbEntity
  8
2
 48
5.0
100
AcDbLine
 10
112.873627001941
 20
100.3758242108108
 30
0.0
 11
120.6410926522959
 21
76.64190139028187
 31
0.0
  0
LINE
  5
452
330
18
100
AcDbEntity
  8
2
100
AcDbLine
 10
107.6236270019409
 20
35.71020016371381
 30
0.0
 11
114.1585936163592
 21
32.91020016371385
 31
0.0
  0
LINE
  5
453
330
18
100
AcDbEntity
  8
2
  6
DASHED
100
AcDbLine
 10
112.4558909136565
 20
35.71020016371381
 30
0.0
 11
107.6236270019409
 21
35.71020016371381
 31
0.0
  0
LINE
  5
454
330
18
100
AcDbEntity
  8
2
100
AcDbLine
 10
101.1236270019409
 20
35.71020016371381
 30
0.0
 11
92.62362700194096
 21
35.71020016371392
 31
0.0
  0
LINE
  5
455
330
18
100
AcDbEntity
  8
2
100
AcDbLine
 10
92.62362700194097
 20
33.91020016371374
 30
0.0
 11
91.12362700194095
 21
33.91020016371362
 31
0.0
  0
LINE
  5
456
330
18
100
AcDbEntity
  8
2
100
AcDbLine
 10
91.12362700194097
 20
33.91020016371362
 30
0.0
 11
91.12362700194095
 21
35.71020016371381
 31
0.0
  0
LINE
  5
457
330
18
100
AcDbEntity
  8
2
100
AcDbLine
 10
92.62362700194096
 20
33.91020016371362
 30
0.0
 11
92.62362700194096
 21
35.71020016371381
 31
0.0
  0
LINE
  5
458
330
18
100
AcDbEntity
  8
2
100
AcDbLine
 10
107.6236270019409
 20
35.71020016371381
 30
0.0
 11
102.6236270019409
 21
35.71020016371381
 31
0.0
  0
LINE
  5
459
330
18
100
AcDbEntity
  8
2
100
AcDbLine
 10
102.6236270019409
 20
33.91020016371374
 30
0.0
 11
101.1236270019409
 21
33.91020016371374
 31
0.0
  0
LINE
  5
45A
330
18
100
AcDbEntity
  8
2
100
AcDbLine
 10
101.1236270019409
 20
33.91020016371362
 30
0.0
 11
101.1236270019409
 21
35.71020016371381
 31
0.0
  0
LINE
  5
45B
330
18
100
AcDbEntity
  8
2
100
AcDbLine
 10
102.6236270019409
 20
33.91020016371362
 30
0.0
 11
102.6236270019409
 21
35.71020016371381
 31
0.0
  0
LINE
  5
45C
330
18
100
AcDbEntity
  8
2
100
AcDbLine
 10
103.8736270019409
 20
74.87582421081095
 30
0.0
 11
106.8736270019409
 21
74.87582421081106
 31
0.0
  0
LINE
  5
45D
330
18
100
AcDbEntity
  8
2
100
AcDbLine
 10
103.8736270019409
 20
73.87582421081106
 30
0.0
 11
103.8736270019409
 21
74.87582421080867
 31
0.0
  0
LINE
  5
45E
330
18
100
AcDbEntity
  8
2
100
AcDbLine
 10
106.8736270019409
 20
73.87582421081106
 30
0.0
 11
106.8736270019409
 21
74.87582421080856
 31
0.0
  0
LINE
  5
45F
330
18
100
AcDbEntity
  8
2
  6
DASHED
 48
5.0
100
AcDbLine
 10
112.4558909136565
 20
35.71020016371381
 30
0.0
 11
114.1585936163592
 21
32.91020016371396
 31
0.0
  0
ARC
  5
460
330
18
100
AcDbEntity
  8
2
100
AcDbCircle
 10
111.1868034740208
 20
34.91020016371385
 30
0.0
 40
3.0
100
AcDbArc
 50
31.30412349559303
 51
90.0
  0
MTEXT
  5
461
330
18
100
AcDbEntity
  8
3
100
AcDbMText
 10
123.0645556706657
 20
44.91851798879338
 30
0.0
 40
3.0
 41
8.1134
 71
     1
 72
     5
  1
1
 73
     1
 44
1.0
  0
CIRCLE
  5
462
330
18
100
AcDbEntity
  8
3
 62
     2
100
AcDbCircle
 10
123.5110397767557
 20
43.31525104178149
 30
0.0
 40
3.0
  0
ARC
  5
463
330
18
100
AcDbEntity
  8
2
100
AcDbCircle
 10
116.873627001941
 20
77.8758242108114
 30
0.0
 40
5.0
100
AcDbArc
 50
269.9999999999996
 51
0.0
  0
LINE
  5
464
330
18
100
AcDbEntity
  8
2
100
AcDbLine
 10
117.8736270019409
 20
73.87582421081106
 30
0.0
 11
117.8736270019409
 21
75.37582421081106
 31
0.0
  0
LINE
  5
465
330
18
100
AcDbEntity
  8
2
 48
5.0
100
AcDbLine
 10
112.873627001941
 20
145.3758242108112
 30
0.0
 11
112.873627001941
 21
100.375824210811
 31
0.0
  0
DIMENSION
  5
466
330
18
100
AcDbEntity
  8
3
100
AcDbDimension
  2
*D14
 10
152.9202502335613
 20
145.3758242108112
 30
0.0
 11
150.7952502335612
 21
122.8758242108112
 31
0.0
 70
    32
 71
     5
 42
45.00000000000021
  3
ISO-25
100
AcDbAlignedDimension
 13
160.4600536932318
 23
100.375824210811
 33
0.0
 14
160.4600536932319
 24
145.3758242108112
 34
0.0
 50
90.0
100
AcDbRotatedDimension
  0
LINE
  5
467
330
18
100
AcDbEntity
  8
2
100
AcDbLine
 10
160.4600536932319
 20
144.5628784144687
 30
0.0
 11
160.4600536932318
 21
101.1887700071537
 31
0.0
  0
ARC
  5
468
330
18
100
AcDbEntity
  8
2
100
AcDbCircle
 10
12.88303793029389
 20
122.8758242108112
 30
0.0
 40
151.577015762938
100
AcDbArc
 50
351.1613096083925
 51
0.0
  0
LINE
  5
469
330
18
100
AcDbEntity
  8
2
  6
DASHED
100
AcDbLine
 10
162.6600536932319
 20
122.8758242108111
 30
0.0
 11
162.6600536932319
 21
99.58554175768108
 31
0.0
  0
ARC
  5
46A
330
18
100
AcDbEntity
  8
2
100
AcDbCircle
 10
163.4600536932318
 20
101.1887700071537
 30
0.0
 40
3.0
100
AcDbArc
 50
180.0
 51
210.3239999999996
  0
LINE
  5
46B
330
18
100
AcDbEntity
  8
2
100
AcDbLine
 10
162.8079020879697
 20
100.557069431469
 30
0.0
 11
163.137522541324
 21
100.7498693358916
 31
0.0
  0
LINE
  5
46C
330
18
100
AcDbEntity
  8
2
100
AcDbLine
 10
162.2743384024927
 20
100.2449800980662
 30
0.0
 11
162.8079020879697
 21
100.557069431469
 31
0.0
  0
LINE
  5
46D
330
18
100
AcDbEntity
  8
2
100
AcDbLine
 10
164.45819818948
 20
122.125824210811
 30
0.0
 11
165.4600536932319
 21
122.125824210811
 31
0.0
  0
LINE
  5
46E
330
18
100
AcDbEntity
  8
2
100
AcDbLine
 10
165.4600536932318
 20
122.875824210811
 30
0.0
 11
165.4600536932319
 21
122.1258242108111
 31
0.0
  0
LINE
  5
46F
330
18
100
AcDbEntity
  8
2
  6
DASHED
100
AcDbLine
 10
162.6600536932319
 20
122.125824210811
 30
0.0
 11
164.45819818948
 21
122.125824210811
 31
0.0
  0
ARC
  5
470
330
18
100
AcDbEntity
  8
2
 48
5.0
100
AcDbCircle
 10
163.4600536932319
 20
144.5628784144687
 30
0.0
 40
3.0
100
AcDbArc
 50
149.6760000000003
 51
180.0
  0
MTEXT
  5
471
330
18
100
AcDbEntity
  8
3
100
AcDbMText
 10
98.32776209379289
 20
181.8312994850977
 30
0.0
 40
3.0
 41
8.1134
 71
     1
 72
     5
  1
3
 73
     1
 44
1.0
  0
CIRCLE
  5
472
330
18
100
AcDbEntity
  8
3
 62
     2
100
AcDbCircle
 10
99.12916900207381
 20
180.1677024398858
 30
0.0
 40
3.0
  0
LEADER
  5
473
330
18
100
AcDbEntity
  8
3
100
AcDbLeader
  3
ISO-25
 76
     2
 10
93.61098684493844
 20
165.7072180905132
 30
0.0
 10
98.18733813602984
 20
177.3193775602825
 30
0.0
1001
ACAD
1000
DSTYLE
1002
{
1070
   147
1040
0.625
1070
    77
1070
     0
1002
}
  0
LINE
  5
474
330
18
100
AcDbEntity
  8
2
100
AcDbLine
 10
103.8736270019409
 20
170.8758242108111
 30
0.0
 11
106.8736270019409
 21
170.875824210811
 31
0.0
  0
LINE
  5
475
330
18
100
AcDbEntity
  8
2
100
AcDbLine
 10
103.8736270019409
 20
171.875824210811
 30
0.0
 11
103.8736270019409
 21
170.8758242108134
 31
0.0
  0
LINE
  5
476
330
18
100
AcDbEntity
  8
2
100
AcDbLine
 10
106.8736270019409
 20
171.875824210811
 30
0.0
 11
106.8736270019409
 21
170.8758242108135
 31
0.0
  0
ARC
  5
477
330
18
100
AcDbEntity
  8
2
100
AcDbCircle
 10
116.873627001941
 20
167.875824210811
 30
0.0
 40
5.0
100
AcDbArc
 50
0.0
 51
90.00000000000039
  0
ARC
  5
478
330
18
100
AcDbEntity
  8
2
100
AcDbCircle
 10
115.1146980861256
 20
168.375824210811
 30
0.0
 40
2.0
100
AcDbArc
 50
341.8781397521
 51
90.0
  0
LINE
  5
479
330
18
100
AcDbEntity
  8
2
100
AcDbLine
 10
117.8736270019409
 20
171.875824210811
 30
0.0
 11
117.8736270019409
 21
170.3758242108114
 31
0.0
  0
DIMENSION
  5
47A
330
18
100
AcDbEntity
  8
3
100
AcDbDimension
  2
*D15
 10
191.2368448257246
 20
72.87582421081117
 30
0.0
 11
189.1118448257246
 21
122.8758242108112
 31
0.0
 70
    32
 71
     5
 42
100.0
  3
ISO-25
100
AcDbAlignedDimension
 13
177.4600536932319
 23
172.8758242108111
 33
0.0
 14
177.4600536932319
 24
72.87582421081117
 34
0.0
 50
90.0
100
AcDbRotatedDimension
  0
LINE
  5
47B
330
18
100
AcDbEntity
  8
2
100
AcDbLine
 10
175.2600536932319
 20
167.8758242108111
 30
0.0
 11
175.2600536932319
 21
122.875824210811
 31
0.0
  0
LINE
  5
47C
330
18
100
AcDbEntity
  8
2
100
AcDbLine
 10
177.4600536932319
 20
172.8758242108111
 30
0.0
 11
177.4600536932319
 21
72.87582421081117
 31
0.0
  0
MTEXT
  5
47D
330
18
100
AcDbEntity
  8
3
100
AcDbMText
 10
181.271745953574
 20
41.78895230501313
 30
0.0
 40
4.0
 41
38.67149319106716
 71
     1
 72
     5
  1
スティムソナイト
 73
     1
 44
1.0
  0
DIMENSION
  5
47E
330
18
100
AcDbEntity
  8
3
100
AcDbDimension
  2
*D16
 10
177.4600536932319
 20
62.42055325259162
 30
0.0
 11
175.5850536932319
 21
62.42055325259162
 31
0.0
 70
   160
 71
     5
 42
3.750000000000056
  3
ISO-25
100
AcDbAlignedDimension
 13
173.7100536932318
 23
73.90174841714895
 33
0.0
 14
177.4600536932319
 24
72.87582421081117
 34
0.0
100
AcDbRotatedDimension
  0
MTEXT
  5
47F
330
18
100
AcDbEntity
  8
3
100
AcDbMText
 10
172.6508392462068
 20
46.34802969990732
 30
0.0
 40
2.799999999999999
 41
4.0944
 71
     1
 72
     5
  1
部品図
 73
     1
 44
1.0
  0
LINE
  5
480
330
18
100
AcDbEntity
  8
2
 48
5.0
100
AcDbLine
 10
175.3753828627141
 20
74.87582421081083
 30
0.0
 11
173.7100536932318
 21
73.90174841714895
 31
0.0
  0
LINE
  5
481
330
18
100
AcDbEntity
  8
2
 48
5.0
100
AcDbLine
 10
174.7600536932319
 20
72.87582421081129
 30
0.0
 11
177.4600536932319
 21
72.87582421081129
 31
0.0
  0
LINE
  5
482
330
18
100
AcDbEntity
  8
2
 48
5.0
100
AcDbLine
 10
174.7600536932319
 20
73.17378362557485
 30
0.0
 11
175.9602977321055
 21
73.87582421081129
 31
0.0
  0
LINE
  5
483
330
18
100
AcDbEntity
  8
2
 48
5.0
100
AcDbLine
 10
174.7600536932319
 20
72.87582421081129
 30
0.0
 11
174.7600536932319
 21
73.17378362557497
 31
0.0
  0
LINE
  5
484
330
18
100
AcDbEntity
  8
2
 48
5.0
100
AcDbLine
 10
173.7100536932318
 20
73.90174841714895
 30
0.0
 11
174.7600536932319
 21
73.17378362557485
 31
0.0
  0
LINE
  5
485
330
18
100
AcDbEntity
  8
2
 48
5.0
100
AcDbLine
 10
176.4112370615895
 20
76.07582421081133
 30
0.0
 11
177.4600536932319
 21
76.07582421081133
 31
0.0
  0
LINE
  5
486
330
18
100
AcDbEntity
  8
2
100
AcDbLine
 10
176.4112370615894
 20
76.07582421081133
 30
0.0
 11
177.2744212004199
 21
76.58071344863618
 31
0.0
  0
CIRCLE
  5
487
330
18
100
AcDbEntity
  8
3
 62
     2
100
AcDbCircle
 10
220.0008017392457
 20
96.79043593179223
 30
0.0
 40
2.0
  0
CIRCLE
  5
48A
330
18
100
AcDbEntity
  8
3
 62
     2
100
AcDbCircle
 10
219.9330770526784
 20
81.76298196607399
 30
0.0
 40
2.0
  0
CIRCLE
  5
48B
330
18
100
AcDbEntity
  8
3
 62
     2
100
AcDbCircle
 10
220.0685272327125
 20
89.2090179368621
 30
0.0
 40
2.0
  0
MTEXT
  5
48C
330
18
100
AcDbEntity
  8
3
100
AcDbMText
 10
222.3855334211171
 20
46.05735941234172
 30
0.0
 40
2.799999999999999
 41
4.0944
 71
     1
 72
     5
  1
図　　番
 73
     1
 44
1.0
  0
DIMENSION
  5
48D
330
18
100
AcDbEntity
  8
3
100
AcDbDimension
  2
*D17
 10
185.8047554311432
 20
172.8758242108111
 30
0.0
 11
183.6797554311432
 21
170.3758242108112
 31
0.0
 70
    32
 71
     5
 42
5.0
  3
ISO-25
100
AcDbAlignedDimension
 13
175.2600536932319
 23
167.8758242108111
 33
0.0
 14
177.4600536932319
 24
172.8758242108111
 34
0.0
 50
90.0
100
AcDbRotatedDimension
  0
DIMENSION
  5
48E
330
18
100
AcDbEntity
  8
3
100
AcDbDimension
  2
*D18
 10
177.4600536932319
 20
180.6908436958406
 30
0.0
 11
186.0850536932319
 21
182.8158436958405
 31
0.0
 70
    32
 71
     5
 42
2.699999999999988
  3
ISO-25
100
AcDbAlignedDimension
 13
174.7600536932319
 23
172.875824210811
 33
0.0
 14
177.4600536932319
 24
172.875824210811
 34
0.0
100
AcDbRotatedDimension
  0
LINE
  5
48F
330
18
100
AcDbEntity
  8
2
  6
DASHED
 48
5.0
100
AcDbLine
 10
175.007858705072
 20
170.2474863502528
 30
0.0
 11
175.9602977321055
 21
171.875824210811
 31
0.0
  0
LINE
  5
490
330
18
100
AcDbEntity
  8
2
  6
DASHED
 48
5.0
100
AcDbLine
 10
175.3753828627141
 20
170.8758242108115
 30
0.0
 11
174.9122364913124
 21
171.1467254101493
 31
0.0
  0
LINE
  5
491
330
18
100
AcDbEntity
  8
2
  6
DASHED
 48
5.0
100
AcDbLine
 10
174.7600536932319
 20
172.5778647960474
 30
0.0
 11
175.9602977321055
 21
171.875824210811
 31
0.0
  0
LINE
  5
492
330
18
100
AcDbEntity
  8
2
 48
5.0
100
AcDbLine
 10
174.7600536932319
 20
172.5778647960473
 30
0.0
 11
175.2600536932319
 21
167.8758242108111
 31
0.0
  0
LINE
  5
493
330
18
100
AcDbEntity
  8
2
 48
5.0
100
AcDbLine
 10
174.7600536932319
 20
172.875824210811
 30
0.0
 11
177.4600536932319
 21
172.875824210811
 31
0.0
  0
LINE
  5
494
330
18
100
AcDbEntity
  8
2
 48
5.0
100
AcDbLine
 10
174.9122364913124
 20
171.1467254101493
 30
0.0
 11
173.7100536932318
 21
171.8499000044733
 31
0.0
  0
LINE
  5
495
330
18
100
AcDbEntity
  8
2
 48
5.0
100
AcDbLine
 10
173.7100536932318
 20
171.8499000044733
 30
0.0
 11
174.7600536932319
 21
172.5778647960474
 31
0.0
  0
LINE
  5
496
330
18
100
AcDbEntity
  8
2
 48
5.0
100
AcDbLine
 10
174.7600536932319
 20
172.875824210811
 30
0.0
 11
174.7600536932319
 21
172.5778647960473
 31
0.0
  0
LINE
  5
497
330
18
100
AcDbEntity
  8
3
100
AcDbLine
 10
271.8602004113929
 20
47.99999995708605
 30
0.0
 11
271.8602004113929
 21
15.99999995708594
 31
0.0
  0
MTEXT
  5
498
330
18
100
AcDbEntity
  8
3
100
AcDbMText
 10
259.8415592393366
 20
9.614659165954662
 30
0.0
 40
2.799999999999999
 41
3.9807
 71
     1
 72
     5
  1
承認
 73
     1
 44
1.0
  0
LINE
  5
499
330
18
100
AcDbEntity
  8
3
100
AcDbLine
 10
251.3602004113929
 20
-0.0000000429140528
 30
0.0
 11
251.3602004113929
 21
11.99999995708594
 31
0.0
  0
LINE
  5
49A
330
18
100
AcDbEntity
  8
3
100
AcDbLine
 10
259.360200411393
 20
-0.0000000429140528
 30
0.0
 11
259.3602004113929
 21
15.99999995708594
 31
0.0
  0
LINE
  5
49B
330
18
100
AcDbEntity
  8
3
100
AcDbLine
 10
246.8602004113929
 20
-0.0000000429140528
 30
0.0
 11
246.8602004113929
 21
15.99999995708594
 31
0.0
  0
MTEXT
  5
49C
330
18
100
AcDbEntity
  8
3
100
AcDbMText
 10
247.1561619066913
 20
9.843087178180667
 30
0.0
 40
2.799999999999999
 41
3.9807
 71
     1
 72
     5
  1
検図
 73
     1
 44
1.0
  0
MTEXT
  5
49D
330
18
100
AcDbEntity
  8
3
100
AcDbMText
 10
249.7675589126217
 20
15.6362170456598
 30
0.0
 40
2.799999999999999
 41
9.237
 71
     1
 72
     5
  1
・・
 73
     1
 44
1.0
  0
LINE
  5
49E
330
18
100
AcDbEntity
  8
3
100
AcDbLine
 10
263.860200411393
 20
-0.0000000429140528
 30
0.0
 11
263.8602004113929
 21
11.99999995708594
 31
0.0
  0
LINE
  5
49F
330
18
100
AcDbEntity
  8
3
100
AcDbLine
 10
271.8602004113929
 20
15.99999995708594
 30
0.0
 11
271.8602004113929
 21
-0.0000000429140528
 31
0.0
  0
MTEXT
  5
4A0
330
18
100
AcDbEntity
  8
3
100
AcDbMText
 10
261.7716837581235
 20
15.6362170456598
 30
0.0
 40
2.799999999999999
 41
9.237
 71
     1
 72
     5
  1
・・
 73
     1
 44
1.0
  0
LINE
  5
62E
330
18
100
AcDbEntity
  8
1
  6
CENTER
 62
     2
100
AcDbLine
 10
18.87362700194096
 20
122.875824210811
 30
0.0
 11
124.8736270019409
 21
122.875824210811
 31
0.0
  0
ARC
  5
63D
330
18
100
AcDbEntity
  8
2
100
AcDbCircle
 10
28.63255591775628
 20
77.37582421081118
 30
0.0
 40
2.0
100
AcDbArc
 50
161.8781397520999
 51
269.9999999999998
  0
ARC
  5
63E
330
18
100
AcDbEntity
  8
2
100
AcDbCircle
 10
115.1146980861256
 20
77.37582421081106
 30
0.0
 40
2.0
100
AcDbArc
 50
270.0
 51
18.12186024789999
  0
LEADER
  5
63F
330
18
100
AcDbEntity
  8
3
100
AcDbLeader
  3
ISO-25
 76
     2
 10
96.94926899084601
 20
83.58360239628177
 30
0.0
 10
96.94926899084601
 20
72.12311804690921
 30
0.0
210
0.0
220
0.0
230
-1.0
1001
ACAD
1000
DSTYLE
1002
{
1070
   147
1040
0.625
1070
    77
1070
     0
1002
}
  0
CIRCLE
  5
640
330
18
100
AcDbEntity
  8
3
 62
     2
100
AcDbCircle
 10
96.94926899084601
 20
69.12311804690921
 30
0.0
 40
3.0
  0
MTEXT
  5
641
330
18
100
AcDbEntity
  8
3
100
AcDbMText
 10
95.72084101033487
 20
67.93356427362431
 30
0.0
 40
3.0
 41
8.1134
 71
     7
 72
     5
  1
4
 73
     1
 44
1.0
  0
LINE
  5
645
330
18
100
AcDbEntity
  8
3
  6
Continuous
100
AcDbLine
 10
207.607853827621
 20
94.72626858657127
 30
0.0
 11
260.7811677376636
 21
94.72626858657127
 31
0.0
  0
LINE
  5
646
330
18
100
AcDbEntity
  8
3
  6
Continuous
100
AcDbLine
 10
207.607853827621
 20
87.22626858657127
 30
0.0
 11
260.7811677376636
 21
87.22626858657127
 31
0.0
  0
LINE
  5
647
330
18
100
AcDbEntity
  8
3
  6
Continuous
100
AcDbLine
 10
207.607853827621
 20
79.72626858657128
 30
0.0
 11
260.7811677376636
 21
79.72626858657128
 31
0.0
  0
LINE
  5
648
330
18
100
AcDbEntity
  8
3
  6
Continuous
100
AcDbLine
 10
207.607853827621
 20
72.22626858657128
 30
0.0
 11
260.7811677376636
 21
72.22626858657128
 31
0.0
  0
LINE
  5
649
330
18
100
AcDbEntity
  8
3
  6
Continuous
100
AcDbLine
 10
220.2030766516809
 20
57.22626858657128
 30
0.0
 11
255.3219594191106
 21
57.22626858657128
 31
0.0
  0
CIRCLE
  5
64B
330
18
100
AcDbEntity
  8
3
 62
     2
100
AcDbCircle
 10
219.9330770526784
 20
74.26298196607399
 30
0.0
 40
2.0
  0
LINE
  5
64C
330
18
100
AcDbEntity
  8
3
  6
Continuous
100
AcDbLine
 10
220.2030766516809
 20
49.72626858657128
 30
0.0
 11
255.3219594191106
 21
49.72626858657128
 31
0.0
  0
MTEXT
  5
64E
330
18
100
AcDbEntity
  8
3
  6
CENTER
100
AcDbMText
 10
233.0780096114539
 20
37.18246827117445
 30
0.0
 40
3.0
 41
28.58358115408393
 71
     1
 72
     5
  1
（旧図番ＳＡ88）
 73
     1
 44
1.0
  0
VIEWPORT
  5
62B
330
15
100
AcDbEntity
 67
     1
  8
0
  6
Continuous
100
AcDbViewport
 10
133.3499908447265
 20
101.5999970436096
 30
0.0
 40
449.5231629329583
 41
228.4221935424804
 68
     1
 69
     1
 12
133.3499908447265
 22
101.5999970436096
 13
0.0
 23
0.0
 14
10.0
 24
10.0
 15
10.0
 25
10.0
 16
0.0
 26
0.0
 36
1.0
 17
0.0
 27
0.0
 37
0.0
 42
50.0
 43
0.0
 44
0.0
 45
228.4221935424804
 50
0.0
 51
0.0
 72
   100
 90
    32800
  1

281
     0
 71
     1
 74
     0
110
0.0
120
0.0
130
0.0
111
1.0
121
0.0
131
0.0
112
0.0
122
1.0
132
0.0
 79
     0
146
0.0
  0
VIEWPORT
  5
62D
330
15
100
AcDbEntity
 67
     1
  8
0
  6
Continuous
100
AcDbViewport
 10
133.349993944168
 20
101.599993944168
 30
0.0
 40
213.3599903106689
 41
162.5599903106689
 68
     2
 69
     2
 12
135.9315499639273
 22
92.15764680511506
 13
0.0
 23
0.0
 14
10.0
 24
10.0
 15
10.0
 25
10.0
 16
0.0
 26
0.0
 36
1.0
 17
0.0
 27
0.0
 37
0.0
 42
50.0
 43
0.0
 44
0.0
 45
210.0040509647997
 50
0.0
 51
0.0
 72
   100
 90
    32800
  1

281
     0
 71
     1
 74
     0
110
0.0
120
0.0
130
0.0
111
1.0
121
0.0
131
0.0
112
0.0
122
1.0
132
0.0
 79
     0
146
0.0
  0
ENDSEC
  0
SECTION
  2
OBJECTS
  0
DICTIONARY
  5
C
330
0
100
AcDbDictionary
281
     1
  3
ACAD_GROUP
350
D
  3
ACAD_LAYOUT
350
177
  3
ACAD_MLINESTYLE
350
1B
  3
ACAD_PLOTSETTINGS
350
178
  3
ACAD_PLOTSTYLENAME
350
175
  3
AcadDim
350
189
  3
AcDbVariableDictionary
350
21C
  3
CONTENTDICTIONARY
350
39
  0
DICTIONARY
  5
D
102
{ACAD_REACTORS
330
C
102
}
330
C
100
AcDbDictionary
281
     1
  0
DICTIONARY
  5
177
102
{ACAD_REACTORS
330
C
102
}
330
C
100
AcDbDictionary
281
     1
  3
Model
350
179
  3
ﾚｲｱｳﾄ1
350
17A
  0
DICTIONARY
  5
1B
102
{ACAD_REACTORS
330
C
102
}
330
C
100
AcDbDictionary
281
     1
  3
STANDARD
350
1C
  0
DICTIONARY
  5
178
102
{ACAD_REACTORS
330
C
102
}
330
C
100
AcDbDictionary
281
     1
  0
ACDBDICTIONARYWDFLT
  5
175
102
{ACAD_REACTORS
330
C
102
}
330
C
100
AcDbDictionary
281
     1
  3
Normal
350
176
100
AcDbDictionaryWithDefault
340
176
  0
XRECORD
  5
189
102
{ACAD_REACTORS
330
C
102
}
330
C
100
AcDbXrecord
280
     1
 90
   990106
  3
OPEN
 60
     0
 61
     0
 62
     4
 63
     4
 64
     1
 65
     0
 66
     0
 67
     3
 68
     1
 69
     0
 70
     0
 71
     0
 72
     0
 40
0.0
170
     2
  0
DICTIONARY
  5
21C
102
{ACAD_REACTORS
330
C
102
}
330
C
100
AcDbDictionary
281
     1
  3
DIMASSOC
350
21D
  0
DICTIONARY
  5
39
102
{ACAD_REACTORS
330
C
102
}
330
C
100
AcDbDictionary
281
     1
  0
LAYOUT
  5
179
102
{ACAD_REACTORS
330
177
102
}
330
177
100
AcDbPlotSettings
  1

  2
HP DesignJet 750C+ (E/A0) by HP
  4
User1292
  6

 40
4.995333194732666
 41
16.93333625793457
 42
4.995330810546875
 43
16.93333435058593
 44
296.9259948730469
 45
209.8040008544921
 46
20.0
 47
0.0
 48
0.0
 49
0.0
140
0.0
141
0.0
142
1.0
143
1.04772204646716
 70
 11952
 72
     1
 73
     0
 74
     1
  7
hp750.ctb
 75
     0
147
0.9544516156474172
148
0.0128166167421569
149
0.0090630721219895
100
AcDbLayout
  1
Model
 70
     1
 71
     0
 10
0.0
 20
0.0
 11
12.0
 21
9.0
 12
0.0
 22
0.0
 32
0.0
 14
0.0
 24
0.0
 34
0.0
 15
0.0
 25
0.0
 35
0.0
146
0.0
 13
0.0
 23
0.0
 33
0.0
 16
1.0
 26
0.0
 36
0.0
 17
0.0
 27
1.0
 37
0.0
 76
     0
330
18
  0
LAYOUT
  5
17A
102
{ACAD_REACTORS
330
177
102
}
330
177
100
AcDbPlotSettings
  1

  2
none_device
  4
Letter_(8.50_x_11.00_Inches)
  6

 40
6.349999904632568
 41
6.349999904632568
 42
6.350006103515625
 43
6.350006103515625
 44
215.8999938964843
 45
279.3999938964843
 46
0.0
 47
0.0
 48
0.0
 49
0.0
140
0.0
141
0.0
142
1.0
143
1.0
 70
   688
 72
     1
 73
     1
 74
     5
  7
D:\Program Files\AutoCAD LT 98\Plot Styles\hp750.ctb
 75
    16
147
1.0
148
0.0
149
0.0
100
AcDbLayout
  1
ﾚｲｱｳﾄ1
 70
     0
 71
     1
 10
-6.350006103515625
 20
-6.349999904632568
 11
273.0499877929687
 21
209.5499939918517
 12
0.0
 22
0.0
 32
0.0
 14
26.66999878883362
 24
20.31999878883362
 34
0.0
 15
240.0299890995025
 25
182.8799890995025
 35
0.0
146
0.0
 13
0.0
 23
0.0
 33
0.0
 16
1.0
 26
0.0
 36
0.0
 17
0.0
 27
1.0
 37
0.0
 76
     0
330
15
331
62B
  0
MLINESTYLE
  5
1C
102
{ACAD_REACTORS
330
1B
102
}
330
1B
100
AcDbMlineStyle
  2
STANDARD
 70
     0
  3

 62
   256
 51
90.0
 52
90.0
 71
     2
 49
0.5
 62
   256
  6
BYLAYER
 49
-0.5
 62
   256
  6
BYLAYER
  0
ACDBPLACEHOLDER
  5
176
102
{ACAD_REACTORS
330
175
102
}
330
175
  0
DICTIONARYVAR
  5
21D
102
{ACAD_REACTORS
330
21C
102
}
330
21C
100
DictionaryVariables
280
     0
  1
1
  0
ENDSEC
  0
EOF
