  0
SECTION
  2
HEADER
  9
$ACADVER
  1
AC1015
  9
$ACADMAINTVER
 70
    10
  9
$DWGCODEPAGE
  3
ANSI_932
  9
$INSBASE
 10
0.0
 20
0.0
 30
0.0
  9
$EXTMIN
 10
-62.18962060879142
 20
627.6549820397572
 30
-0.0000000000112498
  9
$EXTMAX
 10
209.6872430619448
 20
812.0370730655768
 30
0.0000000000002956
  9
$LIMMIN
 10
0.0
 20
0.0
  9
$LIMMAX
 10
420.0
 20
297.0
  9
$ORTHOMODE
 70
     1
  9
$REGENMODE
 70
     1
  9
$FILLMODE
 70
     1
  9
$QTEXTMODE
 70
     0
  9
$MIRRTEXT
 70
     0
  9
$LTSCALE
 40
10.0
  9
$ATTMODE
 70
     1
  9
$TEXTSIZE
 40
3.0
  9
$TRACEWID
 40
1.0
  9
$TEXTSTYLE
  7
STANDARD
  9
$CLAYER
  8
3
  9
$CELTYPE
  6
DASHED
  9
$CECOLOR
 62
   256
  9
$CELTSCALE
 40
1.0
  9
$DISPSILH
 70
     0
  9
$DIMSCALE
 40
1.0
  9
$DIMASZ
 40
3.0
  9
$DIMEXO
 40
0.5
  9
$DIMDLI
 40
4.0
  9
$DIMRND
 40
0.0
  9
$DIMDLE
 40
0.0
  9
$DIMEXE
 40
1.0
  9
$DIMTP
 40
0.0
  9
$DIMTM
 40
0.0
  9
$DIMTXT
 40
3.0
  9
$DIMCEN
 40
0.0
  9
$DIMTSZ
 40
0.0
  9
$DIMTOL
 70
     0
  9
$DIMLIM
 70
     0
  9
$DIMTIH
 70
     0
  9
$DIMTOH
 70
     0
  9
$DIMSE1
 70
     0
  9
$DIMSE2
 70
     0
  9
$DIMTAD
 70
     1
  9
$DIMZIN
 70
     9
  9
$DIMBLK
  1

  9
$DIMASO
 70
     1
  9
$DIMSHO
 70
     1
  9
$DIMPOST
  1

  9
$DIMAPOST
  1

  9
$DIMALT
 70
     0
  9
$DIMALTD
 70
     4
  9
$DIMALTF
 40
0.0394
  9
$DIMLFAC
 40
1.0
  9
$DIMTOFL
 70
     0
  9
$DIMTVP
 40
0.0
  9
$DIMTIX
 70
     0
  9
$DIMSOXD
 70
     0
  9
$DIMSAH
 70
     1
  9
$DIMBLK1
  1
OPEN
  9
$DIMBLK2
  1
OPEN
  9
$DIMSTYLE
  2
STD01
  9
$DIMCLRD
 70
     2
  9
$DIMCLRE
 70
     2
  9
$DIMCLRT
 70
     0
  9
$DIMTFAC
 40
1.0
  9
$DIMGAP
 40
0.5
  9
$DIMJUST
 70
     0
  9
$DIMSD1
 70
     0
  9
$DIMSD2
 70
     0
  9
$DIMTOLJ
 70
     1
  9
$DIMTZIN
 70
     9
  9
$DIMALTZ
 70
     0
  9
$DIMALTTZ
 70
     0
  9
$DIMUPT
 70
     0
  9
$DIMDEC
 70
     3
  9
$DIMTDEC
 70
     3
  9
$DIMALTU
 70
     8
  9
$DIMALTTD
 70
     4
  9
$DIMTXSTY
  7
STANDARD
  9
$DIMAUNIT
 70
     0
  9
$DIMADEC
 70
     3
  9
$DIMALTRND
 40
0.0
  9
$DIMAZIN
 70
     2
  9
$DIMDSEP
 70
    46
  9
$DIMATFIT
 70
     3
  9
$DIMFRAC
 70
     0
  9
$DIMLDRBLK
  1
OPEN
  9
$DIMLUNIT
 70
     2
  9
$DIMLWD
 70
    -2
  9
$DIMLWE
 70
    -2
  9
$DIMTMOVE
 70
     0
  9
$LUNITS
 70
     2
  9
$LUPREC
 70
     4
  9
$SKETCHINC
 40
1.0
  9
$FILLETRAD
 40
0.0
  9
$AUNITS
 70
     0
  9
$AUPREC
 70
     0
  9
$MENU
  1
acad
  9
$ELEVATION
 40
0.0
  9
$PELEVATION
 40
0.0
  9
$THICKNESS
 40
0.0
  9
$LIMCHECK
 70
     0
  9
$CHAMFERA
 40
10.0
  9
$CHAMFERB
 40
10.0
  9
$CHAMFERC
 40
20.0
  9
$CHAMFERD
 40
0.0
  9
$SKPOLY
 70
     0
  9
$TDCREATE
 40
2452225.434686284
  9
$TDUCREATE
 40
2452225.059686284
  9
$TDUPDATE
 40
2452227.591694329
  9
$TDUUPDATE
 40
2452227.216694328
  9
$TDINDWG
 40
0.0123693519
  9
$TDUSRTIMER
 40
0.0123655324
  9
$USRTIMER
 70
     1
  9
$ANGBASE
 50
0.0
  9
$ANGDIR
 70
     0
  9
$PDMODE
 70
     0
  9
$PDSIZE
 40
0.0
  9
$PLINEWID
 40
0.0
  9
$SPLFRAME
 70
     0
  9
$SPLINETYPE
 70
     6
  9
$SPLINESEGS
 70
     8
  9
$HANDSEED
  5
4C3
  9
$SURFTAB1
 70
     6
  9
$SURFTAB2
 70
     6
  9
$SURFTYPE
 70
     6
  9
$SURFU
 70
     6
  9
$SURFV
 70
     6
  9
$UCSBASE
  2

  9
$UCSNAME
  2

  9
$UCSORG
 10
0.0
 20
0.0
 30
0.0
  9
$UCSXDIR
 10
1.0
 20
0.0
 30
0.0
  9
$UCSYDIR
 10
0.0
 20
1.0
 30
0.0
  9
$UCSORTHOREF
  2

  9
$UCSORTHOVIEW
 70
     0
  9
$UCSORGTOP
 10
0.0
 20
0.0
 30
0.0
  9
$UCSORGBOTTOM
 10
0.0
 20
0.0
 30
0.0
  9
$UCSORGLEFT
 10
0.0
 20
0.0
 30
0.0
  9
$UCSORGRIGHT
 10
0.0
 20
0.0
 30
0.0
  9
$UCSORGFRONT
 10
0.0
 20
0.0
 30
0.0
  9
$UCSORGBACK
 10
0.0
 20
0.0
 30
0.0
  9
$PUCSBASE
  2

  9
$PUCSNAME
  2

  9
$PUCSORG
 10
0.0
 20
0.0
 30
0.0
  9
$PUCSXDIR
 10
1.0
 20
0.0
 30
0.0
  9
$PUCSYDIR
 10
0.0
 20
1.0
 30
0.0
  9
$PUCSORTHOREF
  2

  9
$PUCSORTHOVIEW
 70
     0
  9
$PUCSORGTOP
 10
0.0
 20
0.0
 30
0.0
  9
$PUCSORGBOTTOM
 10
0.0
 20
0.0
 30
0.0
  9
$PUCSORGLEFT
 10
0.0
 20
0.0
 30
0.0
  9
$PUCSORGRIGHT
 10
0.0
 20
0.0
 30
0.0
  9
$PUCSORGFRONT
 10
0.0
 20
0.0
 30
0.0
  9
$PUCSORGBACK
 10
0.0
 20
0.0
 30
0.0
  9
$USERI1
 70
     0
  9
$USERI2
 70
     0
  9
$USERI3
 70
     0
  9
$USERI4
 70
     0
  9
$USERI5
 70
     0
  9
$USERR1
 40
0.0
  9
$USERR2
 40
0.0
  9
$USERR3
 40
0.0
  9
$USERR4
 40
0.0
  9
$USERR5
 40
0.0
  9
$WORLDVIEW
 70
     1
  9
$SHADEDGE
 70
     3
  9
$SHADEDIF
 70
    70
  9
$TILEMODE
 70
     1
  9
$MAXACTVP
 70
    48
  9
$PINSBASE
 10
0.0
 20
0.0
 30
0.0
  9
$PLIMCHECK
 70
     0
  9
$PEXTMIN
 10
0.0
 20
0.0
 30
0.0
  9
$PEXTMAX
 10
0.0
 20
0.0
 30
0.0
  9
$PLIMMIN
 10
0.0
 20
0.0
  9
$PLIMMAX
 10
0.0
 20
0.0
  9
$UNITMODE
 70
     0
  9
$VISRETAIN
 70
     1
  9
$PLINEGEN
 70
     0
  9
$PSLTSCALE
 70
     0
  9
$TREEDEPTH
 70
  3020
  9
$CMLSTYLE
  2
STANDARD
  9
$CMLJUST
 70
     0
  9
$CMLSCALE
 40
20.0
  9
$PROXYGRAPHICS
 70
     1
  9
$MEASUREMENT
 70
     1
  9
$CELWEIGHT
370
    -1
  9
$ENDCAPS
280
     0
  9
$JOINSTYLE
280
     0
  9
$LWDISPLAY
290
     0
  9
$INSUNITS
 70
     0
  9
$HYPERLINKBASE
  1

  9
$STYLESHEET
  1
HP750.CTB
  9
$XEDIT
290
     1
  9
$CEPSNTYPE
380
     0
  9
$PSTYLEMODE
290
     1
  9
$FINGERPRINTGUID
  2
{357C0802-013E-11D5-8976-00004C990E2D}
  9
$VERSIONGUID
  2
{40E3C45F-D836-11D5-A709-0040CA963965}
  9
$EXTNAMES
290
     1
  9
$PSVPSCALE
 40
0.0
  9
$OLESTARTUP
290
     0
  0
ENDSEC
  0
SECTION
  2
CLASSES
  0
CLASS
  1
ACDBDICTIONARYWDFLT
  2
AcDbDictionaryWithDefault
  3
AutoCAD 2000
 90
        0
280
     0
281
     0
  0
CLASS
  1
ACDBPLACEHOLDER
  2
AcDbPlaceHolder
  3
AutoCAD 2000
 90
        0
280
     0
281
     0
  0
CLASS
  1
LAYOUT
  2
AcDbLayout
  3
AutoCAD 2000
 90
        0
280
     0
281
     0
  0
CLASS
  1
DICTIONARYVAR
  2
AcDbDictionaryVar
  3
AutoCAD 2000
 90
        0
280
     0
281
     0
  0
ENDSEC
  0
SECTION
  2
TABLES
  0
TABLE
  2
VPORT
  5
8
330
0
100
AcDbSymbolTable
 70
     2
  0
VPORT
  5
4C2
330
8
100
AcDbSymbolTableRecord
100
AcDbViewportTableRecord
  2
*Active
 70
     0
 10
0.0
 20
0.0
 11
1.0
 21
1.0
 12
115.4319043531467
 22
719.8640428637327
 13
0.0
 23
0.0
 14
10.0
 24
10.0
 15
10.0
 25
10.0
 16
0.0
 26
0.0
 36
1.0
 17
0.0
 27
0.0
 37
0.0
 40
185.755348809281
 41
1.958791208791208
 42
50.0
 43
0.0
 44
0.0
 50
0.0
 51
0.0
 71
     0
 72
   100
 73
     1
 74
     1
 75
     0
 76
     0
 77
     0
 78
     0
281
     0
 65
     1
110
0.0
120
0.0
130
0.0
111
1.0
121
0.0
131
0.0
112
0.0
122
1.0
132
0.0
 79
     0
146
0.0
  0
ENDTAB
  0
TABLE
  2
LTYPE
  5
5
330
0
100
AcDbSymbolTable
 70
     9
  0
LTYPE
  5
12
330
5
100
AcDbSymbolTableRecord
100
AcDbLinetypeTableRecord
  2
BYBLOCK
 70
     0
  3

 72
    65
 73
     0
 40
0.0
  0
LTYPE
  5
13
330
5
100
AcDbSymbolTableRecord
100
AcDbLinetypeTableRecord
  2
BYLAYER
 70
     0
  3

 72
    65
 73
     0
 40
0.0
  0
LTYPE
  5
14
330
5
100
AcDbSymbolTableRecord
100
AcDbLinetypeTableRecord
  2
CONTINUOUS
 70
     0
  3
Solid line
 72
    65
 73
     0
 40
0.0
  0
LTYPE
  5
22
330
5
100
AcDbSymbolTableRecord
100
AcDbLinetypeTableRecord
  2
BORDER
 70
     0
  3
Border __ __ . __ __ . __ __ . __ __ . __ __ .
 72
    65
 73
     6
 40
1.75
 49
0.5
 74
     0
 49
-0.25
 74
     0
 49
0.5
 74
     0
 49
-0.25
 74
     0
 49
0.0
 74
     0
 49
-0.25
 74
     0
  0
LTYPE
  5
23
330
5
100
AcDbSymbolTableRecord
100
AcDbLinetypeTableRecord
  2
CENTER
 70
     0
  3
Center ____ _ ____ _ ____ _ ____ _ ____ _ ____
 72
    65
 73
     4
 40
2.0
 49
1.25
 74
     0
 49
-0.25
 74
     0
 49
0.25
 74
     0
 49
-0.25
 74
     0
  0
LTYPE
  5
24
330
5
100
AcDbSymbolTableRecord
100
AcDbLinetypeTableRecord
  2
DASHDOT
 70
     0
  3
Dash dot __ . __ . __ . __ . __ . __ . __ . __
 72
    65
 73
     4
 40
1.0
 49
0.5
 74
     0
 49
-0.25
 74
     0
 49
0.0
 74
     0
 49
-0.25
 74
     0
  0
LTYPE
  5
25
330
5
100
AcDbSymbolTableRecord
100
AcDbLinetypeTableRecord
  2
DASHED
 70
     0
  3
Dashed __ __ __ __ __ __ __ __ __ __ __ __ __ _
 72
    65
 73
     2
 40
0.75
 49
0.5
 74
     0
 49
-0.25
 74
     0
  0
LTYPE
  5
26
330
5
100
AcDbSymbolTableRecord
100
AcDbLinetypeTableRecord
  2
DIVIDE
 70
     0
  3
Divide ____ . . ____ . . ____ . . ____ . . ____
 72
    65
 73
     6
 40
1.25
 49
0.5
 74
     0
 49
-0.25
 74
     0
 49
0.0
 74
     0
 49
-0.25
 74
     0
 49
0.0
 74
     0
 49
-0.25
 74
     0
  0
LTYPE
  5
27
330
5
100
AcDbSymbolTableRecord
100
AcDbLinetypeTableRecord
  2
DOT
 70
     0
  3
Dot . . . . . . . . . . . . . . . . . . . . . .
 72
    65
 73
     2
 40
0.25
 49
0.0
 74
     0
 49
-0.25
 74
     0
  0
LTYPE
  5
28
330
5
100
AcDbSymbolTableRecord
100
AcDbLinetypeTableRecord
  2
HIDDEN
 70
     0
  3
Hidden __ __ __ __ __ __ __ __ __ __ __ __ __ _
 72
    65
 73
     2
 40
0.375
 49
0.25
 74
     0
 49
-0.125
 74
     0
  0
LTYPE
  5
29
330
5
100
AcDbSymbolTableRecord
100
AcDbLinetypeTableRecord
  2
PHANTOM
 70
     0
  3
Phantom ______  __  __  ______  __  __  ______
 72
    65
 73
     6
 40
2.5
 49
1.25
 74
     0
 49
-0.25
 74
     0
 49
0.25
 74
     0
 49
-0.25
 74
     0
 49
0.25
 74
     0
 49
-0.25
 74
     0
  0
ENDTAB
  0
TABLE
  2
LAYER
  5
2
330
0
100
AcDbSymbolTable
 70
    10
  0
LAYER
  5
E
330
2
100
AcDbSymbolTableRecord
100
AcDbLayerTableRecord
  2
0
 70
     0
 62
     7
  6
CONTINUOUS
370
    -3
390
176
  0
LAYER
  5
31
330
2
100
AcDbSymbolTableRecord
100
AcDbLayerTableRecord
  2
WAKU
 70
     0
 62
     7
  6
CONTINUOUS
370
    -3
390
176
  0
LAYER
  5
32
330
2
100
AcDbSymbolTableRecord
100
AcDbLayerTableRecord
  2
SUNPOU
 70
     0
 62
     7
  6
CONTINUOUS
370
    -3
390
176
  0
LAYER
  5
45
330
2
100
AcDbSymbolTableRecord
100
AcDbLayerTableRecord
  2
DEFPOINTS
 70
     0
 62
     7
  6
CONTINUOUS
290
     0
370
    -3
390
176
  0
LAYER
  5
142
330
2
100
AcDbSymbolTableRecord
100
AcDbLayerTableRecord
  2
TMP
 70
     0
 62
     7
  6
CONTINUOUS
370
    -3
390
176
  0
LAYER
  5
222
330
2
100
AcDbSymbolTableRecord
100
AcDbLayerTableRecord
  2
vp
 70
     0
 62
    -1
  6
CONTINUOUS
370
    -3
390
176
  0
LAYER
  5
223
330
2
100
AcDbSymbolTableRecord
100
AcDbLayerTableRecord
  2
vp1
 70
     0
 62
    -1
  6
CONTINUOUS
370
    -3
390
176
  0
LAYER
  5
31D
330
2
100
AcDbSymbolTableRecord
100
AcDbLayerTableRecord
  2
1
 70
     0
 62
     7
  6
CONTINUOUS
370
    -3
390
176
  0
LAYER
  5
31E
330
2
100
AcDbSymbolTableRecord
100
AcDbLayerTableRecord
  2
2
 70
     0
 62
     7
  6
CONTINUOUS
370
    -3
390
176
  0
LAYER
  5
31F
330
2
100
AcDbSymbolTableRecord
100
AcDbLayerTableRecord
  2
3
 70
     0
 62
     7
  6
CONTINUOUS
370
    -3
390
176
  0
ENDTAB
  0
TABLE
  2
STYLE
  5
3
330
0
100
AcDbSymbolTable
 70
     2
  0
STYLE
  5
F
330
3
100
AcDbSymbolTableRecord
100
AcDbTextStyleTableRecord
  2
STANDARD
 70
     0
 40
0.0
 41
1.0
 50
0.0
 71
     0
 42
3.0
  3
txt.shx
  4
bigfont.shx
  0
STYLE
  5
21
330
3
100
AcDbSymbolTableRecord
100
AcDbTextStyleTableRecord
  2

 70
     1
 40
0.0
 41
1.0
 50
0.0
 71
     0
 42
2.5
  3
ltypeshp.shx
  4

  0
ENDTAB
  0
TABLE
  2
VIEW
  5
6
330
0
100
AcDbSymbolTable
 70
     0
  0
ENDTAB
  0
TABLE
  2
UCS
  5
7
330
0
100
AcDbSymbolTable
 70
     0
  0
ENDTAB
  0
TABLE
  2
APPID
  5
9
330
0
100
AcDbSymbolTable
 70
     5
  0
APPID
  5
10
330
9
100
AcDbSymbolTableRecord
100
AcDbRegAppTableRecord
  2
ACAD
 70
     0
  0
APPID
  5
3A
330
9
100
AcDbSymbolTableRecord
100
AcDbRegAppTableRecord
  2
CONTENTTABDATA
 70
     0
  0
APPID
  5
3B
330
9
100
AcDbSymbolTableRecord
100
AcDbRegAppTableRecord
  2
CONTENTCURRENTTAB
 70
     0
  0
APPID
  5
46
330
9
100
AcDbSymbolTableRecord
100
AcDbRegAppTableRecord
  2
CONTENTBLOCKICON
 70
     0
  0
APPID
  5
47
330
9
100
AcDbSymbolTableRecord
100
AcDbRegAppTableRecord
  2
CONTENTBLOCKDESCRIPTION
 70
     0
  0
ENDTAB
  0
TABLE
  2
DIMSTYLE
  5
A
330
0
100
AcDbSymbolTable
 70
    19
100
AcDbDimStyleTable
 71
     5
340
1E2
340
187
340
1E1
340
1E0
340
1D
  0
DIMSTYLE
105
1D
330
A
100
AcDbSymbolTableRecord
100
AcDbDimStyleTableRecord
  2
STANDARD
 70
     0
 40
0.0
 41
3.0
 42
0.5
 43
4.0
 44
1.0
 73
     0
 74
     0
 77
     1
 78
     9
140
3.0
141
0.0
143
0.0394
147
0.5
171
     4
173
     1
176
     2
177
     2
179
     3
271
     3
272
     3
273
     8
274
     4
284
     9
340
F
341
2B
343
2B
344
2B
  0
DIMSTYLE
105
187
330
A
100
AcDbSymbolTableRecord
100
AcDbDimStyleTableRecord
  2
STD01
 70
     0
 41
3.0
 42
0.5
 43
4.0
 44
1.0
 73
     0
 74
     0
 77
     1
 78
     9
 79
     2
140
3.0
141
0.0
143
0.0394
147
0.5
171
     4
173
     1
176
     2
177
     2
179
     3
271
     3
272
     3
273
     8
274
     4
284
     9
340
F
341
2B
343
2B
344
2B
  0
DIMSTYLE
105
1E0
330
A
100
AcDbSymbolTableRecord
100
AcDbDimStyleTableRecord
  2
STD02
 70
     0
 40
0.5
 41
3.0
 42
0.5
 43
4.0
 44
1.0
 73
     0
 74
     0
 77
     1
 78
     9
 79
     2
140
3.0
141
0.0
143
0.0394
147
0.5
171
     4
173
     1
176
     2
177
     2
179
     3
271
     3
272
     3
273
     8
274
     4
284
     9
340
F
341
2B
343
2B
344
2B
  0
DIMSTYLE
105
1E1
330
A
100
AcDbSymbolTableRecord
100
AcDbDimStyleTableRecord
  2
STD05
 70
     0
 40
0.2
 41
3.0
 42
0.5
 43
4.0
 44
1.0
 73
     0
 74
     0
 77
     1
 78
     9
 79
     2
140
3.0
141
0.0
143
0.0394
147
0.5
171
     4
173
     1
176
     2
177
     2
179
     3
271
     3
272
     3
273
     8
274
     4
284
     9
340
F
341
2B
343
2B
344
2B
  0
DIMSTYLE
105
1E2
330
A
100
AcDbSymbolTableRecord
100
AcDbDimStyleTableRecord
  2
STD10
 70
     0
 40
0.1
 41
3.0
 42
0.5
 43
4.0
 44
1.0
 73
     0
 74
     0
 77
     1
 78
     9
 79
     2
140
3.0
141
0.0
143
0.0394
147
0.5
171
     4
173
     1
176
     2
177
     2
179
     3
271
     3
272
     3
273
     8
274
     4
284
     9
340
F
341
2B
343
2B
344
2B
  0
DIMSTYLE
105
202
330
A
100
AcDbSymbolTableRecord
100
AcDbDimStyleTableRecord
  2
STD01$4
 70
     0
 41
3.0
 42
0.5
 43
4.0
 44
1.0
 73
     0
 77
     1
 78
     9
 79
     2
140
3.0
141
0.0
143
0.0394
147
0.5
171
     4
173
     1
176
     2
177
     2
179
     3
271
     3
272
     3
273
     8
274
     4
284
     9
340
F
341
2B
343
2B
344
2B
  0
DIMSTYLE
105
203
330
A
100
AcDbSymbolTableRecord
100
AcDbDimStyleTableRecord
  2
STD01$3
 70
     0
 41
3.0
 42
0.5
 43
4.0
 44
1.0
 73
     0
 77
     1
 78
     9
 79
     2
140
3.0
141
0.0
143
0.0394
147
0.5
171
     4
173
     1
176
     2
177
     2
179
     3
271
     3
272
     3
273
     8
274
     4
284
     9
340
F
341
2B
343
2B
344
2B
  0
DIMSTYLE
105
204
330
A
100
AcDbSymbolTableRecord
100
AcDbDimStyleTableRecord
  2
STD01$6
 70
     0
 41
3.0
 42
0.5
 43
4.0
 44
1.0
 73
     0
 74
     0
 78
     9
 79
     2
140
3.0
141
0.0
143
0.0394
147
0.5
171
     4
173
     1
176
     2
177
     2
179
     3
271
     3
272
     3
273
     8
274
     4
284
     9
340
F
341
2B
343
2B
344
2B
  0
DIMSTYLE
105
205
330
A
100
AcDbSymbolTableRecord
100
AcDbDimStyleTableRecord
  2
STD02$4
 70
     0
 40
0.5
 41
3.0
 42
0.5
 43
4.0
 44
1.0
 73
     0
 77
     1
 78
     9
 79
     2
140
3.0
141
0.0
143
0.0394
147
0.5
171
     4
173
     1
176
     2
177
     2
179
     3
271
     3
272
     3
273
     8
274
     4
284
     9
340
F
341
2B
343
2B
344
2B
  0
DIMSTYLE
105
206
330
A
100
AcDbSymbolTableRecord
100
AcDbDimStyleTableRecord
  2
STD02$3
 70
     0
 40
0.5
 41
3.0
 42
0.5
 43
4.0
 44
1.0
 73
     0
 77
     1
 78
     9
 79
     2
140
3.0
141
0.0
143
0.0394
147
0.5
171
     4
173
     1
176
     2
177
     2
179
     3
271
     3
272
     3
273
     8
274
     4
284
     9
340
F
341
2B
343
2B
344
2B
  0
DIMSTYLE
105
207
330
A
100
AcDbSymbolTableRecord
100
AcDbDimStyleTableRecord
  2
STD02$6
 70
     0
 40
0.5
 41
3.0
 42
0.5
 43
4.0
 44
1.0
 73
     0
 74
     0
 78
     9
 79
     2
140
3.0
141
0.0
143
0.0394
147
0.5
171
     4
173
     1
176
     2
177
     2
179
     3
271
     3
272
     3
273
     8
274
     4
284
     9
340
F
341
2B
343
2B
344
2B
  0
DIMSTYLE
105
208
330
A
100
AcDbSymbolTableRecord
100
AcDbDimStyleTableRecord
  2
STD05$4
 70
     0
 40
0.2
 41
3.0
 42
0.5
 43
4.0
 44
1.0
 73
     0
 77
     1
 78
     9
 79
     2
140
3.0
141
0.0
143
0.0394
147
0.5
171
     4
173
     1
176
     2
177
     2
179
     3
271
     3
272
     3
273
     8
274
     4
284
     9
340
F
341
2B
343
2B
344
2B
  0
DIMSTYLE
105
209
330
A
100
AcDbSymbolTableRecord
100
AcDbDimStyleTableRecord
  2
STD05$3
 70
     0
 40
0.2
 41
3.0
 42
0.5
 43
4.0
 44
1.0
 73
     0
 77
     1
 78
     9
 79
     2
140
3.0
141
0.0
143
0.0394
147
0.5
171
     4
173
     1
176
     2
177
     2
179
     3
271
     3
272
     3
273
     8
274
     4
284
     9
340
F
341
2B
343
2B
344
2B
  0
DIMSTYLE
105
20A
330
A
100
AcDbSymbolTableRecord
100
AcDbDimStyleTableRecord
  2
STD05$6
 70
     0
 40
0.2
 41
3.0
 42
0.5
 43
4.0
 44
1.0
 73
     0
 74
     0
 78
     9
 79
     2
140
3.0
141
0.0
143
0.0394
147
0.5
171
     4
173
     1
176
     2
177
     2
179
     3
271
     3
272
     3
273
     8
274
     4
284
     9
340
F
341
2B
343
2B
344
2B
  0
DIMSTYLE
105
20B
330
A
100
AcDbSymbolTableRecord
100
AcDbDimStyleTableRecord
  2
STD10$4
 70
     0
 40
0.1
 41
3.0
 42
0.5
 43
4.0
 44
1.0
 73
     0
 77
     1
 78
     9
 79
     2
140
3.0
141
0.0
143
0.0394
147
0.5
171
     4
173
     1
176
     2
177
     2
179
     3
271
     3
272
     3
273
     8
274
     4
284
     9
340
F
341
2B
343
2B
344
2B
  0
DIMSTYLE
105
20C
330
A
100
AcDbSymbolTableRecord
100
AcDbDimStyleTableRecord
  2
STD10$3
 70
     0
 40
0.1
 41
3.0
 42
0.5
 43
4.0
 44
1.0
 73
     0
 77
     1
 78
     9
 79
     2
140
3.0
141
0.0
143
0.0394
147
0.5
171
     4
173
     1
176
     2
177
     2
179
     3
271
     3
272
     3
273
     8
274
     4
284
     9
340
F
341
2B
343
2B
344
2B
  0
DIMSTYLE
105
20D
330
A
100
AcDbSymbolTableRecord
100
AcDbDimStyleTableRecord
  2
STD10$6
 70
     0
 40
0.1
 41
3.0
 42
0.5
 43
4.0
 44
1.0
 73
     0
 74
     0
 78
     9
 79
     2
140
3.0
141
0.0
143
0.0394
147
0.5
171
     4
173
     1
176
     2
177
     2
179
     3
271
     3
272
     3
273
     8
274
     4
284
     9
340
F
341
2B
343
2B
344
2B
  0
DIMSTYLE
105
320
102
{ACAD_REACTORS
330
395
330
396
330
397
330
398
330
399
330
39A
330
39B
330
39C
330
39D
330
39E
330
3A0
330
3A1
330
3A2
330
3A3
330
3A4
330
3A6
102
}
330
A
100
AcDbSymbolTableRecord
100
AcDbDimStyleTableRecord
  2
ISO-25
 70
     0
 41
2.5
 42
0.625
 43
3.75
 44
1.25
 73
     0
 74
     0
 77
     1
 78
     8
 79
     2
140
3.0
141
0.0
143
0.03937007874016
147
0.625
171
     3
172
     1
176
     2
177
     2
179
     3
271
     3
272
     3
274
     3
283
     0
284
     8
340
F
341
2B
342
2B
  0
DIMSTYLE
105
321
102
{ACAD_REACTORS
330
39F
330
3A5
102
}
330
A
100
AcDbSymbolTableRecord
100
AcDbDimStyleTableRecord
  2
ISO-25$4
 70
     0
 41
2.5
 42
0.625
 43
3.75
 44
1.25
 73
     0
 77
     1
 78
     8
 79
     2
140
3.0
141
0.0
143
0.03937007874016
147
0.625
171
     3
176
     2
177
     2
179
     3
271
     3
272
     3
274
     3
283
     0
284
     8
340
F
341
2B
342
2B
  0
ENDTAB
  0
TABLE
  2
BLOCK_RECORD
  5
1
330
0
100
AcDbSymbolTable
 70
    19
  0
BLOCK_RECORD
  5
18
330
1
100
AcDbSymbolTableRecord
100
AcDbBlockTableRecord
  2
*MODEL_SPACE
340
179
  0
BLOCK_RECORD
  5
15
330
1
100
AcDbSymbolTableRecord
100
AcDbBlockTableRecord
  2
*PAPER_SPACE
340
17A
  0
BLOCK_RECORD
  5
2B
330
1
100
AcDbSymbolTableRecord
100
AcDbBlockTableRecord
  2
_OPEN
340
0
102
{BLKREFS
331
3EF
331
3F0
331
3F7
331
3F8
331
404
331
405
331
40D
331
40E
331
416
331
417
331
41F
331
420
331
42A
331
42B
331
433
331
434
331
43C
331
43D
331
445
331
446
331
44E
331
454
331
455
331
45D
331
45E
331
468
331
469
331
473
331
474
331
47C
331
47D
331
485
331
48A
331
48B
102
}
  0
BLOCK_RECORD
  5
23B
330
1
100
AcDbSymbolTableRecord
100
AcDbBlockTableRecord
  2
*D1
340
0
  0
BLOCK_RECORD
  5
249
330
1
100
AcDbSymbolTableRecord
100
AcDbBlockTableRecord
  2
*D2
340
0
  0
BLOCK_RECORD
  5
256
330
1
100
AcDbSymbolTableRecord
100
AcDbBlockTableRecord
  2
*D3
340
0
  0
BLOCK_RECORD
  5
264
330
1
100
AcDbSymbolTableRecord
100
AcDbBlockTableRecord
  2
*D4
340
0
  0
BLOCK_RECORD
  5
270
330
1
100
AcDbSymbolTableRecord
100
AcDbBlockTableRecord
  2
*D5
340
0
  0
BLOCK_RECORD
  5
27C
330
1
100
AcDbSymbolTableRecord
100
AcDbBlockTableRecord
  2
*D6
340
0
  0
BLOCK_RECORD
  5
288
330
1
100
AcDbSymbolTableRecord
100
AcDbBlockTableRecord
  2
*D7
340
0
  0
BLOCK_RECORD
  5
296
330
1
100
AcDbSymbolTableRecord
100
AcDbBlockTableRecord
  2
*D8
340
0
  0
BLOCK_RECORD
  5
2A2
330
1
100
AcDbSymbolTableRecord
100
AcDbBlockTableRecord
  2
*D9
340
0
  0
BLOCK_RECORD
  5
2AE
330
1
100
AcDbSymbolTableRecord
100
AcDbBlockTableRecord
  2
*D10
340
0
  0
BLOCK_RECORD
  5
2BA
330
1
100
AcDbSymbolTableRecord
100
AcDbBlockTableRecord
  2
*D11
340
0
  0
BLOCK_RECORD
  5
2C3
330
1
100
AcDbSymbolTableRecord
100
AcDbBlockTableRecord
  2
*D12
340
0
  0
BLOCK_RECORD
  5
2CF
330
1
100
AcDbSymbolTableRecord
100
AcDbBlockTableRecord
  2
*D13
340
0
  0
BLOCK_RECORD
  5
2DB
330
1
100
AcDbSymbolTableRecord
100
AcDbBlockTableRecord
  2
*D14
340
0
  0
BLOCK_RECORD
  5
2E9
330
1
100
AcDbSymbolTableRecord
100
AcDbBlockTableRecord
  2
*D15
340
0
  0
BLOCK_RECORD
  5
2F7
330
1
100
AcDbSymbolTableRecord
100
AcDbBlockTableRecord
  2
*D16
340
0
  0
BLOCK_RECORD
  5
303
330
1
100
AcDbSymbolTableRecord
100
AcDbBlockTableRecord
  2
*D17
340
0
  0
BLOCK_RECORD
  5
30C
330
1
100
AcDbSymbolTableRecord
100
AcDbBlockTableRecord
  2
*D18
340
0
  0
ENDTAB
  0
ENDSEC
  0
SECTION
  2
BLOCKS
  0
BLOCK
  5
19
330
18
100
AcDbEntity
  8
0
100
AcDbBlockBegin
  2
*MODEL_SPACE
 70
     0
 10
0.0
 20
0.0
 30
0.0
  3
*MODEL_SPACE
  1

  0
ENDBLK
  5
1A
330
18
100
AcDbEntity
  8
0
100
AcDbBlockEnd
  0
BLOCK
  5
16
330
15
100
AcDbEntity
 67
     1
  8
0
100
AcDbBlockBegin
  2
*PAPER_SPACE
 70
     0
 10
0.0
 20
0.0
 30
0.0
  3
*PAPER_SPACE
  1

  0
ENDBLK
  5
17
330
15
100
AcDbEntity
 67
     1
  8
0
100
AcDbBlockEnd
  0
BLOCK
  5
2C
330
2B
100
AcDbEntity
  8
0
100
AcDbBlockBegin
  2
_OPEN
 70
     0
 10
0.0
 20
0.0
 30
0.0
  3
_OPEN
  1

  0
LINE
  5
2D
330
2B
100
AcDbEntity
  8
0
  6
ByBlock
 62
     0
100
AcDbLine
 10
-1.0
 20
0.1666666666666666
 30
0.0
 11
0.0
 21
0.0
 31
0.0
  0
LINE
  5
2E
330
2B
100
AcDbEntity
  8
0
  6
ByBlock
 62
     0
100
AcDbLine
 10
0.0
 20
0.0
 30
0.0
 11
-1.0
 21
-0.1666666666666666
 31
0.0
  0
LINE
  5
2F
330
2B
100
AcDbEntity
  8
0
  6
ByBlock
 62
     0
100
AcDbLine
 10
0.0
 20
0.0
 30
0.0
 11
-1.0
 21
0.0
 31
0.0
  0
ENDBLK
  5
30
330
2B
100
AcDbEntity
  8
0
100
AcDbBlockEnd
  0
BLOCK
  5
247
330
23B
100
AcDbEntity
  8
0
100
AcDbBlockBegin
  2
*D1
 70
     1
 10
0.0
 20
0.0
 30
0.0
  3
*D1
  1

  0
LINE
  5
3EA
330
23B
100
AcDbEntity
  8
3
 62
     2
370
    -2
100
AcDbLine
 10
112.57778654756
 20
801.2096589078151
 30
0.0
 11
112.57778654756
 21
809.6496783928445
 31
0.0
  0
LINE
  5
3EB
330
23B
100
AcDbEntity
  8
3
 62
     2
370
    -2
100
AcDbLine
 10
115.2777865475602
 20
801.2096589078151
 30
0.0
 11
115.2777865475602
 21
809.6496783928445
 31
0.0
  0
LINE
  5
3EC
330
23B
100
AcDbEntity
  8
3
 62
     2
370
    -2
100
AcDbLine
 10
110.0777865475601
 20
808.3996783928448
 30
0.0
 11
107.5777865475602
 21
808.3996783928448
 31
0.0
  0
LINE
  5
3ED
330
23B
100
AcDbEntity
  8
3
 62
     2
370
    -2
100
AcDbLine
 10
117.7777865475601
 20
808.3996783928448
 30
0.0
 11
127.5277865475602
 21
808.3996783928448
 31
0.0
  0
LINE
  5
3EE
330
23B
100
AcDbEntity
  8
3
 62
     2
370
    -2
100
AcDbLine
 10
112.57778654756
 20
808.3996783928448
 30
0.0
 11
115.2777865475602
 21
808.3996783928448
 31
0.0
  0
INSERT
  5
3EF
330
23B
100
AcDbEntity
  8
3
 62
     2
370
    -2
100
AcDbBlockReference
  2
_OPEN
 10
112.57778654756
 20
808.3996783928448
 30
0.0
 41
2.5
 42
2.5
 43
2.5
  0
INSERT
  5
3F0
330
23B
100
AcDbEntity
  8
3
 62
     2
370
    -2
100
AcDbBlockReference
  2
_OPEN
 10
115.2777865475602
 20
808.3996783928448
 30
0.0
 41
2.5
 42
2.5
 43
2.5
 50
180.0
  0
MTEXT
  5
3F1
330
23B
100
AcDbEntity
  8
3
 62
     0
100
AcDbMText
 10
123.9027865475601
 20
810.5246783928446
 30
0.0
 40
3.0
 41
0.0
 71
     5
 72
     1
  1
2.7
 73
     1
 44
1.0
  0
POINT
  5
3F2
330
23B
100
AcDbEntity
  8
DEFPOINTS
 62
     0
100
AcDbPoint
 10
112.57778654756
 20
800.5846589078151
 30
0.0
  0
POINT
  5
3F3
330
23B
100
AcDbEntity
  8
DEFPOINTS
 62
     0
100
AcDbPoint
 10
115.2777865475602
 20
800.5846589078151
 30
0.0
  0
POINT
  5
3F4
330
23B
100
AcDbEntity
  8
DEFPOINTS
 62
     0
100
AcDbPoint
 10
115.2777865475602
 20
808.3996783928448
 30
0.0
  0
ENDBLK
  5
248
330
23B
100
AcDbEntity
  8
0
100
AcDbBlockEnd
  0
BLOCK
  5
254
330
249
100
AcDbEntity
  8
0
100
AcDbBlockBegin
  2
*D2
 70
     1
 10
0.0
 20
0.0
 30
0.0
  3
*D2
  1

  0
LINE
  5
3F5
330
249
100
AcDbEntity
  8
3
 62
     2
370
    -2
100
AcDbLine
 10
98.2777865475602
 20
773.7096589078154
 30
0.0
 11
98.27778654756023
 21
798.0896856723997
 31
0.0
  0
ARC
  5
3F6
330
249
100
AcDbEntity
  8
3
 62
     2
370
    -2
100
AcDbCircle
 10
98.2777865475602
 20
773.0846589078154
 30
0.0
 40
23.75502676458425
100
AcDbArc
 50
65.7086446095711
 51
83.96735539042849
  0
INSERT
  5
3F7
330
249
100
AcDbEntity
  8
3
 62
     2
370
    -2
100
AcDbBlockReference
  2
_OPEN
 10
110.27144390524
 20
793.5896212284996
 30
0.0
 41
2.5
 42
2.5
 43
2.5
 50
332.6923223047852
  0
INSERT
  5
3F8
330
249
100
AcDbEntity
  8
3
 62
     2
370
    -2
100
AcDbBlockReference
  2
_OPEN
 10
98.27778654756022
 20
796.8396856723996
 30
0.0
 41
2.5
 42
2.5
 43
2.5
 50
176.9836776952141
  0
MTEXT
  5
3F9
330
249
100
AcDbEntity
  8
3
 62
     0
100
AcDbMText
 10
104.1905442257762
 20
798.2801958533597
 30
0.0
 40
3.0
 41
0.0
 71
     5
 72
     1
  1
30.324°
 11
0.9735514253804193
 21
-0.2284679893108746
 31
0.0
 73
     1
 44
1.0
  0
POINT
  5
3FA
330
249
100
AcDbEntity
  8
DEFPOINTS
 62
     0
100
AcDbPoint
 10
106.4865798254601
 20
795.3762943235227
 30
0.0
  0
POINT
  5
3FB
330
249
100
AcDbEntity
  8
DEFPOINTS
 62
     0
100
AcDbPoint
 10
98.27778654756016
 20
772.2717131114726
 30
0.0
  0
POINT
  5
3FC
330
249
100
AcDbEntity
  8
DEFPOINTS
 62
     0
100
AcDbPoint
 10
98.68823413106852
 20
773.7863808249471
 30
0.0
  0
POINT
  5
3FD
330
249
100
AcDbEntity
  8
DEFPOINTS
 62
     0
100
AcDbPoint
 10
112.8255915594003
 20
797.9563210472568
 30
0.0
  0
POINT
  5
3FE
330
249
100
AcDbEntity
  8
DEFPOINTS
 62
     0
100
AcDbPoint
 10
98.27778654756016
 20
728.8976047041577
 30
0.0
  0
ENDBLK
  5
255
330
249
100
AcDbEntity
  8
0
100
AcDbBlockEnd
  0
BLOCK
  5
262
330
256
100
AcDbEntity
  8
0
100
AcDbBlockBegin
  2
*D3
 70
     1
 10
0.0
 20
0.0
 30
0.0
  3
*D3
  1

  0
LINE
  5
3FF
330
256
100
AcDbEntity
  8
3
 62
     2
370
    -2
100
AcDbLine
 10
113.70278654756
 20
795.584658907815
 30
0.0
 11
124.8724882854714
 21
795.584658907815
 31
0.0
  0
LINE
  5
400
330
256
100
AcDbEntity
  8
3
 62
     2
370
    -2
100
AcDbLine
 10
115.9027865475602
 20
800.5846589078151
 30
0.0
 11
124.8724882854714
 21
800.5846589078151
 31
0.0
  0
LINE
  5
401
330
256
100
AcDbEntity
  8
3
 62
     2
370
    -2
100
AcDbLine
 10
123.6224882854713
 20
793.0846589078152
 30
0.0
 11
123.6224882854713
 21
790.5846589078151
 31
0.0
  0
LINE
  5
402
330
256
100
AcDbEntity
  8
3
 62
     2
370
    -2
100
AcDbLine
 10
123.6224882854714
 20
803.084658907815
 30
0.0
 11
123.6224882854714
 21
805.5846589078152
 31
0.0
  0
LINE
  5
403
330
256
100
AcDbEntity
  8
3
 62
     2
370
    -2
100
AcDbLine
 10
123.6224882854713
 20
795.584658907815
 30
0.0
 11
123.6224882854714
 21
800.5846589078151
 31
0.0
  0
INSERT
  5
404
330
256
100
AcDbEntity
  8
3
 62
     2
370
    -2
100
AcDbBlockReference
  2
_OPEN
 10
123.6224882854713
 20
795.584658907815
 30
0.0
 41
2.5
 42
2.5
 43
2.5
 50
90.0
  0
INSERT
  5
405
330
256
100
AcDbEntity
  8
3
 62
     2
370
    -2
100
AcDbBlockReference
  2
_OPEN
 10
123.6224882854714
 20
800.5846589078151
 30
0.0
 41
2.5
 42
2.5
 43
2.5
 50
270.0
  0
MTEXT
  5
406
330
256
100
AcDbEntity
  8
3
 62
     0
100
AcDbMText
 10
121.4974882854713
 20
798.0846589078152
 30
0.0
 40
3.0
 41
0.0
 71
     5
 72
     1
  1
5
 11
0.0000000000000001
 21
1.0
 31
0.0
 73
     1
 44
1.0
  0
POINT
  5
407
330
256
100
AcDbEntity
  8
DEFPOINTS
 62
     0
100
AcDbPoint
 10
113.07778654756
 20
795.584658907815
 30
0.0
  0
POINT
  5
408
330
256
100
AcDbEntity
  8
DEFPOINTS
 62
     0
100
AcDbPoint
 10
115.2777865475602
 20
800.5846589078151
 30
0.0
  0
POINT
  5
409
330
256
100
AcDbEntity
  8
DEFPOINTS
 62
     0
100
AcDbPoint
 10
123.6224882854714
 20
800.5846589078151
 30
0.0
  0
ENDBLK
  5
263
330
256
100
AcDbEntity
  8
0
100
AcDbBlockEnd
  0
BLOCK
  5
26E
330
264
100
AcDbEntity
  8
0
100
AcDbBlockBegin
  2
*D4
 70
     1
 10
0.0
 20
0.0
 30
0.0
  3
*D4
  1

  0
LINE
  5
40A
330
264
100
AcDbEntity
  8
3
 62
     2
370
    -2
100
AcDbLine
 10
115.9027865475602
 20
800.5846589078151
 30
0.0
 11
130.3045776800529
 21
800.5846589078151
 31
0.0
  0
LINE
  5
40B
330
264
100
AcDbEntity
  8
3
 62
     2
370
    -2
100
AcDbLine
 10
115.9027865475602
 20
700.5846589078152
 30
0.0
 11
130.3045776800529
 21
700.5846589078152
 31
0.0
  0
LINE
  5
40C
330
264
100
AcDbEntity
  8
3
 62
     2
370
    -2
100
AcDbLine
 10
129.0545776800529
 20
798.0846589078152
 30
0.0
 11
129.0545776800529
 21
703.0846589078151
 31
0.0
  0
INSERT
  5
40D
330
264
100
AcDbEntity
  8
3
 62
     2
370
    -2
100
AcDbBlockReference
  2
_OPEN
 10
129.0545776800529
 20
800.5846589078151
 30
0.0
 41
2.5
 42
2.5
 43
2.5
 50
90.0
  0
INSERT
  5
40E
330
264
100
AcDbEntity
  8
3
 62
     2
370
    -2
100
AcDbBlockReference
  2
_OPEN
 10
129.0545776800529
 20
700.5846589078152
 30
0.0
 41
2.5
 42
2.5
 43
2.5
 50
270.0
  0
MTEXT
  5
40F
330
264
100
AcDbEntity
  8
3
 62
     0
100
AcDbMText
 10
126.9295776800527
 20
750.5846589078152
 30
0.0
 40
3.0
 41
0.0
 71
     5
 72
     1
  1
100
 11
0.0000000000000001
 21
1.0
 31
0.0
 73
     1
 44
1.0
  0
POINT
  5
410
330
264
100
AcDbEntity
  8
DEFPOINTS
 62
     0
100
AcDbPoint
 10
115.2777865475602
 20
800.5846589078151
 30
0.0
  0
POINT
  5
411
330
264
100
AcDbEntity
  8
DEFPOINTS
 62
     0
100
AcDbPoint
 10
115.2777865475602
 20
700.5846589078152
 30
0.0
  0
POINT
  5
412
330
264
100
AcDbEntity
  8
DEFPOINTS
 62
     0
100
AcDbPoint
 10
129.0545776800529
 20
700.5846589078152
 30
0.0
  0
ENDBLK
  5
26F
330
264
100
AcDbEntity
  8
0
100
AcDbBlockEnd
  0
BLOCK
  5
27A
330
270
100
AcDbEntity
  8
0
100
AcDbBlockBegin
  2
*D5
 70
     1
 10
0.0
 20
0.0
 30
0.0
  3
*D5
  1

  0
LINE
  5
413
330
270
100
AcDbEntity
  8
3
 62
     2
370
    -2
100
AcDbLine
 10
97.65278654756016
 20
728.0846589078151
 30
0.0
 11
89.48798308788957
 21
728.0846589078151
 31
0.0
  0
LINE
  5
414
330
270
100
AcDbEntity
  8
3
 62
     2
370
    -2
100
AcDbLine
 10
97.65278654756016
 20
773.0846589078152
 30
0.0
 11
89.48798308788957
 21
773.0846589078152
 31
0.0
  0
LINE
  5
415
330
270
100
AcDbEntity
  8
3
 62
     2
370
    -2
100
AcDbLine
 10
90.73798308788957
 20
730.5846589078149
 30
0.0
 11
90.73798308788957
 21
770.5846589078151
 31
0.0
  0
INSERT
  5
416
330
270
100
AcDbEntity
  8
3
 62
     2
370
    -2
100
AcDbBlockReference
  2
_OPEN
 10
90.73798308788957
 20
728.0846589078151
 30
0.0
 41
2.5
 42
2.5
 43
2.5
 50
270.0
  0
INSERT
  5
417
330
270
100
AcDbEntity
  8
3
 62
     2
370
    -2
100
AcDbBlockReference
  2
_OPEN
 10
90.73798308788957
 20
773.0846589078152
 30
0.0
 41
2.5
 42
2.5
 43
2.5
 50
90.0
  0
MTEXT
  5
418
330
270
100
AcDbEntity
  8
3
 62
     0
100
AcDbMText
 10
88.61298308788944
 20
750.5846589078152
 30
0.0
 40
3.0
 41
0.0
 71
     5
 72
     1
  1
45
 11
0.0000000000000001
 21
1.0
 31
0.0
 73
     1
 44
1.0
  0
POINT
  5
419
330
270
100
AcDbEntity
  8
DEFPOINTS
 62
     0
100
AcDbPoint
 10
98.27778654756016
 20
728.0846589078151
 30
0.0
  0
POINT
  5
41A
330
270
100
AcDbEntity
  8
DEFPOINTS
 62
     0
100
AcDbPoint
 10
98.27778654756016
 20
773.0846589078152
 30
0.0
  0
POINT
  5
41B
330
270
100
AcDbEntity
  8
DEFPOINTS
 62
     0
100
AcDbPoint
 10
90.73798308788957
 20
773.0846589078152
 30
0.0
  0
ENDBLK
  5
27B
330
270
100
AcDbEntity
  8
0
100
AcDbBlockEnd
  0
BLOCK
  5
286
330
27C
100
AcDbEntity
  8
0
100
AcDbBlockBegin
  2
*D6
 70
     1
 10
0.0
 20
0.0
 30
0.0
  3
*D6
  1

  0
LINE
  5
41C
330
27C
100
AcDbEntity
  8
3
 62
     2
370
    -2
100
AcDbLine
 10
99.55258117005195
 20
727.6382590214296
 30
0.0
 11
89.6161235160655
 21
721.8262771905338
 31
0.0
  0
LINE
  5
41D
330
27C
100
AcDbEntity
  8
3
 62
     2
370
    -2
100
AcDbLine
 10
113.6894798291485
 20
703.4691031341748
 30
0.0
 11
103.7530221751622
 21
697.6571213032791
 31
0.0
  0
LINE
  5
41E
330
27C
100
AcDbEntity
  8
3
 62
     2
370
    -2
100
AcDbLine
 10
91.95732678416584
 20
720.2994283907386
 30
0.0
 11
103.569779254138
 21
700.4461931976366
 31
0.0
  0
INSERT
  5
41F
330
27C
100
AcDbEntity
  8
3
 62
     2
370
    -2
100
AcDbBlockReference
  2
_OPEN
 10
90.69510368960363
 20
722.4573887378149
 30
0.0
 41
2.5
 42
2.5
 43
2.5
 50
120.324000000002
  0
INSERT
  5
420
330
27C
100
AcDbEntity
  8
3
 62
     2
370
    -2
100
AcDbBlockReference
  2
_OPEN
 10
104.8320023487002
 20
698.2882328505603
 30
0.0
 41
2.5
 42
2.5
 43
2.5
 50
300.3240000000021
  0
MTEXT
  5
421
330
27C
100
AcDbEntity
  8
3
 62
     0
100
AcDbMText
 10
99.59781931416694
 20
711.4457004245654
 30
0.0
 40
3.0
 41
0.0
 71
     5
 72
     1
  1
28
 11
0.5048892378248845
 21
-0.8631841388305321
 31
0.0
 73
     1
 44
1.0
  0
POINT
  5
422
330
27C
100
AcDbEntity
  8
DEFPOINTS
 62
     0
100
AcDbPoint
 10
100.092071256821
 20
727.9538147950702
 30
0.0
  0
POINT
  5
423
330
27C
100
AcDbEntity
  8
DEFPOINTS
 62
     0
100
AcDbPoint
 10
114.2289699159177
 20
703.7846589078152
 30
0.0
  0
POINT
  5
424
330
27C
100
AcDbEntity
  8
DEFPOINTS
 62
     0
100
AcDbPoint
 10
104.8320023487002
 20
698.2882328505603
 30
0.0
  0
ENDBLK
  5
287
330
27C
100
AcDbEntity
  8
0
100
AcDbBlockEnd
  0
BLOCK
  5
294
330
288
100
AcDbEntity
  8
0
100
AcDbBlockBegin
  2
*D7
 70
     1
 10
0.0
 20
0.0
 30
0.0
  3
*D7
  1

  0
LINE
  5
425
330
288
100
AcDbEntity
  8
3
 62
     2
370
    -2
100
AcDbLine
 10
111.5277865475601
 20
700.9855831141528
 30
0.0
 11
111.5277865475601
 21
688.8793879495956
 31
0.0
  0
LINE
  5
426
330
288
100
AcDbEntity
  8
3
 62
     2
370
    -2
100
AcDbLine
 10
115.2777865475602
 20
699.9596589078151
 30
0.0
 11
115.2777865475602
 21
688.8793879495956
 31
0.0
  0
LINE
  5
427
330
288
100
AcDbEntity
  8
3
 62
     2
370
    -2
100
AcDbLine
 10
109.02778654756
 20
690.1293879495956
 30
0.0
 11
106.52778654756
 21
690.1293879495956
 31
0.0
  0
LINE
  5
428
330
288
100
AcDbEntity
  8
3
 62
     2
370
    -2
100
AcDbLine
 10
117.7777865475601
 20
690.1293879495956
 30
0.0
 11
120.2777865475602
 21
690.1293879495956
 31
0.0
  0
LINE
  5
429
330
288
100
AcDbEntity
  8
3
 62
     2
370
    -2
100
AcDbLine
 10
111.5277865475601
 20
690.1293879495956
 30
0.0
 11
115.2777865475602
 21
690.1293879495956
 31
0.0
  0
INSERT
  5
42A
330
288
100
AcDbEntity
  8
3
 62
     2
370
    -2
100
AcDbBlockReference
  2
_OPEN
 10
111.5277865475601
 20
690.1293879495956
 30
0.0
 41
2.5
 42
2.5
 43
2.5
  0
INSERT
  5
42B
330
288
100
AcDbEntity
  8
3
 62
     2
370
    -2
100
AcDbBlockReference
  2
_OPEN
 10
115.2777865475602
 20
690.1293879495956
 30
0.0
 41
2.5
 42
2.5
 43
2.5
 50
180.0
  0
MTEXT
  5
42C
330
288
100
AcDbEntity
  8
3
 62
     0
100
AcDbMText
 10
113.4027865475601
 20
692.2543879495956
 30
0.0
 40
3.0
 41
0.0
 71
     5
 72
     1
  1
3.75
 73
     1
 44
1.0
  0
POINT
  5
42D
330
288
100
AcDbEntity
  8
DEFPOINTS
 62
     0
100
AcDbPoint
 10
111.5277865475601
 20
701.610583114153
 30
0.0
  0
POINT
  5
42E
330
288
100
AcDbEntity
  8
DEFPOINTS
 62
     0
100
AcDbPoint
 10
115.2777865475602
 20
700.5846589078152
 30
0.0
  0
POINT
  5
42F
330
288
100
AcDbEntity
  8
DEFPOINTS
 62
     0
100
AcDbPoint
 10
115.2777865475602
 20
690.1293879495956
 30
0.0
  0
ENDBLK
  5
295
330
288
100
AcDbEntity
  8
0
100
AcDbBlockEnd
  0
BLOCK
  5
2A0
330
296
100
AcDbEntity
  8
0
100
AcDbBlockBegin
  2
*D8
 70
     1
 10
0.0
 20
0.0
 30
0.0
  3
*D8
  1

  0
LINE
  5
430
330
296
100
AcDbEntity
  8
3
 62
     2
370
    -2
100
AcDbLine
 10
55.31635985626921
 20
800.5846589078151
 30
0.0
 11
75.41281931644815
 21
800.5846589078151
 31
0.0
  0
LINE
  5
431
330
296
100
AcDbEntity
  8
3
 62
     2
370
    -2
100
AcDbLine
 10
55.31635985626925
 20
700.5846589078152
 30
0.0
 11
75.41281931644809
 21
700.5846589078152
 31
0.0
  0
LINE
  5
432
330
296
100
AcDbEntity
  8
3
 62
     2
370
    -2
100
AcDbLine
 10
74.16281931644812
 20
798.0846589078152
 30
0.0
 11
74.16281931644809
 21
703.0846589078151
 31
0.0
  0
INSERT
  5
433
330
296
100
AcDbEntity
  8
3
 62
     2
370
    -2
100
AcDbBlockReference
  2
_OPEN
 10
74.16281931644815
 20
800.5846589078151
 30
0.0
 41
2.5
 42
2.5
 43
2.5
 50
90.0
  0
INSERT
  5
434
330
296
100
AcDbEntity
  8
3
 62
     2
370
    -2
100
AcDbBlockReference
  2
_OPEN
 10
74.16281931644809
 20
700.5846589078152
 30
0.0
 41
2.5
 42
2.5
 43
2.5
 50
270.0
  0
MTEXT
  5
435
330
296
100
AcDbEntity
  8
3
 62
     0
100
AcDbMText
 10
72.03781931644797
 20
750.5846589078152
 30
0.0
 40
3.0
 41
0.0
 71
     5
 72
     1
  1
100
 11
0.0000000000000001
 21
1.0
 31
0.0
 73
     1
 44
1.0
  0
POINT
  5
436
330
296
100
AcDbEntity
  8
DEFPOINTS
 62
     0
100
AcDbPoint
 10
54.69135985626921
 20
800.5846589078151
 30
0.0
  0
POINT
  5
437
330
296
100
AcDbEntity
  8
DEFPOINTS
 62
     0
100
AcDbPoint
 10
54.69135985626925
 20
700.5846589078152
 30
0.0
  0
POINT
  5
438
330
296
100
AcDbEntity
  8
DEFPOINTS
 62
     0
100
AcDbPoint
 10
74.16281931644809
 20
700.5846589078152
 30
0.0
  0
ENDBLK
  5
2A1
330
296
100
AcDbEntity
  8
0
100
AcDbBlockEnd
  0
BLOCK
  5
2AC
330
2A2
100
AcDbEntity
  8
0
100
AcDbBlockBegin
  2
*D9
 70
     1
 10
0.0
 20
0.0
 30
0.0
  3
*D9
  1

  0
LINE
  5
439
330
2A2
100
AcDbEntity
  8
3
 62
     2
370
    -2
100
AcDbLine
 10
-36.30864014373077
 20
700.959658907815
 30
0.0
 11
-36.30864014373077
 21
691.8026129445125
 31
0.0
  0
LINE
  5
43A
330
2A2
100
AcDbEntity
  8
3
 62
     2
370
    -2
100
AcDbLine
 10
55.69135985626922
 20
700.9596589078149
 30
0.0
 11
55.69135985626922
 21
691.8026129445125
 31
0.0
  0
LINE
  5
43B
330
2A2
100
AcDbEntity
  8
3
 62
     2
370
    -2
100
AcDbLine
 10
-33.80864014373077
 20
693.0526129445127
 30
0.0
 11
53.19135985626922
 21
693.0526129445127
 31
0.0
  0
INSERT
  5
43C
330
2A2
100
AcDbEntity
  8
3
 62
     2
370
    -2
100
AcDbBlockReference
  2
_OPEN
 10
-36.30864014373077
 20
693.0526129445127
 30
0.0
 41
2.5
 42
2.5
 43
2.5
 50
180.0
  0
INSERT
  5
43D
330
2A2
100
AcDbEntity
  8
3
 62
     2
370
    -2
100
AcDbBlockReference
  2
_OPEN
 10
55.69135985626922
 20
693.0526129445127
 30
0.0
 41
2.5
 42
2.5
 43
2.5
  0
MTEXT
  5
43E
330
2A2
100
AcDbEntity
  8
3
 62
     0
100
AcDbMText
 10
9.691359856269226
 20
695.1776129445128
 30
0.0
 40
3.0
 41
0.0
 71
     5
 72
     1
  1
92
 73
     1
 44
1.0
  0
POINT
  5
43F
330
2A2
100
AcDbEntity
  8
DEFPOINTS
 62
     0
100
AcDbPoint
 10
-36.30864014373077
 20
701.5846589078152
 30
0.0
  0
POINT
  5
440
330
2A2
100
AcDbEntity
  8
DEFPOINTS
 62
     0
100
AcDbPoint
 10
55.69135985626922
 20
701.5846589078151
 30
0.0
  0
POINT
  5
441
330
2A2
100
AcDbEntity
  8
DEFPOINTS
 62
     0
100
AcDbPoint
 10
55.69135985626922
 20
693.0526129445127
 30
0.0
  0
ENDBLK
  5
2AD
330
2A2
100
AcDbEntity
  8
0
100
AcDbBlockEnd
  0
BLOCK
  5
2B8
330
2AE
100
AcDbEntity
  8
0
100
AcDbBlockBegin
  2
*D10
 70
     1
 10
0.0
 20
0.0
 30
0.0
  3
*D10
  1

  0
LINE
  5
442
330
2AE
100
AcDbEntity
  8
3
 62
     2
370
    -2
100
AcDbLine
 10
59.69135985626925
 20
704.959658907815
 30
0.0
 11
59.69135985626925
 21
686.4814690506396
 31
0.0
  0
LINE
  5
443
330
2AE
100
AcDbEntity
  8
3
 62
     2
370
    -2
100
AcDbLine
 10
-40.30864014373078
 20
704.959658907815
 30
0.0
 11
-40.30864014373078
 21
686.4814690506396
 31
0.0
  0
LINE
  5
444
330
2AE
100
AcDbEntity
  8
3
 62
     2
370
    -2
100
AcDbLine
 10
57.19135985626925
 20
687.7314690506397
 30
0.0
 11
-37.80864014373079
 21
687.7314690506397
 31
0.0
  0
INSERT
  5
445
330
2AE
100
AcDbEntity
  8
3
 62
     2
370
    -2
100
AcDbBlockReference
  2
_OPEN
 10
59.69135985626925
 20
687.7314690506397
 30
0.0
 41
2.5
 42
2.5
 43
2.5
  0
INSERT
  5
446
330
2AE
100
AcDbEntity
  8
3
 62
     2
370
    -2
100
AcDbBlockReference
  2
_OPEN
 10
-40.30864014373078
 20
687.7314690506397
 30
0.0
 41
2.5
 42
2.5
 43
2.5
 50
180.0
  0
MTEXT
  5
447
330
2AE
100
AcDbEntity
  8
3
 62
     0
100
AcDbMText
 10
9.691359856269226
 20
689.8564690506398
 30
0.0
 40
3.0
 41
0.0
 71
     5
 72
     1
  1
100
 73
     1
 44
1.0
  0
POINT
  5
448
330
2AE
100
AcDbEntity
  8
DEFPOINTS
 62
     0
100
AcDbPoint
 10
59.69135985626925
 20
705.5846589078152
 30
0.0
  0
POINT
  5
449
330
2AE
100
AcDbEntity
  8
DEFPOINTS
 62
     0
100
AcDbPoint
 10
-40.30864014373078
 20
705.5846589078152
 30
0.0
  0
POINT
  5
44A
330
2AE
100
AcDbEntity
  8
DEFPOINTS
 62
     0
100
AcDbPoint
 10
-40.30864014373078
 20
687.7314690506397
 30
0.0
  0
ENDBLK
  5
2B9
330
2AE
100
AcDbEntity
  8
0
100
AcDbBlockEnd
  0
BLOCK
  5
2C1
330
2BA
100
AcDbEntity
  8
0
100
AcDbBlockBegin
  2
*D11
 70
     1
 10
0.0
 20
0.0
 30
0.0
  3
*D11
  1

  0
LINE
  5
44B
330
2BA
100
AcDbEntity
  8
3
 62
     2
370
    -2
100
AcDbLine
 10
-62.18226735746885
 20
694.1874166221931
 30
0.0
 11
-50.55726735746879
 21
694.1874166221932
 31
0.0
  0
LINE
  5
44C
330
2BA
100
AcDbEntity
  8
3
 62
     2
370
    -2
100
AcDbLine
 10
-50.55726735746879
 20
694.1874166221932
 30
0.0
 11
-41.31605013615632
 21
701.0945558819472
 31
0.0
  0
MTEXT
  5
44D
330
2BA
100
AcDbEntity
  8
3
 62
     0
100
AcDbMText
 10
-56.6822673574689
 20
696.3124166221932
 30
0.0
 40
3.0
 41
0.0
 71
     5
 72
     1
  1
4-R5
 73
     1
 44
1.0
  0
INSERT
  5
44E
330
2BA
100
AcDbEntity
  8
3
 62
     2
370
    -2
100
AcDbBlockReference
  2
_OPEN
 10
-39.31358013868122
 20
702.5912568905701
 30
0.0
 41
2.5
 42
2.5
 43
2.5
 50
36.7754468492687
  0
POINT
  5
44F
330
2BA
100
AcDbEntity
  8
DEFPOINTS
 62
     0
100
AcDbPoint
 10
-39.31358013868122
 20
702.5912568905701
 30
0.0
  0
POINT
  5
450
330
2BA
100
AcDbEntity
  8
DEFPOINTS
 62
     0
100
AcDbPoint
 10
-35.30864014373071
 20
705.5846589078156
 30
0.0
  0
ENDBLK
  5
2C2
330
2BA
100
AcDbEntity
  8
0
100
AcDbBlockEnd
  0
BLOCK
  5
2CD
330
2C3
100
AcDbEntity
  8
0
100
AcDbBlockBegin
  2
*D12
 70
     1
 10
0.0
 20
0.0
 30
0.0
  3
*D12
  1

  0
LINE
  5
451
330
2C3
100
AcDbEntity
  8
3
 62
     2
370
    -2
100
AcDbLine
 10
-31.30864014373085
 20
666.2440348607177
 30
0.0
 11
-31.30864014373085
 21
674.9156519373117
 31
0.0
  0
LINE
  5
452
330
2C3
100
AcDbEntity
  8
3
 62
     2
370
    -2
100
AcDbLine
 10
50.69135985626929
 20
666.2440348607177
 30
0.0
 11
50.69135985626929
 21
674.9156519373117
 31
0.0
  0
LINE
  5
453
330
2C3
100
AcDbEntity
  8
3
 62
     2
370
    -2
100
AcDbLine
 10
-28.80864014373085
 20
673.6656519373117
 30
0.0
 11
48.19135985626929
 21
673.6656519373117
 31
0.0
  0
INSERT
  5
454
330
2C3
100
AcDbEntity
  8
3
 62
     2
370
    -2
100
AcDbBlockReference
  2
_OPEN
 10
-31.30864014373085
 20
673.6656519373117
 30
0.0
 41
2.5
 42
2.5
 43
2.5
 50
180.0
  0
INSERT
  5
455
330
2C3
100
AcDbEntity
  8
3
 62
     2
370
    -2
100
AcDbBlockReference
  2
_OPEN
 10
50.69135985626929
 20
673.6656519373117
 30
0.0
 41
2.5
 42
2.5
 43
2.5
  0
MTEXT
  5
456
330
2C3
100
AcDbEntity
  8
3
 62
     0
100
AcDbMText
 10
9.691359856269222
 20
675.7906519373117
 30
0.0
 40
3.0
 41
0.0
 71
     5
 72
     1
  1
82
 73
     1
 44
1.0
  0
POINT
  5
457
330
2C3
100
AcDbEntity
  8
DEFPOINTS
 62
     0
100
AcDbPoint
 10
-31.30864014373085
 20
665.6190348607179
 30
0.0
  0
POINT
  5
458
330
2C3
100
AcDbEntity
  8
DEFPOINTS
 62
     0
100
AcDbPoint
 10
50.69135985626929
 20
665.6190348607179
 30
0.0
  0
POINT
  5
459
330
2C3
100
AcDbEntity
  8
DEFPOINTS
 62
     0
100
AcDbPoint
 10
50.69135985626929
 20
673.6656519373117
 30
0.0
  0
ENDBLK
  5
2CE
330
2C3
100
AcDbEntity
  8
0
100
AcDbBlockEnd
  0
BLOCK
  5
2D9
330
2CF
100
AcDbEntity
  8
0
100
AcDbBlockBegin
  2
*D13
 70
     1
 10
0.0
 20
0.0
 30
0.0
  3
*D13
  1

  0
LINE
  5
45A
330
2CF
100
AcDbEntity
  8
3
 62
     2
370
    -2
100
AcDbLine
 10
-40.30864014373081
 20
647.9940348607177
 30
0.0
 11
-40.30864014373081
 21
638.2951689467708
 31
0.0
  0
LINE
  5
45B
330
2CF
100
AcDbEntity
  8
3
 62
     2
370
    -2
100
AcDbLine
 10
59.69135985626921
 20
647.9940348607177
 30
0.0
 11
59.69135985626921
 21
638.2951689467708
 31
0.0
  0
LINE
  5
45C
330
2CF
100
AcDbEntity
  8
3
 62
     2
370
    -2
100
AcDbLine
 10
-37.80864014373081
 20
639.5451689467706
 30
0.0
 11
57.19135985626921
 21
639.5451689467706
 31
0.0
  0
INSERT
  5
45D
330
2CF
100
AcDbEntity
  8
3
 62
     2
370
    -2
100
AcDbBlockReference
  2
_OPEN
 10
-40.30864014373081
 20
639.5451689467706
 30
0.0
 41
2.5
 42
2.5
 43
2.5
 50
180.0
  0
INSERT
  5
45E
330
2CF
100
AcDbEntity
  8
3
 62
     2
370
    -2
100
AcDbBlockReference
  2
_OPEN
 10
59.69135985626921
 20
639.5451689467706
 30
0.0
 41
2.5
 42
2.5
 43
2.5
  0
MTEXT
  5
45F
330
2CF
100
AcDbEntity
  8
3
 62
     0
100
AcDbMText
 10
9.691359856269198
 20
641.6701689467706
 30
0.0
 40
3.0
 41
0.0
 71
     5
 72
     1
  1
100
 73
     1
 44
1.0
  0
POINT
  5
460
330
2CF
100
AcDbEntity
  8
DEFPOINTS
 62
     0
100
AcDbPoint
 10
-40.30864014373081
 20
648.6190348607179
 30
0.0
  0
POINT
  5
461
330
2CF
100
AcDbEntity
  8
DEFPOINTS
 62
     0
100
AcDbPoint
 10
59.69135985626921
 20
648.6190348607179
 30
0.0
  0
POINT
  5
462
330
2CF
100
AcDbEntity
  8
DEFPOINTS
 62
     0
100
AcDbPoint
 10
59.69135985626921
 20
639.5451689467706
 30
0.0
  0
ENDBLK
  5
2DA
330
2CF
100
AcDbEntity
  8
0
100
AcDbBlockEnd
  0
BLOCK
  5
2E7
330
2DB
100
AcDbEntity
  8
0
100
AcDbBlockBegin
  2
*D14
 70
     1
 10
0.0
 20
0.0
 30
0.0
  3
*D14
  1

  0
LINE
  5
463
330
2DB
100
AcDbEntity
  8
3
 62
     2
370
    -2
100
AcDbLine
 10
60.31635985626925
 20
648.6190348607179
 30
0.0
 11
66.91552011495993
 21
648.6190348607179
 31
0.0
  0
LINE
  5
464
330
2DB
100
AcDbEntity
  8
3
 62
     2
370
    -2
100
AcDbLine
 10
60.31635985626925
 20
650.8190348607178
 30
0.0
 11
66.91552011495993
 21
650.8190348607178
 31
0.0
  0
LINE
  5
465
330
2DB
100
AcDbEntity
  8
3
 62
     2
370
    -2
100
AcDbLine
 10
65.66552011495993
 20
646.1190348607178
 30
0.0
 11
65.66552011495993
 21
643.6190348607177
 31
0.0
  0
LINE
  5
466
330
2DB
100
AcDbEntity
  8
3
 62
     2
370
    -2
100
AcDbLine
 10
65.66552011495993
 20
653.3190348607178
 30
0.0
 11
65.66552011495993
 21
663.0690348607178
 31
0.0
  0
LINE
  5
467
330
2DB
100
AcDbEntity
  8
3
 62
     2
370
    -2
100
AcDbLine
 10
65.66552011495993
 20
648.6190348607179
 30
0.0
 11
65.66552011495993
 21
650.8190348607178
 31
0.0
  0
INSERT
  5
468
330
2DB
100
AcDbEntity
  8
3
 62
     2
370
    -2
100
AcDbBlockReference
  2
_OPEN
 10
65.66552011495993
 20
648.6190348607179
 30
0.0
 41
2.5
 42
2.5
 43
2.5
 50
90.0
  0
INSERT
  5
469
330
2DB
100
AcDbEntity
  8
3
 62
     2
370
    -2
100
AcDbBlockReference
  2
_OPEN
 10
65.66552011495993
 20
650.8190348607178
 30
0.0
 41
2.5
 42
2.5
 43
2.5
 50
270.0
  0
MTEXT
  5
46A
330
2DB
100
AcDbEntity
  8
3
 62
     0
100
AcDbMText
 10
63.54052011495982
 20
659.4440348607178
 30
0.0
 40
3.0
 41
0.0
 71
     5
 72
     1
  1
2.2
 11
0.0000000000000001
 21
1.0
 31
0.0
 73
     1
 44
1.0
  0
POINT
  5
46B
330
2DB
100
AcDbEntity
  8
DEFPOINTS
 62
     0
100
AcDbPoint
 10
59.69135985626925
 20
648.6190348607179
 30
0.0
  0
POINT
  5
46C
330
2DB
100
AcDbEntity
  8
DEFPOINTS
 62
     0
100
AcDbPoint
 10
59.69135985626925
 20
650.8190348607178
 30
0.0
  0
POINT
  5
46D
330
2DB
100
AcDbEntity
  8
DEFPOINTS
 62
     0
100
AcDbPoint
 10
65.66552011495993
 20
650.8190348607178
 30
0.0
  0
ENDBLK
  5
2E8
330
2DB
100
AcDbEntity
  8
0
100
AcDbBlockEnd
  0
BLOCK
  5
2F5
330
2E9
100
AcDbEntity
  8
0
100
AcDbBlockBegin
  2
*D15
 70
     1
 10
0.0
 20
0.0
 30
0.0
  3
*D15
  1

  0
LINE
  5
46E
330
2E9
100
AcDbEntity
  8
3
 62
     2
370
    -2
100
AcDbLine
 10
50.89862376798485
 20
663.4190348607178
 30
0.0
 11
71.0135333270863
 21
663.4190348607178
 31
0.0
  0
LINE
  5
46F
330
2E9
100
AcDbEntity
  8
3
 62
     2
370
    -2
100
AcDbLine
 10
49.62953632834907
 20
665.6190348607179
 30
0.0
 11
71.0135333270863
 21
665.6190348607179
 31
0.0
  0
LINE
  5
470
330
2E9
100
AcDbEntity
  8
3
 62
     2
370
    -2
100
AcDbLine
 10
69.7635333270863
 20
660.9190348607178
 30
0.0
 11
69.7635333270863
 21
658.4190348607178
 31
0.0
  0
LINE
  5
471
330
2E9
100
AcDbEntity
  8
3
 62
     2
370
    -2
100
AcDbLine
 10
69.7635333270863
 20
668.1190348607177
 30
0.0
 11
69.7635333270863
 21
677.8690348607177
 31
0.0
  0
LINE
  5
472
330
2E9
100
AcDbEntity
  8
3
 62
     2
370
    -2
100
AcDbLine
 10
69.7635333270863
 20
663.4190348607178
 30
0.0
 11
69.7635333270863
 21
665.6190348607179
 31
0.0
  0
INSERT
  5
473
330
2E9
100
AcDbEntity
  8
3
 62
     2
370
    -2
100
AcDbBlockReference
  2
_OPEN
 10
69.7635333270863
 20
663.4190348607178
 30
0.0
 41
2.5
 42
2.5
 43
2.5
 50
90.0
  0
INSERT
  5
474
330
2E9
100
AcDbEntity
  8
3
 62
     2
370
    -2
100
AcDbBlockReference
  2
_OPEN
 10
69.7635333270863
 20
665.6190348607179
 30
0.0
 41
2.5
 42
2.5
 43
2.5
 50
270.0
  0
MTEXT
  5
475
330
2E9
100
AcDbEntity
  8
3
 62
     0
100
AcDbMText
 10
67.63853332708619
 20
674.2440348607178
 30
0.0
 40
3.0
 41
0.0
 71
     5
 72
     1
  1
2.2
 11
0.0000000000000001
 21
1.0
 31
0.0
 73
     1
 44
1.0
  0
POINT
  5
476
330
2E9
100
AcDbEntity
  8
DEFPOINTS
 62
     0
100
AcDbPoint
 10
50.27362376798485
 20
663.4190348607178
 30
0.0
  0
POINT
  5
477
330
2E9
100
AcDbEntity
  8
DEFPOINTS
 62
     0
100
AcDbPoint
 10
49.00453632834907
 20
665.6190348607179
 30
0.0
  0
POINT
  5
478
330
2E9
100
AcDbEntity
  8
DEFPOINTS
 62
     0
100
AcDbPoint
 10
69.7635333270863
 20
665.6190348607179
 30
0.0
  0
ENDBLK
  5
2F6
330
2E9
100
AcDbEntity
  8
0
100
AcDbBlockEnd
  0
BLOCK
  5
301
330
2F7
100
AcDbEntity
  8
0
100
AcDbBlockBegin
  2
*D16
 70
     1
 10
0.0
 20
0.0
 30
0.0
  3
*D16
  1

  0
LINE
  5
479
330
2F7
100
AcDbEntity
  8
3
 62
     2
370
    -2
100
AcDbLine
 10
60.31635985626925
 20
648.6190348607179
 30
0.0
 11
76.31767225367865
 21
648.6190348607179
 31
0.0
  0
LINE
  5
47A
330
2F7
100
AcDbEntity
  8
3
 62
     2
370
    -2
100
AcDbLine
 10
49.62953632834907
 20
665.6190348607179
 30
0.0
 11
76.31767225367865
 21
665.6190348607179
 31
0.0
  0
LINE
  5
47B
330
2F7
100
AcDbEntity
  8
3
 62
     2
370
    -2
100
AcDbLine
 10
75.06767225367865
 20
651.1190348607177
 30
0.0
 11
75.06767225367865
 21
663.1190348607177
 31
0.0
  0
INSERT
  5
47C
330
2F7
100
AcDbEntity
  8
3
 62
     2
370
    -2
100
AcDbBlockReference
  2
_OPEN
 10
75.06767225367865
 20
648.6190348607179
 30
0.0
 41
2.5
 42
2.5
 43
2.5
 50
270.0
  0
INSERT
  5
47D
330
2F7
100
AcDbEntity
  8
3
 62
     2
370
    -2
100
AcDbBlockReference
  2
_OPEN
 10
75.06767225367865
 20
665.6190348607179
 30
0.0
 41
2.5
 42
2.5
 43
2.5
 50
90.0
  0
MTEXT
  5
47E
330
2F7
100
AcDbEntity
  8
3
 62
     0
100
AcDbMText
 10
72.94267225367857
 20
657.1190348607179
 30
0.0
 40
3.0
 41
0.0
 71
     5
 72
     1
  1
17
 11
0.0000000000000001
 21
1.0
 31
0.0
 73
     1
 44
1.0
  0
POINT
  5
47F
330
2F7
100
AcDbEntity
  8
DEFPOINTS
 62
     0
100
AcDbPoint
 10
59.69135985626925
 20
648.6190348607179
 30
0.0
  0
POINT
  5
480
330
2F7
100
AcDbEntity
  8
DEFPOINTS
 62
     0
100
AcDbPoint
 10
49.00453632834907
 20
665.6190348607179
 30
0.0
  0
POINT
  5
481
330
2F7
100
AcDbEntity
  8
DEFPOINTS
 62
     0
100
AcDbPoint
 10
75.06767225367865
 20
665.6190348607179
 30
0.0
  0
ENDBLK
  5
302
330
2F7
100
AcDbEntity
  8
0
100
AcDbBlockEnd
  0
BLOCK
  5
30A
330
303
100
AcDbEntity
  8
0
100
AcDbBlockBegin
  2
*D17
 70
     1
 10
0.0
 20
0.0
 30
0.0
  3
*D17
  1

  0
LINE
  5
482
330
303
100
AcDbEntity
  8
3
 62
     2
370
    -2
100
AcDbLine
 10
-55.65297753770243
 20
670.4407103469484
 30
0.0
 11
-38.82797753770239
 21
670.4407103469484
 31
0.0
  0
LINE
  5
483
330
303
100
AcDbEntity
  8
3
 62
     2
370
    -2
100
AcDbLine
 10
-38.82797753770239
 20
670.4407103469484
 30
0.0
 11
-33.8132828781753
 21
666.1801597632534
 31
0.0
  0
MTEXT
  5
484
330
303
100
AcDbEntity
  8
3
 62
     0
100
AcDbMText
 10
-47.55297753770246
 20
672.5657103469484
 30
0.0
 40
3.0
 41
0.0
 71
     5
 72
     1
  1
R3(全周)
 73
     1
 44
1.0
  0
INSERT
  5
485
330
303
100
AcDbEntity
  8
3
 62
     2
370
    -2
100
AcDbBlockReference
  2
_OPEN
 10
-31.90807094073687
 20
664.5614666257372
 30
0.0
 41
2.5
 42
2.5
 43
2.5
 50
319.6483333509513
  0
POINT
  5
486
330
303
100
AcDbEntity
  8
DEFPOINTS
 62
     0
100
AcDbPoint
 10
-31.90807094073687
 20
664.5614666257372
 30
0.0
  0
POINT
  5
487
330
303
100
AcDbEntity
  8
DEFPOINTS
 62
     0
100
AcDbPoint
 10
-29.62181661581093
 20
662.6190348607178
 30
0.0
  0
ENDBLK
  5
30B
330
303
100
AcDbEntity
  8
0
100
AcDbBlockEnd
  0
BLOCK
  5
317
330
30C
100
AcDbEntity
  8
0
100
AcDbBlockBegin
  2
*D18
 70
     1
 10
0.0
 20
0.0
 30
0.0
  3
*D18
  1

  0
LINE
  5
488
330
30C
100
AcDbEntity
  8
3
 62
     2
370
    -2
100
AcDbLine
 10
-40.30864014373082
 20
651.9440348607178
 30
0.0
 11
-40.30864014373093
 21
662.7669267003389
 31
0.0
  0
ARC
  5
489
330
30C
100
AcDbEntity
  8
3
 62
     2
370
    -2
100
AcDbCircle
 10
-40.30864014373082
 20
650.8190348607178
 30
0.0
 40
10.69789183962106
100
AcDbArc
 50
72.11603515495053
 51
76.57984134945914
  0
INSERT
  5
48A
330
30C
100
AcDbEntity
  8
3
 62
     2
370
    -2
100
AcDbBlockReference
  2
_OPEN
 10
-34.75022303249031
 20
659.9595429992023
 30
0.0
 41
2.5
 42
2.5
 43
2.5
 50
335.4059558296798
  0
INSERT
  5
48B
330
30C
100
AcDbEntity
  8
3
 62
     2
370
    -2
100
AcDbBlockReference
  2
_OPEN
 10
-40.3086401437309
 20
661.5169267003389
 30
0.0
 41
2.5
 42
2.5
 43
2.5
 50
173.2899206747297
  0
MTEXT
  5
48C
330
30C
100
AcDbEntity
  8
3
 62
     0
100
AcDbMText
 10
-35.81137879173653
 20
662.8274150788189
 30
0.0
 40
3.0
 41
0.0
 71
     5
 72
     1
  1
31.304°
 11
0.9364798805365154
 21
-0.3507213043861381
 31
0.0
 73
     1
 44
1.0
  0
POINT
  5
48D
330
30C
100
AcDbEntity
  8
DEFPOINTS
 62
     0
100
AcDbPoint
 10
-38.37109225278853
 20
661.3400043019119
 30
0.0
  0
POINT
  5
48E
330
30C
100
AcDbEntity
  8
DEFPOINTS
 62
     0
100
AcDbPoint
 10
-40.30864014373082
 20
651.3190348607178
 30
0.0
  0
POINT
  5
48F
330
30C
100
AcDbEntity
  8
DEFPOINTS
 62
     0
100
AcDbPoint
 10
-32.18508093242056
 20
664.1777766748726
 30
0.0
  0
POINT
  5
490
330
30C
100
AcDbEntity
  8
DEFPOINTS
 62
     0
100
AcDbPoint
 10
-40.00458608967672
 20
651.319034860718
 30
0.0
  0
POINT
  5
491
330
30C
100
AcDbEntity
  8
DEFPOINTS
 62
     0
100
AcDbPoint
 10
-40.30864014373078
 20
648.619034860718
 30
0.0
  0
ENDBLK
  5
318
330
30C
100
AcDbEntity
  8
0
100
AcDbBlockEnd
  0
ENDSEC
  0
SECTION
  2
ENTITIES
  0
LINE
  5
322
330
18
100
AcDbEntity
  8
2
100
AcDbLine
 10
59.69135985626921
 20
648.6190348607179
 30
0.0
 11
-40.30864014373078
 21
648.6190348607179
 31
0.0
  0
LINE
  5
323
330
18
100
AcDbEntity
  8
2
100
AcDbLine
 10
59.69135985626921
 20
795.584658907815
 30
0.0
 11
59.69135985626921
 21
705.5846589078152
 31
0.0
  0
LINE
  5
324
330
18
100
AcDbEntity
  8
2
100
AcDbLine
 10
115.2777865475602
 20
800.5846589078151
 30
0.0
 11
115.2777865475602
 21
700.5846589078152
 31
0.0
  0
LINE
  5
325
330
18
100
AcDbEntity
  8
2
100
AcDbLine
 10
-40.30864014373078
 20
795.584658907815
 30
0.0
 11
-40.30864014373078
 21
705.5846589078152
 31
0.0
  0
LINE
  5
326
330
18
100
AcDbEntity
  8
2
100
AcDbLine
 10
-35.30864014373078
 20
800.5846589078151
 30
0.0
 11
54.69135985626921
 21
800.5846589078151
 31
0.0
  0
LINE
  5
327
330
18
100
AcDbEntity
  8
2
100
AcDbLine
 10
-35.30864014373078
 20
700.5846589078152
 30
0.0
 11
54.69135985626921
 21
700.5846589078152
 31
0.0
  0
ARC
  5
328
330
18
100
AcDbEntity
  8
2
100
AcDbCircle
 10
-35.30864014373085
 20
795.5846589078151
 30
0.0
 40
5.0
100
AcDbArc
 50
89.99999999999927
 51
180.0000000000012
  0
ARC
  5
329
330
18
100
AcDbEntity
  8
2
100
AcDbCircle
 10
54.69135985626925
 20
795.584658907815
 30
0.0
 40
5.0
100
AcDbArc
 50
0.0000000000013028
 51
90.0000000000003
  0
ARC
  5
32A
330
18
100
AcDbEntity
  8
2
100
AcDbCircle
 10
-35.30864014373079
 20
705.5846589078152
 30
0.0
 40
5.0
100
AcDbArc
 50
180.0
 51
270.0000000000001
  0
ARC
  5
32B
330
18
100
AcDbEntity
  8
2
100
AcDbCircle
 10
54.69135985626925
 20
705.5846589078154
 30
0.0
 40
5.0
100
AcDbArc
 50
269.9999999999997
 51
359.9999999999973
  0
LINE
  5
32C
330
18
100
AcDbEntity
  8
2
100
AcDbLine
 10
98.27778654756016
 20
772.2717131114728
 30
0.0
 11
98.27778654756016
 21
728.8976047041577
 31
0.0
  0
LINE
  5
32D
330
18
100
AcDbEntity
  8
2
100
AcDbLine
 10
49.00453632834907
 20
665.6190348607179
 30
0.0
 11
-29.62181661581062
 21
665.6190348607179
 31
0.0
  0
LINE
  5
32E
330
18
100
AcDbEntity
  8
2
100
AcDbLine
 10
113.07778654756
 20
795.584658907815
 30
0.0
 11
113.07778654756
 21
750.5846589078149
 31
0.0
  0
LINE
  5
32F
330
18
100
AcDbEntity
  8
2
 48
5.0
100
AcDbLine
 10
112.57778654756
 20
800.5846589078151
 30
0.0
 11
115.2777865475602
 21
800.5846589078151
 31
0.0
  0
LINE
  5
330
330
18
100
AcDbEntity
  8
2
 48
5.0
100
AcDbLine
 10
112.57778654756
 20
800.2866994930512
 30
0.0
 11
113.07778654756
 21
795.584658907815
 31
0.0
  0
LINE
  5
331
330
18
100
AcDbEntity
  8
2
 48
5.0
100
AcDbLine
 10
98.68823413106852
 20
773.7863808249471
 30
0.0
 11
112.8255915594003
 21
797.9563210472568
 31
0.0
  0
LINE
  5
332
330
18
100
AcDbEntity
  8
2
 48
5.0
100
AcDbLine
 10
112.57778654756
 20
800.5846589078151
 30
0.0
 11
112.57778654756
 21
800.2866994930512
 31
0.0
  0
LINE
  5
333
330
18
100
AcDbEntity
  8
2
  6
DASHED
 48
5.0
100
AcDbLine
 10
112.5777865475601
 20
800.2866994930514
 30
0.0
 11
113.7780305864337
 21
799.584658907815
 31
0.0
  0
LINE
  5
334
330
18
100
AcDbEntity
  8
2
 48
5.0
100
AcDbLine
 10
111.5277865475601
 20
799.5587347014772
 30
0.0
 11
112.5777865475601
 21
800.2866994930514
 31
0.0
  0
LINE
  5
335
330
18
100
AcDbEntity
  8
2
  6
DASHED
 48
5.0
100
AcDbLine
 10
113.1931157170424
 20
798.5846589078155
 30
0.0
 11
112.7299693456405
 21
798.8555601071533
 31
0.0
  0
LINE
  5
336
330
18
100
AcDbEntity
  8
2
 48
5.0
100
AcDbLine
 10
98.6882341310685
 20
727.3829369906833
 30
0.0
 11
113.7780305864337
 21
701.5846589078152
 31
0.0
  0
LINE
  5
337
330
18
100
AcDbEntity
  8
2
 48
5.0
100
AcDbLine
 10
112.5777865475601
 20
700.8826183225789
 30
0.0
 11
113.7780305864337
 21
701.5846589078152
 31
0.0
  0
LINE
  5
338
330
18
100
AcDbEntity
  8
2
 48
5.0
100
AcDbLine
 10
112.57778654756
 20
700.5846589078152
 30
0.0
 11
115.2777865475602
 21
700.5846589078152
 31
0.0
  0
LINE
  5
339
330
18
100
AcDbEntity
  8
2
 48
5.0
100
AcDbLine
 10
111.5277865475601
 20
701.610583114153
 30
0.0
 11
112.5777865475601
 21
700.8826183225789
 31
0.0
  0
LINE
  5
33A
330
18
100
AcDbEntity
  8
2
 48
5.0
100
AcDbLine
 10
113.1931157170424
 20
702.5846589078147
 30
0.0
 11
111.5277865475601
 21
701.610583114153
 31
0.0
  0
LINE
  5
33B
330
18
100
AcDbEntity
  8
2
 48
5.0
100
AcDbLine
 10
112.57778654756
 20
700.5846589078152
 30
0.0
 11
112.57778654756
 21
700.882618322579
 31
0.0
  0
ARC
  5
33C
330
18
100
AcDbEntity
  8
2
 48
5.0
100
AcDbCircle
 10
101.2777865475601
 20
772.2717131114728
 30
0.0
 40
3.0
100
AcDbArc
 50
149.6759999999998
 51
180.0
  0
ARC
  5
33D
330
18
100
AcDbEntity
  8
2
100
AcDbCircle
 10
101.2777865475601
 20
728.8976047041577
 30
0.0
 40
3.0
100
AcDbArc
 50
180.0
 51
210.324
  0
LINE
  5
33E
330
18
100
AcDbEntity
  8
2
 48
5.0
100
AcDbLine
 10
59.69135985626925
 20
650.8190348607178
 30
0.0
 11
59.69135985626925
 21
648.6190348607179
 31
0.0
  0
LINE
  5
33F
330
18
100
AcDbEntity
  8
2
 48
5.0
100
AcDbLine
 10
51.56780064495901
 20
664.1777766748726
 30
0.0
 11
59.69135985626921
 21
650.8190348607178
 31
0.0
  0
ARC
  5
340
330
18
100
AcDbEntity
  8
2
100
AcDbCircle
 10
49.00453632834907
 20
662.6190348607178
 30
0.0
 40
3.0
100
AcDbArc
 50
31.304123495591
 51
90.0
  0
LINE
  5
341
330
18
100
AcDbEntity
  8
2
 48
5.0
100
AcDbLine
 10
-32.18508093242056
 20
664.1777766748726
 30
0.0
 11
-40.00458608967671
 21
651.3190348607178
 31
0.0
  0
ARC
  5
342
330
18
100
AcDbEntity
  8
2
100
AcDbCircle
 10
-29.62181661581062
 20
662.6190348607178
 30
0.0
 40
3.0
100
AcDbArc
 50
90.0
 51
148.695876504409
  0
LINE
  5
343
330
18
100
AcDbEntity
  8
2
 48
5.0
100
AcDbLine
 10
-40.30864014373079
 20
651.3190348607178
 30
0.0
 11
-40.30864014373079
 21
648.6190348607179
 31
0.0
  0
LINE
  5
344
330
18
100
AcDbEntity
  8
2
 48
5.0
100
AcDbLine
 10
-31.30864014373085
 20
773.0846589078152
 30
0.0
 11
-31.30864014373085
 21
728.0846589078151
 31
0.0
  0
LINE
  5
345
330
18
100
AcDbEntity
  8
2
 48
5.0
100
AcDbLine
 10
50.69135985626929
 20
773.0846589078152
 30
0.0
 11
50.69135985626929
 21
728.0846589078151
 31
0.0
  0
LINE
  5
346
330
18
100
AcDbEntity
  8
2
 48
5.0
100
AcDbLine
 10
50.69135985626929
 20
773.0846589078152
 30
0.0
 11
-31.30864014373085
 21
773.0846589078152
 31
0.0
  0
LINE
  5
347
330
18
100
AcDbEntity
  8
2
 48
5.0
100
AcDbLine
 10
-31.30864014373087
 20
728.0846589078151
 30
0.0
 11
50.69135985626929
 21
728.0846589078151
 31
0.0
  0
LINE
  5
348
330
18
100
AcDbEntity
  8
2
 48
5.0
100
AcDbLine
 10
50.69135985626929
 20
773.0846589078152
 30
0.0
 11
58.45882550662419
 21
796.8185817283442
 31
0.0
  0
LINE
  5
349
330
18
100
AcDbEntity
  8
2
 48
5.0
100
AcDbLine
 10
-31.30864014373085
 20
773.0846589078152
 30
0.0
 11
-39.07610579408572
 21
796.8185817283442
 31
0.0
  0
LINE
  5
34A
330
18
100
AcDbEntity
  8
2
 48
5.0
100
AcDbLine
 10
50.69135985626929
 20
728.0846589078147
 30
0.0
 11
58.45882550662419
 21
704.3507360872857
 31
0.0
  0
LINE
  5
34B
330
18
100
AcDbEntity
  8
2
 48
5.0
100
AcDbLine
 10
-31.30864014373085
 20
728.0846589078147
 30
0.0
 11
-39.07610579408572
 21
704.3507360872857
 31
0.0
  0
LINE
  5
34C
330
18
100
AcDbEntity
  8
2
100
AcDbLine
 10
-36.30864014373077
 20
701.5846589078152
 30
0.0
 11
-36.30864014373077
 21
703.0846589078151
 31
0.0
  0
LINE
  5
34D
330
18
100
AcDbEntity
  8
2
100
AcDbLine
 10
55.69135985626922
 20
701.5846589078151
 30
0.0
 11
55.69135985626921
 21
703.0846589078151
 31
0.0
  0
LINE
  5
34E
330
18
100
AcDbEntity
  8
2
100
AcDbLine
 10
-36.30864014373077
 20
701.5846589078152
 30
0.0
 11
55.69135985626922
 21
701.5846589078151
 31
0.0
  0
LINE
  5
34F
330
18
100
AcDbEntity
  8
2
100
AcDbLine
 10
-36.30864014373077
 20
703.0846589078151
 30
0.0
 11
55.69135985626921
 21
703.0846589078151
 31
0.0
  0
LINE
  5
350
330
18
100
AcDbEntity
  8
2
 48
5.0
100
AcDbLine
 10
-28.29045832554903
 20
727.5846589078149
 30
0.0
 11
-36.30864014373077
 21
703.0846589078151
 31
0.0
  0
LINE
  5
351
330
18
100
AcDbEntity
  8
2
 48
5.0
100
AcDbLine
 10
47.67317803808749
 20
727.5846589078151
 30
0.0
 11
55.69135985626921
 21
703.0846589078151
 31
0.0
  0
LINE
  5
352
330
18
100
AcDbEntity
  8
2
 48
5.0
100
AcDbLine
 10
-28.29045832554903
 20
727.5846589078149
 30
0.0
 11
47.67317803808749
 21
727.5846589078151
 31
0.0
  0
LINE
  5
353
330
18
100
AcDbEntity
  8
2
 48
5.0
100
AcDbLine
 10
-28.29045832554903
 20
773.5846589078152
 30
0.0
 11
47.67317803808749
 21
773.5846589078151
 31
0.0
  0
LINE
  5
354
330
18
100
AcDbEntity
  8
2
 48
5.0
100
AcDbLine
 10
-28.29045832554903
 20
773.5846589078152
 30
0.0
 11
-36.30864014373078
 21
798.0846589078152
 31
0.0
  0
LINE
  5
355
330
18
100
AcDbEntity
  8
2
 48
5.0
100
AcDbLine
 10
47.67317803808749
 20
773.5846589078151
 30
0.0
 11
55.69135985626921
 21
798.0846589078154
 31
0.0
  0
LINE
  5
356
330
18
100
AcDbEntity
  8
2
100
AcDbLine
 10
55.69135985626922
 20
799.584658907815
 30
0.0
 11
55.69135985626921
 21
798.0846589078154
 31
0.0
  0
LINE
  5
357
330
18
100
AcDbEntity
  8
2
100
AcDbLine
 10
-33.54971122791546
 20
798.0846589078149
 30
0.0
 11
52.93243094045386
 21
798.0846589078151
 31
0.0
  0
LINE
  5
358
330
18
100
AcDbEntity
  8
2
100
AcDbLine
 10
-36.30864014373077
 20
799.584658907815
 30
0.0
 11
55.69135985626922
 21
799.584658907815
 31
0.0
  0
LINE
  5
359
330
18
100
AcDbEntity
  8
2
100
AcDbLine
 10
-36.30864014373077
 20
799.584658907815
 30
0.0
 11
-36.30864014373078
 21
798.0846589078152
 31
0.0
  0
ARC
  5
35A
330
18
100
AcDbEntity
  8
2
100
AcDbCircle
 10
-33.54971122791546
 20
796.0846589078149
 30
0.0
 40
2.0
100
AcDbArc
 50
90.00000000000005
 51
198.1218602479012
  0
ARC
  5
35B
330
18
100
AcDbEntity
  8
2
100
AcDbCircle
 10
52.93243094045386
 20
796.0846589078149
 30
0.0
 40
2.0
100
AcDbArc
 50
341.8781397520988
 51
90.00000000000005
  0
LINE
  5
35C
330
18
100
AcDbEntity
  8
2
 48
5.0
100
AcDbLine
 10
47.67317803808749
 20
773.5846589078151
 30
0.0
 11
47.67317803808749
 21
798.0846589078151
 31
0.0
  0
LINE
  5
35D
330
18
100
AcDbEntity
  8
2
 48
5.0
100
AcDbLine
 10
-28.29045832554903
 20
773.5846589078152
 30
0.0
 11
-28.29045832554903
 21
798.0846589078149
 31
0.0
  0
HATCH
  5
35E
330
18
100
AcDbEntity
  8
2
100
AcDbHatch
 10
0.0
 20
0.0
 30
0.0
210
0.0
220
0.0
230
1.0
  2
ANSI37
 70
     0
 71
     0
 91
        2
 92
        7
 72
     0
 73
     1
 93
        4
 10
9.691359856269222
 20
727.5846589078149
 10
9.691359856269222
 20
703.0846589078151
 10
55.69135985626921
 20
703.0846589078151
 10
47.67317803808749
 20
727.5846589078151
 97
        0
 92
        7
 72
     0
 73
     1
 93
        4
 10
9.691359856269222
 20
703.0846589078151
 10
9.691359856269222
 20
727.5846589078151
 10
-28.29045832554903
 20
727.5846589078149
 10
-36.30864014373077
 20
703.0846589078151
 97
        0
 75
     0
 76
     1
 52
0.0
 41
0.4
 77
     0
 78
     2
 53
45.0
 43
9.69135985626923
 44
750.5846589078149
 45
-0.8980256121069151
 46
0.8980256121069153
 79
     0
 53
135.0
 43
9.69135985626923
 44
750.5846589078149
 45
-0.8980256121069153
 46
-0.8980256121069151
 79
     0
 47
0.1672058464220147
 98
        3
 10
-2.394715370505081
 20
713.1044649683334
 10
37.21496731925924
 20
717.5312825101177
 10
0.0658016440693246
 20
714.8559892640742
  0
LINE
  5
35F
102
{ACAD_REACTORS
330
35E
102
}
330
18
100
AcDbEntity
  8
2
100
AcDbLine
 10
-22.30864014373076
 20
701.5846589078151
 30
0.0
 11
-22.30864014373076
 21
702.5846589078151
 31
0.0
  0
LINE
  5
360
102
{ACAD_REACTORS
330
35E
102
}
330
18
100
AcDbEntity
  8
2
100
AcDbLine
 10
41.69135985626922
 20
701.5846589078151
 30
0.0
 11
41.69135985626922
 21
702.5846589078128
 31
0.0
  0
LINE
  5
361
330
18
100
AcDbEntity
  8
2
100
AcDbLine
 10
-25.30864014373077
 20
701.5846589078151
 30
0.0
 11
-25.30864014373077
 21
702.5846589078151
 31
0.0
  0
LINE
  5
362
330
18
100
AcDbEntity
  8
2
100
AcDbLine
 10
44.69135985626921
 20
701.5846589078151
 30
0.0
 11
44.69135985626921
 21
702.5846589078127
 31
0.0
  0
LINE
  5
363
330
18
100
AcDbEntity
  8
2
100
AcDbLine
 10
-25.30864014373078
 20
702.5846589078152
 30
0.0
 11
-22.30864014373076
 21
702.5846589078151
 31
0.0
  0
LINE
  5
364
330
18
100
AcDbEntity
  8
2
100
AcDbLine
 10
41.69135985626922
 20
702.5846589078149
 30
0.0
 11
44.69135985626921
 21
702.5846589078151
 31
0.0
  0
LINE
  5
365
330
18
100
AcDbEntity
  8
2
100
AcDbLine
 10
-25.30864014373077
 20
799.584658907815
 30
0.0
 11
-25.30864014373077
 21
798.5846589078151
 31
0.0
  0
LINE
  5
366
330
18
100
AcDbEntity
  8
2
100
AcDbLine
 10
-22.30864014373076
 20
799.584658907815
 30
0.0
 11
-22.30864014373076
 21
798.5846589078151
 31
0.0
  0
LINE
  5
367
330
18
100
AcDbEntity
  8
2
100
AcDbLine
 10
-25.30864014373078
 20
798.584658907815
 30
0.0
 11
-22.30864014373076
 21
798.5846589078151
 31
0.0
  0
LINE
  5
368
330
18
100
AcDbEntity
  8
2
100
AcDbLine
 10
41.69135985626922
 20
799.584658907815
 30
0.0
 11
41.69135985626922
 21
798.5846589078176
 31
0.0
  0
LINE
  5
369
330
18
100
AcDbEntity
  8
2
100
AcDbLine
 10
44.69135985626921
 20
799.584658907815
 30
0.0
 11
44.69135985626921
 21
798.5846589078176
 31
0.0
  0
LINE
  5
36A
330
18
100
AcDbEntity
  8
2
100
AcDbLine
 10
41.69135985626922
 20
798.5846589078152
 30
0.0
 11
44.69135985626921
 21
798.5846589078151
 31
0.0
  0
LINE
  5
36B
330
18
100
AcDbEntity
  8
2
 48
5.0
100
AcDbLine
 10
112.7299693456405
 20
798.8555601071533
 30
0.0
 11
111.5277865475601
 21
799.5587347014772
 31
0.0
  0
LINE
  5
36C
330
18
100
AcDbEntity
  8
2
  6
DASHED
 48
5.0
100
AcDbLine
 10
112.8255915594003
 20
797.9563210472568
 30
0.0
 11
113.7780305864337
 21
799.584658907815
 31
0.0
  0
LINE
  5
36D
330
18
100
AcDbEntity
  8
2
  6
DASHED
100
AcDbLine
 10
100.47778654756
 20
750.5846589078152
 30
0.0
 11
100.47778654756
 21
727.2943764546851
 31
0.0
  0
LINE
  5
36E
330
18
100
AcDbEntity
  8
2
 48
5.0
100
AcDbLine
 10
100.4713091571018
 20
727.3054505285329
 30
0.0
 11
114.2289699159177
 21
703.7846589078152
 31
0.0
  0
ARC
  5
36F
330
18
100
AcDbEntity
  8
2
100
AcDbCircle
 10
-49.29922921537785
 20
750.5846589078152
 30
0.0
 40
151.577015762938
100
AcDbArc
 50
351.161309608392
 51
359.9999999999998
  0
LINE
  5
370
330
18
100
AcDbEntity
  8
2
 48
5.0
100
AcDbLine
 10
100.9552553956522
 20
728.4587040328956
 30
0.0
 11
115.092154054748
 21
704.2895481456403
 31
0.0
  0
LINE
  5
371
330
18
100
AcDbEntity
  8
2
100
AcDbLine
 10
114.2289699159177
 20
703.7846589078152
 30
0.0
 11
115.092154054748
 21
704.2895481456403
 31
0.0
  0
LINE
  5
372
330
18
100
AcDbEntity
  8
2
100
AcDbLine
 10
100.092071256821
 20
727.9538147950702
 30
0.0
 11
100.6256349422979
 21
728.265904128473
 31
0.0
  0
LINE
  5
373
330
18
100
AcDbEntity
  8
2
 48
5.0
100
AcDbLine
 10
114.2289699159177
 20
703.7846589078152
 30
0.0
 11
115.2777865475602
 21
703.7846589078152
 31
0.0
  0
LINE
  5
374
330
18
100
AcDbEntity
  8
2
100
AcDbLine
 10
100.6256349422979
 20
728.265904128473
 30
0.0
 11
100.9552553956522
 21
728.4587040328956
 31
0.0
  0
LINE
  5
375
330
18
100
AcDbEntity
  8
2
  6
DASHED
100
AcDbLine
 10
100.47778654756
 20
749.8346589078151
 30
0.0
 11
102.2759310438082
 21
749.8346589078151
 31
0.0
  0
LINE
  5
376
330
18
100
AcDbEntity
  8
2
100
AcDbLine
 10
103.2777865475601
 20
750.5846589078149
 30
0.0
 11
103.2777865475601
 21
749.8346589078152
 31
0.0
  0
LINE
  5
377
330
18
100
AcDbEntity
  8
2
100
AcDbLine
 10
9.691359856269219
 20
651.3190348607178
 30
0.0
 11
-40.30864014373079
 21
651.3190348607178
 31
0.0
  0
LINE
  5
378
330
18
100
AcDbEntity
  8
2
  6
DASHED
100
AcDbLine
 10
50.27362376798485
 20
663.4190348607178
 30
0.0
 11
45.44135985626922
 21
663.4190348607178
 31
0.0
  0
LINE
  5
379
330
18
100
AcDbEntity
  8
2
  6
DASHED
 48
5.0
100
AcDbLine
 10
50.27362376798485
 20
663.4190348607178
 30
0.0
 11
51.97632647068752
 21
660.619034860718
 31
0.0
  0
LINE
  5
37A
330
18
100
AcDbEntity
  8
2
 48
5.0
100
AcDbLine
 10
58.19135985626925
 20
650.3987577377612
 30
0.0
 11
58.19135985626925
 21
648.6190348607179
 31
0.0
  0
LINE
  5
37B
330
18
100
AcDbEntity
  8
2
  6
DASHED
100
AcDbLine
 10
9.691359856269219
 20
650.1190348607178
 30
0.0
 11
-36.30864014373077
 21
650.1190348607178
 31
0.0
  0
LINE
  5
37C
330
18
100
AcDbEntity
  8
2
  6
DASHED
100
AcDbLine
 10
-36.30864014373077
 20
650.1190348607178
 30
0.0
 11
-36.30864014373077
 21
651.3190348607178
 31
0.0
  0
LINE
  5
37D
330
18
100
AcDbEntity
  8
2
 48
5.0
100
AcDbLine
 10
-27.81596378366364
 20
665.2847693194951
 30
0.0
 11
-36.30864014373074
 21
651.319034860718
 31
0.0
  0
LINE
  5
37E
330
18
100
AcDbEntity
  8
2
  6
DASHED
 48
5.0
100
AcDbLine
 10
-40.00458608967671
 20
651.3190348607178
 30
0.0
 11
-40.30864014373078
 21
650.8190348607178
 31
0.0
  0
LINE
  5
37F
330
18
100
AcDbEntity
  8
2
100
AcDbLine
 10
-27.81596378366364
 20
665.2847693194951
 30
0.0
 11
9.691359856269222
 21
665.2847693194951
 31
0.0
  0
LINE
  5
380
330
18
100
AcDbEntity
  8
2
100
AcDbLine
 10
-25.30864014373077
 20
652.3690348607178
 30
0.0
 11
-25.30864014373077
 21
651.3190348607178
 31
0.0
  0
LINE
  5
381
330
18
100
AcDbEntity
  8
2
100
AcDbLine
 10
-22.30864014373076
 20
652.3690348607178
 30
0.0
 11
-22.30864014373076
 21
651.3190348607178
 31
0.0
  0
LINE
  5
382
330
18
100
AcDbEntity
  8
2
100
AcDbLine
 10
-22.30864014373076
 20
652.3690348607178
 30
0.0
 11
-25.30864014373077
 21
652.3690348607178
 31
0.0
  0
LINE
  5
383
330
18
100
AcDbEntity
  8
2
100
AcDbLine
 10
10.44135985626921
 20
661.6190348607176
 30
0.0
 11
10.44135985626921
 21
663.4190348607178
 31
0.0
  0
LINE
  5
384
330
18
100
AcDbEntity
  8
2
100
AcDbLine
 10
20.44135985626922
 20
661.6190348607176
 30
0.0
 11
20.44135985626922
 21
663.4190348607178
 31
0.0
  0
LINE
  5
385
330
18
100
AcDbEntity
  8
2
100
AcDbLine
 10
18.94135985626921
 20
661.6190348607176
 30
0.0
 11
18.94135985626921
 21
663.4190348607178
 31
0.0
  0
LINE
  5
386
330
18
100
AcDbEntity
  8
2
100
AcDbLine
 10
30.44135985626921
 20
661.6190348607176
 30
0.0
 11
30.44135985626921
 21
663.4190348607178
 31
0.0
  0
LINE
  5
387
330
18
100
AcDbEntity
  8
2
100
AcDbLine
 10
28.94135985626921
 20
661.6190348607176
 30
0.0
 11
28.94135985626921
 21
663.4190348607178
 31
0.0
  0
LINE
  5
388
330
18
100
AcDbEntity
  8
2
100
AcDbLine
 10
40.44135985626922
 20
661.6190348607176
 30
0.0
 11
40.44135985626921
 21
663.4190348607178
 31
0.0
  0
LINE
  5
389
330
18
100
AcDbEntity
  8
2
100
AcDbLine
 10
38.9413598562692
 20
661.6190348607176
 30
0.0
 11
38.9413598562692
 21
663.4190348607178
 31
0.0
  0
LINE
  5
38A
330
18
100
AcDbEntity
  8
2
100
AcDbLine
 10
40.44135985626922
 20
661.6190348607177
 30
0.0
 11
38.94135985626921
 21
661.6190348607177
 31
0.0
  0
LINE
  5
38B
330
18
100
AcDbEntity
  8
2
100
AcDbLine
 10
45.44135985626922
 20
663.4190348607178
 30
0.0
 11
51.97632647068752
 21
660.6190348607177
 31
0.0
  0
LINE
  5
38C
330
18
100
AcDbEntity
  8
2
100
AcDbLine
 10
30.44135985626921
 20
661.6190348607177
 30
0.0
 11
28.94135985626921
 21
661.6190348607176
 31
0.0
  0
LINE
  5
38D
330
18
100
AcDbEntity
  8
2
100
AcDbLine
 10
20.44135985626922
 20
661.6190348607177
 30
0.0
 11
18.94135985626921
 21
661.6190348607177
 31
0.0
  0
LINE
  5
38E
330
18
100
AcDbEntity
  8
2
100
AcDbLine
 10
10.44135985626921
 20
661.6190348607177
 30
0.0
 11
9.691359856269219
 21
661.6190348607177
 31
0.0
  0
LINE
  5
38F
330
18
100
AcDbEntity
  8
2
100
AcDbLine
 10
18.94135985626921
 20
663.4190348607178
 30
0.0
 11
10.44135985626921
 21
663.4190348607178
 31
0.0
  0
LINE
  5
390
330
18
100
AcDbEntity
  8
2
100
AcDbLine
 10
28.94135985626921
 20
663.4190348607178
 30
0.0
 11
20.44135985626922
 21
663.4190348607178
 31
0.0
  0
LINE
  5
391
330
18
100
AcDbEntity
  8
2
100
AcDbLine
 10
38.9413598562692
 20
663.4190348607178
 30
0.0
 11
30.44135985626921
 21
663.4190348607178
 31
0.0
  0
LINE
  5
392
330
18
100
AcDbEntity
  8
2
 48
5.0
100
AcDbLine
 10
51.97632647068752
 20
660.619034860718
 30
0.0
 11
58.19135985626925
 21
650.3987577377612
 31
0.0
  0
LINE
  5
393
330
18
100
AcDbEntity
  8
2
100
AcDbLine
 10
45.44135985626922
 20
663.4190348607178
 30
0.0
 11
40.44135985626922
 21
663.4190348607178
 31
0.0
  0
LINE
  5
394
330
18
100
AcDbEntity
  8
2
100
AcDbLine
 10
102.2759310438082
 20
749.8346589078151
 30
0.0
 11
103.2777865475601
 21
749.8346589078151
 31
0.0
  0
DIMENSION
  5
395
330
18
100
AcDbEntity
  8
3
100
AcDbDimension
  2
*D1
 10
115.2777865475602
 20
808.3996783928448
 30
0.0
 11
123.9027865475601
 21
810.5246783928446
 31
0.0
 70
    32
 71
     5
 42
2.700000000000001
  3
ISO-25
100
AcDbAlignedDimension
 13
112.57778654756
 23
800.5846589078151
 33
0.0
 14
115.2777865475602
 24
800.5846589078151
 34
0.0
100
AcDbRotatedDimension
  0
DIMENSION
  5
396
330
18
100
AcDbEntity
  8
3
100
AcDbDimension
  2
*D2
 10
98.27778654756016
 20
728.8976047041577
 30
0.0
 11
103.7050497484906
 21
796.2113990744263
 31
0.0
 70
   162
 71
     5
 42
0.5292536423747661
  3
ISO-25
100
AcDb2LineAngularDimension
 13
98.68823413106852
 23
773.7863808249471
 33
0.0
 14
112.8255915594003
 24
797.9563210472568
 34
0.0
 15
98.27778654756016
 25
772.2717131114728
 35
0.0
 16
106.4865798254601
 26
795.3762943235227
 36
0.0
  0
DIMENSION
  5
397
330
18
100
AcDbEntity
  8
3
100
AcDbDimension
  2
*D3
 10
123.6224882854714
 20
800.5846589078151
 30
0.0
 11
121.4974882854713
 21
798.0846589078152
 31
0.0
 70
    32
 71
     5
 42
5.0
  3
ISO-25
100
AcDbAlignedDimension
 13
113.07778654756
 23
795.584658907815
 33
0.0
 14
115.2777865475602
 24
800.5846589078151
 34
0.0
 50
90.0
100
AcDbRotatedDimension
  0
DIMENSION
  5
398
330
18
100
AcDbEntity
  8
3
100
AcDbDimension
  2
*D4
 10
129.0545776800529
 20
700.5846589078152
 30
0.0
 11
126.9295776800527
 21
750.5846589078152
 31
0.0
 70
    32
 71
     5
 42
100.0
  3
ISO-25
100
AcDbAlignedDimension
 13
115.2777865475602
 23
800.5846589078151
 33
0.0
 14
115.2777865475602
 24
700.5846589078152
 34
0.0
 50
90.0
100
AcDbRotatedDimension
  0
DIMENSION
  5
399
330
18
100
AcDbEntity
  8
3
100
AcDbDimension
  2
*D5
 10
90.73798308788957
 20
773.0846589078152
 30
0.0
 11
88.61298308788944
 21
750.5846589078152
 31
0.0
 70
    32
 71
     5
 42
45.00000000000023
  3
ISO-25
100
AcDbAlignedDimension
 13
98.27778654756016
 23
728.0846589078151
 33
0.0
 14
98.27778654756016
 24
773.0846589078152
 34
0.0
 50
90.0
100
AcDbRotatedDimension
  0
DIMENSION
  5
39A
330
18
100
AcDbEntity
  8
3
100
AcDbDimension
  2
*D6
 10
104.8320023487002
 20
698.2882328505603
 30
0.0
 11
99.59781931416694
 21
711.4457004245654
 31
0.0
 70
    33
 71
     5
 42
27.99999999999988
  3
ISO-25
100
AcDbAlignedDimension
 13
100.092071256821
 23
727.9538147950702
 33
0.0
 14
114.2289699159177
 24
703.7846589078152
 34
0.0
  0
DIMENSION
  5
39B
330
18
100
AcDbEntity
  8
3
100
AcDbDimension
  2
*D7
 10
115.2777865475602
 20
690.1293879495956
 30
0.0
 11
113.4027865475601
 21
690.1293879495956
 31
0.0
 70
   160
 71
     5
 42
3.750000000000071
  3
ISO-25
100
AcDbAlignedDimension
 13
111.5277865475601
 23
701.610583114153
 33
0.0
 14
115.2777865475602
 24
700.5846589078152
 34
0.0
100
AcDbRotatedDimension
  0
DIMENSION
  5
39C
330
18
100
AcDbEntity
  8
3
100
AcDbDimension
  2
*D8
 10
74.16281931644809
 20
700.5846589078152
 30
0.0
 11
72.03781931644797
 21
750.5846589078152
 31
0.0
 70
    32
 71
     5
 42
100.0
  3
ISO-25
100
AcDbAlignedDimension
 13
54.69135985626921
 23
800.5846589078151
 33
0.0
 14
54.69135985626925
 24
700.5846589078152
 34
0.0
 50
90.0
100
AcDbRotatedDimension
  0
DIMENSION
  5
39D
330
18
100
AcDbEntity
  8
3
100
AcDbDimension
  2
*D9
 10
55.69135985626922
 20
693.0526129445127
 30
0.0
 11
9.691359856269226
 21
695.1776129445128
 31
0.0
 70
    32
 71
     5
 42
92.0
  3
ISO-25
100
AcDbAlignedDimension
 13
-36.30864014373077
 23
701.5846589078152
 33
0.0
 14
55.69135985626922
 24
701.5846589078151
 34
0.0
100
AcDbRotatedDimension
  0
DIMENSION
  5
39E
330
18
100
AcDbEntity
  8
3
100
AcDbDimension
  2
*D10
 10
-40.30864014373078
 20
687.7314690506397
 30
0.0
 11
9.691359856269226
 21
689.8564690506398
 31
0.0
 70
    32
 71
     5
 42
100.0
  3
ISO-25
100
AcDbAlignedDimension
 13
59.69135985626925
 23
705.5846589078152
 33
0.0
 14
-40.30864014373078
 24
705.5846589078152
 34
0.0
100
AcDbRotatedDimension
  0
DIMENSION
  5
39F
330
18
100
AcDbEntity
  8
3
100
AcDbDimension
  2
*D11
 10
-35.30864014373071
 20
705.5846589078156
 30
0.0
 11
-56.6822673574689
 21
694.1874166221932
 31
0.0
 70
   164
 71
     5
 42
5.000000000000453
  3
ISO-25$4
100
AcDbRadialDimension
 15
-39.31358013868122
 25
702.5912568905701
 35
0.0
 40
0.0
1001
ACAD
1000
DSTYLE
1002
{
1070
     3
1000
4-R<>
1070
   288
1070
     1
1002
}
  0
DIMENSION
  5
3A0
330
18
100
AcDbEntity
  8
3
100
AcDbDimension
  2
*D12
 10
50.69135985626929
 20
673.6656519373117
 30
0.0
 11
9.691359856269222
 21
675.7906519373117
 31
0.0
 70
    32
 71
     5
 42
82.00000000000015
  3
ISO-25
100
AcDbAlignedDimension
 13
-31.30864014373085
 23
665.6190348607179
 33
0.0
 14
50.69135985626929
 24
665.6190348607179
 34
0.0
100
AcDbRotatedDimension
  0
DIMENSION
  5
3A1
330
18
100
AcDbEntity
  8
3
100
AcDbDimension
  2
*D13
 10
59.69135985626921
 20
639.5451689467706
 30
0.0
 11
9.691359856269198
 21
641.6701689467706
 31
0.0
 70
    32
 71
     5
 42
100.0
  3
ISO-25
100
AcDbAlignedDimension
 13
-40.30864014373081
 23
648.6190348607179
 33
0.0
 14
59.69135985626921
 24
648.6190348607179
 34
0.0
100
AcDbRotatedDimension
  0
DIMENSION
  5
3A2
330
18
100
AcDbEntity
  8
3
100
AcDbDimension
  2
*D14
 10
65.66552011495993
 20
650.8190348607178
 30
0.0
 11
63.54052011495982
 21
659.4440348607178
 31
0.0
 70
    32
 71
     5
 42
2.199999999999931
  3
ISO-25
100
AcDbAlignedDimension
 13
59.69135985626925
 23
648.6190348607179
 33
0.0
 14
59.69135985626925
 24
650.8190348607178
 34
0.0
 50
90.0
100
AcDbRotatedDimension
  0
DIMENSION
  5
3A3
330
18
100
AcDbEntity
  8
3
100
AcDbDimension
  2
*D15
 10
69.7635333270863
 20
665.6190348607179
 30
0.0
 11
67.63853332708619
 21
674.2440348607178
 31
0.0
 70
    32
 71
     5
 42
2.200000000000045
  3
ISO-25
100
AcDbAlignedDimension
 13
50.27362376798485
 23
663.4190348607178
 33
0.0
 14
49.00453632834907
 24
665.6190348607179
 34
0.0
 50
90.0
100
AcDbRotatedDimension
  0
DIMENSION
  5
3A4
330
18
100
AcDbEntity
  8
3
100
AcDbDimension
  2
*D16
 10
75.06767225367865
 20
665.6190348607179
 30
0.0
 11
72.94267225367857
 21
657.1190348607179
 31
0.0
 70
    32
 71
     5
 42
17.0
  3
ISO-25
100
AcDbAlignedDimension
 13
59.69135985626925
 23
648.6190348607179
 33
0.0
 14
49.00453632834907
 24
665.6190348607179
 34
0.0
 50
90.0
100
AcDbRotatedDimension
  0
DIMENSION
  5
3A5
330
18
100
AcDbEntity
  8
3
100
AcDbDimension
  2
*D17
 10
-29.62181661581093
 20
662.6190348607178
 30
0.0
 11
-47.55297753770246
 21
670.4407103469484
 31
0.0
 70
   164
 71
     5
 42
2.999999999999771
  3
ISO-25$4
100
AcDbRadialDimension
 15
-31.90807094073687
 25
664.5614666257372
 35
0.0
 40
0.0
1001
ACAD
1000
DSTYLE
1002
{
1070
     3
1000
(全周)
1070
   288
1070
     1
1002
}
  0
DIMENSION
  5
3A6
330
18
100
AcDbEntity
  8
3
100
AcDbDimension
  2
*D18
 10
-40.30864014373079
 20
648.6190348607179
 30
0.0
 11
-36.5566615635571
 21
660.8373953326787
 31
0.0
 70
   162
 71
     5
 42
0.5463600244489828
  3
ISO-25
100
AcDb2LineAngularDimension
 13
-32.18508093242056
 23
664.1777766748726
 33
0.0
 14
-40.00458608967671
 24
651.3190348607178
 34
0.0
 15
-40.30864014373079
 25
651.3190348607178
 35
0.0
 16
-38.37109225278853
 26
661.3400043019119
 36
0.0
  0
LEADER
  5
3A7
330
18
100
AcDbEntity
  8
3
100
AcDbLeader
  3
ISO-25
 76
     2
 10
55.47532293602035
 20
656.5876441272629
 30
0.0
 10
60.01587197340167
 20
668.3266254771583
 30
0.0
1001
ACAD
1000
DSTYLE
1002
{
1070
   147
1040
0.625
1070
    77
1070
     0
1002
}
  0
LEADER
  5
3A8
330
18
100
AcDbEntity
  8
3
100
AcDbLeader
  3
ISO-25
 76
     2
 10
31.96482451602298
 20
653.3999497839532
 30
0.0
 10
35.3930201393595
 20
646.4345482876672
 30
0.0
1001
ACAD
1000
DSTYLE
1002
{
1070
   147
1040
0.625
1070
    77
1070
     0
1002
}
  0
LEADER
  5
3A9
330
18
100
AcDbEntity
  8
3
100
AcDbLeader
  3
ISO-25
 76
     2
 10
31.4287196992667
 20
793.4160527875173
 30
0.0
 10
36.00507099035809
 20
805.0282122572863
 30
0.0
1001
ACAD
1000
DSTYLE
1002
{
1070
   147
1040
0.625
1070
    77
1070
     0
1002
}
  0
CIRCLE
  5
3AA
330
18
100
AcDbEntity
  8
3
 62
     2
100
AcDbCircle
 10
61.328772631084
 20
671.0240857387855
 30
0.0
 40
3.0
  0
CIRCLE
  5
3AB
330
18
100
AcDbEntity
  8
3
 62
     2
100
AcDbCircle
 10
37.12154717833675
 20
643.9825706622546
 30
0.0
 40
3.0
  0
CIRCLE
  5
3AC
330
18
100
AcDbEntity
  8
3
 62
     2
100
AcDbCircle
 10
36.94690185640206
 20
807.8765371368898
 30
0.0
 40
3.0
  0
MTEXT
  5
3AD
330
18
100
AcDbEntity
  8
3
100
AcDbMText
 10
60.88228852499401
 20
672.6273526857974
 30
0.0
 40
3.0
 41
8.1134
 71
     1
 72
     5
  1
1
 73
     1
 44
1.0
  0
MTEXT
  5
3AE
330
18
100
AcDbEntity
  8
3
100
AcDbMText
 10
35.87064158753479
 20
645.5300488584311
 30
0.0
 40
3.0
 41
8.1134
 71
     1
 72
     5
  1
2
 73
     1
 44
1.0
  0
MTEXT
  5
3AF
330
18
100
AcDbEntity
  8
3
100
AcDbMText
 10
36.14549494812115
 20
809.5401341821016
 30
0.0
 40
3.0
 41
8.1134
 71
     1
 72
     5
  1
3
 73
     1
 44
1.0
  0
MTEXT
  5
3B0
330
18
100
AcDbEntity
  8
3
100
AcDbMText
 10
145.5728611632336
 20
726.1083720923708
 30
0.0
 40
3.0
 41
55.5006
 71
     1
 72
     5
  1
駐）　１　メタクリル　　（白）\P　　　２　エポキシ　　　　　　\P　　　３　特殊強化ガラス（白）\P\P　　　　一般公差　%%p1.5\P　　　　表面アラサ　\U+25BD\U+25BD\U+25BD
 73
     1
 44
1.5
  0
CIRCLE
  5
3B1
330
18
100
AcDbEntity
  8
3
 62
     2
100
AcDbCircle
 10
157.818534593574
 20
724.4992706287962
 30
0.0
 40
2.0
  0
CIRCLE
  5
3B2
330
18
100
AcDbEntity
  8
3
 62
     2
100
AcDbCircle
 10
157.8862600870408
 20
716.9178526338661
 30
0.0
 40
2.0
  0
CIRCLE
  5
3B3
330
18
100
AcDbEntity
  8
3
 62
     2
100
AcDbCircle
 10
157.7508099070065
 20
709.471816663078
 30
0.0
 40
2.0
  0
LINE
  5
3B4
330
18
100
AcDbEntity
  8
3
100
AcDbLine
 10
198.9588916030735
 20
715.0046445965956
 30
0.0
 11
145.6432744388449
 21
715.0046445965956
 31
0.0
  0
LINE
  5
3B7
330
18
100
AcDbEntity
  8
3
100
AcDbLine
 10
158.7330288488975
 20
692.5124518191859
 30
0.0
 11
191.3454395513939
 21
692.5124518191859
 31
0.0
  0
LINE
  5
3B8
330
18
100
AcDbEntity
  8
3
100
AcDbLine
 10
109.6779332657212
 20
675.7088346540901
 30
0.0
 11
209.6779332657211
 21
675.7088346540901
 31
0.0
  0
LINE
  5
3B9
330
18
100
AcDbEntity
  8
3
100
AcDbLine
 10
109.6779332657212
 20
675.7088346540901
 30
0.0
 11
109.6779332657212
 21
643.7088346540901
 31
0.0
  0
LINE
  5
3BA
330
18
100
AcDbEntity
  8
3
100
AcDbLine
 10
109.6779332657212
 20
659.7088346540901
 30
0.0
 11
209.6779332657211
 21
659.7088346540901
 31
0.0
  0
LINE
  5
3BB
330
18
100
AcDbEntity
  8
3
100
AcDbLine
 10
109.6779332657212
 20
643.7088346540901
 30
0.0
 11
209.6779332657211
 21
643.7088346540901
 31
0.0
  0
LINE
  5
3BC
330
18
100
AcDbEntity
  8
3
100
AcDbLine
 10
159.6779332657211
 20
675.7088346540901
 30
0.0
 11
159.6779332657211
 21
643.7088346540901
 31
0.0
  0
LINE
  5
3BD
330
18
100
AcDbEntity
  8
3
100
AcDbLine
 10
209.6779332657211
 20
675.7088346540901
 30
0.0
 11
209.6779332657211
 21
643.7088346540901
 31
0.0
  0
LINE
  5
3BE
330
18
100
AcDbEntity
  8
3
100
AcDbLine
 10
159.6779332657211
 20
627.7088346540899
 30
0.0
 11
209.6779332657211
 21
627.7088346540899
 31
0.0
  0
LINE
  5
3BF
330
18
100
AcDbEntity
  8
3
100
AcDbLine
 10
159.6779332657211
 20
643.7088346540901
 30
0.0
 11
159.6779332657211
 21
627.7088346540899
 31
0.0
  0
LINE
  5
3C0
330
18
100
AcDbEntity
  8
3
100
AcDbLine
 10
209.6779332657211
 20
643.7088346540901
 30
0.0
 11
209.6779332657211
 21
627.7088346540899
 31
0.0
  0
LINE
  5
3C1
330
18
100
AcDbEntity
  8
3
100
AcDbLine
 10
164.6779332657211
 20
675.7088346540901
 30
0.0
 11
164.6779332657211
 21
643.7088346540901
 31
0.0
  0
LINE
  5
3C2
330
18
100
AcDbEntity
  8
3
100
AcDbLine
 10
114.6779332657212
 20
675.7088346540901
 30
0.0
 11
114.6779332657212
 21
643.7088346540901
 31
0.0
  0
LINE
  5
3C3
330
18
100
AcDbEntity
  8
3
100
AcDbLine
 10
149.6779332657211
 20
659.7088346540901
 30
0.0
 11
149.6779332657211
 21
643.7088346540901
 31
0.0
  0
LINE
  5
3C4
330
18
100
AcDbEntity
  8
3
100
AcDbLine
 10
129.6779332657212
 20
659.7088346540901
 30
0.0
 11
129.6779332657212
 21
643.7088346540901
 31
0.0
  0
LINE
  5
3C5
330
18
100
AcDbEntity
  8
3
100
AcDbLine
 10
134.6779332657212
 20
659.7088346540901
 30
0.0
 11
134.6779332657212
 21
643.7088346540901
 31
0.0
  0
LINE
  5
3C6
330
18
100
AcDbEntity
  8
3
100
AcDbLine
 10
109.6779332657212
 20
651.7088346540901
 30
0.0
 11
149.6779332657211
 21
651.7088346540901
 31
0.0
  0
LINE
  5
3C7
330
18
100
AcDbEntity
  8
3
100
AcDbLine
 10
184.6779332657211
 20
627.7088346540899
 30
0.0
 11
184.6779332657211
 21
643.7088346540901
 31
0.0
  0
LINE
  5
3C8
330
18
100
AcDbEntity
  8
3
100
AcDbLine
 10
172.1779332657211
 20
627.7088346540899
 30
0.0
 11
172.1779332657211
 21
643.7088346540901
 31
0.0
  0
LINE
  5
3C9
330
18
100
AcDbEntity
  8
3
100
AcDbLine
 10
197.1779332657211
 20
627.7088346540899
 30
0.0
 11
197.1779332657211
 21
643.7088346540901
 31
0.0
  0
LINE
  5
3CA
330
18
100
AcDbEntity
  8
3
100
AcDbLine
 10
149.6779332657211
 20
655.7088346540901
 30
0.0
 11
159.6779332657211
 21
655.7088346540901
 31
0.0
  0
LINE
  5
3CB
330
18
100
AcDbEntity
  8
3
100
AcDbLine
 10
159.6779332657211
 20
639.70883465409
 30
0.0
 11
209.6779332657211
 21
639.70883465409
 31
0.0
  0
LINE
  5
3CC
330
18
100
AcDbEntity
  8
3
100
AcDbLine
 10
164.1779332657211
 20
639.70883465409
 30
0.0
 11
164.1779332657211
 21
627.7088346540899
 31
0.0
  0
LINE
  5
3CD
330
18
100
AcDbEntity
  8
3
100
AcDbLine
 10
176.6779332657211
 20
627.7088346540899
 30
0.0
 11
176.6779332657211
 21
639.70883465409
 31
0.0
  0
LINE
  5
3CE
330
18
100
AcDbEntity
  8
3
100
AcDbLine
 10
189.1779332657211
 20
627.7088346540899
 30
0.0
 11
189.1779332657211
 21
639.70883465409
 31
0.0
  0
LINE
  5
3CF
330
18
100
AcDbEntity
  8
3
100
AcDbLine
 10
201.6779332657211
 20
627.7088346540899
 30
0.0
 11
201.6779332657211
 21
639.70883465409
 31
0.0
  0
MTEXT
  5
3D0
330
18
100
AcDbEntity
  8
3
100
AcDbMText
 10
110.468572100535
 20
674.0568643969112
 30
0.0
 40
2.799999999999998
 41
4.0944
 71
     1
 72
     5
  1
部品図
 73
     1
 44
1.0
  0
MTEXT
  5
3D1
330
18
100
AcDbEntity
  8
3
100
AcDbMText
 10
110.5907665360265
 20
659.7335815443138
 30
0.0
 40
2.799999999999998
 41
3.9807
 71
     1
 72
     5
  1
材料
 73
     1
 44
1.0
  0
MTEXT
  5
3D2
330
18
100
AcDbEntity
  8
3
100
AcDbMText
 10
110.5907665360265
 20
651.3226084171716
 30
0.0
 40
2.799999999999998
 41
3.9807
 71
     1
 72
     5
  1
尺度
 73
     1
 44
1.0
  0
MTEXT
  5
3D3
330
18
100
AcDbEntity
  8
3
100
AcDbMText
 10
130.4184264848792
 20
651.3226084171716
 30
0.0
 40
2.799999999999998
 41
3.9807
 71
     1
 72
     5
  1
単位
 73
     1
 44
1.0
  0
MTEXT
  5
3D4
330
18
100
AcDbEntity
  8
3
100
AcDbMText
 10
130.4184264848792
 20
659.7335815443138
 30
0.0
 40
2.799999999999998
 41
3.9807
 71
     1
 72
     5
  1
個数
 73
     1
 44
1.0
  0
MTEXT
  5
3D5
330
18
100
AcDbEntity
  8
3
100
AcDbMText
 10
150.8386128892376
 20
659.0673905289007
 30
0.0
 40
2.799999999999998
 41
9.237
 71
     1
 72
     5
  1
部番
 73
     1
 44
1.0
  0
MTEXT
  5
3D6
330
18
100
AcDbEntity
  8
3
100
AcDbMText
 10
160.896168604693
 20
637.2092807369516
 30
0.0
 40
2.799999999999998
 41
3.9807
 71
     1
 72
     5
  1
設計
 73
     1
 44
1.0
  0
MTEXT
  5
3D7
330
18
100
AcDbEntity
  8
3
100
AcDbMText
 10
172.6313457868512
 20
636.9808527247256
 30
0.0
 40
2.799999999999998
 41
3.9807
 71
     1
 72
     5
  1
製図
 73
     1
 44
1.0
  0
MTEXT
  5
3D8
330
18
100
AcDbEntity
  8
3
100
AcDbMText
 10
184.9738947610195
 20
637.5519218751848
 30
0.0
 40
2.799999999999998
 41
3.9807
 71
     1
 72
     5
  1
検図
 73
     1
 44
1.0
  0
MTEXT
  5
3D9
330
18
100
AcDbEntity
  8
3
100
AcDbMText
 10
197.6592920936649
 20
637.3234938629585
 30
0.0
 40
2.799999999999998
 41
3.9807
 71
     1
 72
     5
  1
承認
 73
     1
 44
1.0
  0
MTEXT
  5
3DA
330
18
100
AcDbEntity
  8
3
100
AcDbMText
 10
160.2032662754453
 20
673.7661941093457
 30
0.0
 40
2.799999999999998
 41
4.0944
 71
     1
 72
     5
  1
図　　番
 73
     1
 44
1.0
  0
MTEXT
  5
3DB
330
18
100
AcDbEntity
  8
3
100
AcDbMText
 10
160.3486889260661
 20
657.7793177319605
 30
0.0
 40
2.799999999999998
 41
4.0944
 71
     1
 72
     5
  1
品　　名
 73
     1
 44
1.0
  0
MTEXT
  5
3DC
330
18
100
AcDbEntity
  8
3
100
AcDbMText
 10
162.6636851278831
 20
643.3450517426637
 30
0.0
 40
2.799999999999998
 41
9.237
 71
     1
 72
     5
  1
・・
 73
     1
 44
1.0
  0
MTEXT
  5
3DD
330
18
100
AcDbEntity
  8
3
100
AcDbMText
 10
175.5599583757001
 20
643.1776502859145
 30
0.0
 40
2.799999999999998
 41
9.237
 71
     1
 72
     5
  1
・・
 73
     1
 44
1.0
  0
MTEXT
  5
3DE
330
18
100
AcDbEntity
  8
3
100
AcDbMText
 10
187.5852917669499
 20
643.3450517426637
 30
0.0
 40
2.799999999999998
 41
9.237
 71
     1
 72
     5
  1
・・
 73
     1
 44
1.0
  0
MTEXT
  5
3DF
330
18
100
AcDbEntity
  8
3
100
AcDbMText
 10
199.5894166124518
 20
643.3450517426637
 30
0.0
 40
2.799999999999998
 41
9.237
 71
     1
 72
     5
  1
・・
 73
     1
 44
1.0
  0
MTEXT
  5
3E0
330
18
100
AcDbEntity
  8
3
100
AcDbMText
 10
119.0894788079023
 20
669.4977870020172
 30
0.0
 40
4.0
 41
38.67149319106715
 71
     1
 72
     5
  1
スティムソナイト
 73
     1
 44
1.0
  0
MTEXT
  5
3E1
330
18
100
AcDbEntity
  8
3
100
AcDbMText
 10
176.6536162041045
 20
669.0366788917315
 30
0.0
 40
4.0
 41
10.4260336218931
 71
     1
 72
     5
  1
911
 73
     1
 44
1.0
  0
MTEXT
  5
3E2
330
18
100
AcDbEntity
  8
3
100
AcDbMText
 10
176.6536162041045
 20
653.6912502274711
 30
0.0
 40
4.0
 41
10.42599999999999
 71
     1
 72
     5
  1
B-W
 73
     1
 44
1.0
  0
MTEXT
  5
3E3
330
18
100
AcDbEntity
  8
3
100
AcDbMText
 10
118.9385167923993
 20
649.3712595161497
 30
0.0
 40
3.0
 41
8.030624239295669
 71
     1
 72
     5
  1
1/1
 73
     1
 44
1.0
  0
MTEXT
  5
3E4
330
18
100
AcDbEntity
  8
3
100
AcDbMText
 10
138.406695763938
 20
649.3712595161497
 30
0.0
 40
3.0
 41
8.030599999999997
 71
     1
 72
     5
  1
m/m
 73
     1
 44
1.0
  0
MTEXT
  5
3E5
330
18
100
AcDbEntity
  8
3
100
AcDbMText
 10
153.3728582020578
 20
651.195298139243
 30
0.0
 40
3.0
 41
6.3272
 71
     1
 72
     5
  1
/
 73
     1
 44
1.0
  0
LINE
  5
3E6
330
18
100
AcDbEntity
  8
1
  6
CENTER
 62
     2
100
AcDbLine
 10
-43.30864014373077
 20
750.5846589078149
 30
0.0
 11
62.6913598562692
 21
750.5846589078149
 31
0.0
  0
LINE
  5
3E7
330
18
100
AcDbEntity
  8
1
  6
CENTER
 62
     2
100
AcDbLine
 10
9.691359856269222
 20
803.5846589078152
 30
0.0
 11
9.691359856269222
 21
697.5846589078152
 31
0.0
  0
LINE
  5
3E8
330
18
100
AcDbEntity
  8
1
  6
CENTER
 62
     2
100
AcDbLine
 10
95.27778654756019
 20
750.5846589078152
 30
0.0
 11
118.2777865475602
 21
750.5846589078149
 31
0.0
  0
LINE
  5
3E9
330
18
100
AcDbEntity
  8
1
  6
CENTER
 62
     2
100
AcDbLine
 10
9.691359856269222
 20
668.6190348607177
 30
0.0
 11
9.691359856269222
 21
645.6190348607178
 31
0.0
  0
LINE
  5
498
330
18
100
AcDbEntity
  8
3
100
AcDbLine
 10
198.9588916030735
 20
722.5046445965956
 30
0.0
 11
145.6432744388449
 21
722.5046445965956
 31
0.0
  0
LINE
  5
499
330
18
100
AcDbEntity
  8
3
100
AcDbLine
 10
198.9588916030735
 20
707.5046445965956
 30
0.0
 11
145.6432744388449
 21
707.5046445965956
 31
0.0
  0
LINE
  5
49A
330
18
100
AcDbEntity
  8
3
100
AcDbLine
 10
158.7330288488975
 20
685.0124518191859
 30
0.0
 11
191.3454395513939
 21
685.0124518191859
 31
0.0
  0
VIEWPORT
  5
4B9
330
15
100
AcDbEntity
 67
     1
  8
0
  6
DASHED
100
AcDbViewport
 10
0.0
 20
0.0
 30
0.0
 40
0.0
 41
0.0
 68
     1
 69
     1
 12
0.0
 22
0.0
 13
0.0
 23
0.0
 14
10.0
 24
10.0
 15
10.0
 25
10.0
 16
0.0
 26
0.0
 36
1.0
 17
0.0
 27
0.0
 37
0.0
 42
50.0
 43
0.0
 44
0.0
 45
0.0
 50
0.0
 51
0.0
 72
   100
 90
    32800
  1

281
     0
 71
     1
 74
     0
110
0.0
120
0.0
130
0.0
111
1.0
121
0.0
131
0.0
112
0.0
122
1.0
132
0.0
 79
     0
146
0.0
  0
VIEWPORT
  5
4BB
330
15
100
AcDbEntity
 67
     1
  8
3
  6
DASHED
100
AcDbViewport
 10
0.0
 20
0.0
 30
0.0
 40
0.0
 41
0.0
 68
    -1
 69
     2
 12
115.4319043531466
 22
719.8640428637327
 13
0.0
 23
0.0
 14
10.0
 24
10.0
 15
10.0
 25
10.0
 16
0.0
 26
0.0
 36
1.0
 17
0.0
 27
0.0
 37
0.0
 42
50.0
 43
0.0
 44
0.0
 45
185.7553488092809
 50
0.0
 51
0.0
 72
   100
 90
    32800
  1

281
     0
 71
     1
 74
     0
110
0.0
120
0.0
130
0.0
111
1.0
121
0.0
131
0.0
112
0.0
122
1.0
132
0.0
 79
     0
146
0.0
  0
ENDSEC
  0
SECTION
  2
OBJECTS
  0
DICTIONARY
  5
C
330
0
100
AcDbDictionary
281
     1
  3
ACAD_GROUP
350
D
  3
ACAD_LAYOUT
350
177
  3
ACAD_MLINESTYLE
350
1B
  3
ACAD_PLOTSETTINGS
350
178
  3
ACAD_PLOTSTYLENAME
350
175
  3
AcadDim
350
189
  3
AcDbVariableDictionary
350
225
  3
CONTENTDICTIONARY
350
39
  0
DICTIONARY
  5
D
102
{ACAD_REACTORS
330
C
102
}
330
C
100
AcDbDictionary
281
     1
  0
DICTIONARY
  5
177
102
{ACAD_REACTORS
330
C
102
}
330
C
100
AcDbDictionary
281
     1
  3
Model
350
179
  3
ﾚｲｱｳﾄ1
350
17A
  0
DICTIONARY
  5
1B
102
{ACAD_REACTORS
330
C
102
}
330
C
100
AcDbDictionary
281
     1
  3
STANDARD
350
1C
  0
DICTIONARY
  5
178
102
{ACAD_REACTORS
330
C
102
}
330
C
100
AcDbDictionary
281
     1
  0
ACDBDICTIONARYWDFLT
  5
175
102
{ACAD_REACTORS
330
C
102
}
330
C
100
AcDbDictionary
281
     1
  3
Normal
350
176
100
AcDbDictionaryWithDefault
340
176
  0
XRECORD
  5
189
102
{ACAD_REACTORS
330
C
102
}
330
C
100
AcDbXrecord
280
     1
 90
   990106
  3
OPEN
 60
     0
 61
     0
 62
     4
 63
     4
 64
     1
 65
     0
 66
     0
 67
     3
 68
     1
 69
     0
 70
     0
 71
     0
 72
     0
 40
0.0
170
     2
  0
DICTIONARY
  5
225
102
{ACAD_REACTORS
330
C
102
}
330
C
100
AcDbDictionary
281
     1
  3
DIMASSOC
350
226
  0
DICTIONARY
  5
39
102
{ACAD_REACTORS
330
C
102
}
330
C
100
AcDbDictionary
281
     1
  0
LAYOUT
  5
179
102
{ACAD_REACTORS
330
177
102
}
330
177
100
AcDbPlotSettings
  1

  2
HP DesignJet 750C+ (E/A0) by HP
  4
User1292
  6

 40
4.995333194732666
 41
16.93333625793457
 42
4.995330810546875
 43
16.93333435058593
 44
296.9259948730469
 45
209.804000854492
 46
20.0
 47
0.0
 48
0.0
 49
0.0
140
0.0
141
0.0
142
1.0
143
1.047934719908093
 70
 11952
 72
     1
 73
     0
 74
     1
  7
hp750.ctb
 75
     0
147
0.9542579141644459
148
62.19698126983256
149
-627.6786244173877
100
AcDbLayout
  1
Model
 70
     1
 71
     0
 10
0.0
 20
0.0
 11
12.0
 21
9.0
 12
0.0
 22
0.0
 32
0.0
 14
0.0
 24
0.0
 34
0.0
 15
0.0
 25
0.0
 35
0.0
146
0.0
 13
0.0
 23
0.0
 33
0.0
 16
1.0
 26
0.0
 36
0.0
 17
0.0
 27
1.0
 37
0.0
 76
     0
330
18
  0
LAYOUT
  5
17A
102
{ACAD_REACTORS
330
177
102
}
330
177
100
AcDbPlotSettings
  1

  2
HP DesignJet 750C+ (E/A0) by HP
  4

  6

 40
0.0
 41
0.0
 42
0.0
 43
0.0
 44
0.0
 45
0.0
 46
0.0
 47
0.0
 48
0.0
 49
0.0
140
0.0
141
0.0
142
1.0
143
1.0
 70
   688
 72
     0
 73
     1
 74
     5
  7
D:\Program Files\AutoCAD LT 98\Plot Styles\hp750.ctb
 75
    16
147
1.0
148
0.0
149
0.0
100
AcDbLayout
  1
ﾚｲｱｳﾄ1
 70
     0
 71
     1
 10
0.0
 20
0.0
 11
0.0
 21
0.0
 12
0.0
 22
0.0
 32
0.0
 14
0.0
 24
0.0
 34
0.0
 15
0.0
 25
0.0
 35
0.0
146
0.0
 13
0.0
 23
0.0
 33
0.0
 16
1.0
 26
0.0
 36
0.0
 17
0.0
 27
1.0
 37
0.0
 76
     0
330
15
331
4B9
  0
MLINESTYLE
  5
1C
102
{ACAD_REACTORS
330
1B
102
}
330
1B
100
AcDbMlineStyle
  2
STANDARD
 70
     0
  3

 62
   256
 51
90.0
 52
90.0
 71
     2
 49
0.5
 62
   256
  6
BYLAYER
 49
-0.5
 62
   256
  6
BYLAYER
  0
ACDBPLACEHOLDER
  5
176
102
{ACAD_REACTORS
330
175
102
}
330
175
  0
DICTIONARYVAR
  5
226
102
{ACAD_REACTORS
330
225
102
}
330
225
100
DictionaryVariables
280
     0
  1
1
  0
ENDSEC
  0
EOF
